osu file format v14

[General]
AudioFilename: audio.mp3
AudioLeadIn: 0
PreviewTime: 42385
Countdown: 0
SampleSet: Soft
StackLeniency: 0.3
Mode: 0
LetterboxInBreaks: 0
EpilepsyWarning: 1
WidescreenStoryboard: 1

[Editor]
DistanceSpacing: 2
BeatDivisor: 6
GridSize: 4
TimelineZoom: 1

[Metadata]
Title:Believer
TitleUnicode:Believer
Artist:J.Fla
ArtistUnicode:J.Fla
Creator:seselis1
Version:Pain
Source:
Tags:Imagine Dragons pop rock English Dora- doraemonelf female version vocals cover
BeatmapID:2258888
BeatmapSetID:1079693

[Difficulty]
HPDrainRate:6
CircleSize:4
OverallDifficulty:9
ApproachRate:9.4
SliderMultiplier:2.29999990463257
SliderTickRate:1

[Events]
//Background and Video events
0,0,"bg.jpg",0,0
//Break Periods
//Storyboard Layer 0 (Background)
//Storyboard Layer 1 (Fail)
//Storyboard Layer 2 (Pass)
//Storyboard Layer 3 (Foreground)
//Storyboard Layer 4 (Overlay)
//Storyboard Sound Samples

[TimingPoints]
1233,545.454545454546,4,2,1,45,1,0
1233,-125,4,2,1,45,0,0
1414,-125,4,2,2,45,0,0
1596,-125,4,2,3,45,0,0
1778,-125,4,2,4,45,0,0
1960,-125,4,2,2,45,0,0
2142,-125,4,2,3,45,0,0
2323,-125,4,2,4,45,0,0
2505,-125,4,2,2,45,0,0
2687,-125,4,2,3,45,0,0
2869,-125,4,2,4,45,0,0
3051,-125,4,2,2,45,0,0
3233,-125,4,2,3,45,0,0
3414,-125,4,2,4,45,0,0
3596,-125,4,2,2,45,0,0
3778,-125,4,2,3,45,0,0
3960,-125,4,2,4,45,0,0
4142,-125,4,2,2,45,0,0
4323,-125,4,2,3,45,0,0
4505,-125,4,2,4,45,0,0
4687,-125,4,2,2,45,0,0
4869,-125,4,2,3,45,0,0
5051,-125,4,2,4,45,0,0
5233,-125,4,2,2,45,0,0
5414,-125,4,2,3,45,0,0
5596,-125,4,2,5,45,0,0
5778,-125,4,2,2,45,0,0
5960,-125,4,2,3,45,0,0
6142,-125,4,2,4,45,0,0
6323,-125,4,2,2,45,0,0
6505,-125,4,2,3,45,0,0
6687,-125,4,2,4,45,0,0
6869,-125,4,2,2,45,0,0
7051,-125,4,2,3,45,0,0
7233,-125,4,2,4,45,0,0
7414,-125,4,2,2,45,0,0
7596,-125,4,2,3,45,0,0
7778,-166.666666666667,4,2,6,45,0,0
7960,-166.666666666667,4,2,7,45,0,0
8142,-166.666666666667,4,2,3,45,0,0
8323,-166.666666666667,4,2,8,45,0,0
8505,-166.666666666667,4,2,7,45,0,0
8687,-166.666666666667,4,2,3,45,0,0
8869,-166.666666666667,4,2,8,45,0,0
9051,-166.666666666667,4,2,7,45,0,0
9233,-166.666666666667,4,2,3,45,0,0
9414,-166.666666666667,4,2,8,45,0,0
9596,-166.666666666667,4,2,7,45,0,0
9778,-166.666666666667,4,2,3,45,0,0
11957,-166.666666666667,4,2,3,12,0,0
12142,480,4,2,9,70,1,0
12622,-100,4,2,9,70,0,0
13102,-100,4,2,9,70,0,0
13582,-100,4,2,1,70,0,0
13742,-100,4,2,2,70,0,0
13902,-100,4,2,3,70,0,0
14062,-100,4,2,4,70,0,0
14542,-100,4,2,9,70,0,0
15022,-100,4,2,9,70,0,0
15502,-100,4,2,1,70,0,0
15662,-100,4,2,2,70,0,0
15822,-100,4,2,3,70,0,0
15982,-100,4,2,4,70,0,0
16462,-100,4,2,9,70,0,0
16942,-100,4,2,9,70,0,0
17422,-100,4,2,1,70,0,0
17582,-100,4,2,2,70,0,0
17742,-100,4,2,3,70,0,0
17902,-100,4,2,4,70,0,0
18382,-100,4,2,9,70,0,0
18862,-100,4,2,9,70,0,0
19342,-100,4,2,9,70,0,0
19822,-62.5,4,2,9,70,0,0
20302,-100,4,2,9,70,0,0
20782,-76.9230769230769,4,2,10,70,0,0
21262,-100,4,2,1,70,0,0
21422,-100,4,2,2,70,0,0
21582,-100,4,2,3,70,0,0
21742,-100,4,2,4,70,0,0
22222,-100,4,2,9,70,0,0
22702,-100,4,2,9,70,0,0
23182,-100,4,2,1,70,0,0
23342,-100,4,2,2,70,0,0
23502,-100,4,2,3,70,0,0
23662,-76.9230769230769,4,2,4,70,0,0
24142,-100,4,2,9,70,0,0
24622,-76.9230769230769,4,2,10,70,0,0
25102,-100,4,2,1,70,0,0
25262,-100,4,2,2,70,0,0
25422,-100,4,2,3,70,0,0
25582,-100,4,2,4,70,0,0
26062,-100,4,2,9,70,0,0
27502,-62.5,4,2,9,70,0,0
27982,-100,4,2,9,70,0,0
28462,-100,4,2,9,70,0,0
28942,-100,4,2,1,70,0,0
29102,-100,4,2,2,70,0,0
29262,-100,4,2,3,70,0,0
29422,-100,4,2,4,70,0,0
29742,-100,4,2,9,70,0,0
30382,-100,4,2,9,70,0,0
30862,-100,4,2,1,70,0,0
31022,-100,4,2,2,70,0,0
31182,-100,4,2,3,70,0,0
31342,-100,4,2,4,70,0,0
31822,-100,4,2,9,70,0,0
32302,-100,4,2,9,70,0,0
32782,-100,4,2,1,70,0,0
32942,-100,4,2,2,70,0,0
33102,-100,4,2,3,70,0,0
33262,-100,4,2,4,70,0,0
33742,-100,4,2,9,70,0,0
34222,-100,4,2,9,70,0,0
34702,-100,4,2,9,70,0,0
35182,-62.5,4,2,9,70,0,0
35662,-100,4,2,9,70,0,0
36142,-76.9230769230769,4,2,10,70,0,0
36622,-100,4,2,1,70,0,0
36782,-100,4,2,2,70,0,0
36942,-100,4,2,3,70,0,0
37102,-100,4,2,4,70,0,0
37582,-100,4,2,9,70,0,0
38062,-100,4,2,9,70,0,0
38542,-100,4,2,1,70,0,0
38702,-100,4,2,2,70,0,0
38862,-100,4,2,3,70,0,0
39022,-76.9230769230769,4,2,4,70,0,0
39502,-100,4,2,9,70,0,0
39982,-76.9230769230769,4,2,10,70,0,0
40462,-100,4,2,1,70,0,0
40622,-100,4,2,2,70,0,0
40782,-100,4,2,3,70,0,0
40942,-100,4,2,4,70,0,0
41422,-100,4,2,9,70,0,0
42542,-100,4,2,9,70,0,0
42862,-62.5,4,2,9,70,0,0
43182,-83.3333333333333,4,2,9,70,0,0
43342,-83.3333333333333,4,2,9,70,0,0
43822,-83.3333333333333,4,2,9,70,0,0
44302,-83.3333333333333,4,2,1,70,0,0
44462,-83.3333333333333,4,2,2,70,0,0
44622,-83.3333333333333,4,2,3,70,0,0
44782,-83.3333333333333,4,2,4,70,0,0
45102,-83.3333333333333,4,2,9,70,0,0
45742,-83.3333333333333,4,2,9,70,0,0
46222,-83.3333333333333,4,2,1,70,0,0
46382,-83.3333333333333,4,2,2,70,0,0
46542,-83.3333333333333,4,2,3,70,0,0
46702,-83.3333333333333,4,2,4,70,0,0
47022,-83.3333333333333,4,2,9,70,0,0
47662,-83.3333333333333,4,2,9,70,0,0
48142,-83.3333333333333,4,2,1,70,0,0
48302,-83.3333333333333,4,2,2,70,0,0
48462,-83.3333333333333,4,2,3,70,0,0
48622,-83.3333333333333,4,2,5,80,0,0
48782,-83.3333333333333,4,2,9,80,0,0
49102,-83.3333333333333,4,2,10,80,0,0
49262,-83.3333333333333,4,2,9,80,0,0
49582,-83.3333333333333,4,2,10,80,0,0
49742,-83.3333333333333,4,2,9,80,0,0
50062,-83.3333333333333,4,2,10,80,0,0
50222,-83.3333333333333,4,2,9,80,0,0
50542,-62.5,4,2,10,70,0,0
50862,-83.3333333333333,4,2,9,70,0,0
51502,-83.3333333333333,4,2,9,70,0,0
51982,-83.3333333333333,4,2,1,70,0,0
52142,-83.3333333333333,4,2,2,70,0,0
52302,-83.3333333333333,4,2,3,70,0,0
52462,-83.3333333333333,4,2,4,70,0,0
52782,-83.3333333333333,4,2,9,70,0,0
53422,-83.3333333333333,4,2,9,70,0,0
53902,-83.3333333333333,4,2,1,70,0,0
54062,-83.3333333333333,4,2,2,70,0,0
54222,-83.3333333333333,4,2,3,70,0,0
54382,-83.3333333333333,4,2,4,70,0,0
54702,-83.3333333333333,4,2,9,70,0,0
55342,-83.3333333333333,4,2,9,70,0,0
55822,-83.3333333333333,4,2,1,70,0,0
55982,-83.3333333333333,4,2,2,70,0,0
56142,-83.3333333333333,4,2,3,70,0,0
56302,-83.3333333333333,4,2,4,70,0,0
56622,-83.3333333333333,4,2,9,70,0,0
57262,-125,4,2,9,70,0,0
58222,-500,4,2,11,80,0,0
59182,-50,4,2,12,90,0,1
59662,-66.6666666666667,4,2,1,90,0,1
59822,-66.6666666666667,4,2,2,90,0,1
59982,-66.6666666666667,4,2,3,90,0,1
60142,-66.6666666666667,4,2,6,90,0,1
60462,-66.6666666666667,4,2,12,90,0,1
61582,-66.6666666666667,4,2,7,90,0,1
61742,-66.6666666666667,4,2,2,90,0,1
61902,-66.6666666666667,4,2,8,90,0,1
62062,-83.3333333333333,4,2,6,90,0,1
62542,-100,4,2,12,90,0,1
63022,-66.6666666666667,4,2,12,90,0,1
63502,-66.6666666666667,4,2,1,90,0,1
63662,-66.6666666666667,4,2,2,90,0,1
63822,-66.6666666666667,4,2,8,90,0,1
63982,-66.6666666666667,4,2,6,90,0,1
64462,-83.3333333333333,4,2,12,90,0,1
64942,-66.6666666666667,4,2,12,90,0,1
65902,-100,4,2,11,90,0,1
66382,-100,4,2,1,90,0,1
66862,-50,4,2,13,90,0,1
67342,-66.6666666666667,4,2,1,90,0,1
67502,-66.6666666666667,4,2,2,90,0,1
67662,-66.6666666666667,4,2,3,90,0,1
67822,-66.6666666666667,4,2,6,90,0,1
68142,-66.6666666666667,4,2,12,90,0,1
69262,-66.6666666666667,4,2,7,90,0,1
69422,-66.6666666666667,4,2,2,90,0,1
69582,-66.6666666666667,4,2,8,90,0,1
69742,-83.3333333333333,4,2,6,90,0,1
70222,-100,4,2,12,90,0,1
70702,-66.6666666666667,4,2,12,90,0,1
71182,-66.6666666666667,4,2,1,90,0,1
71342,-66.6666666666667,4,2,2,90,0,1
71502,-66.6666666666667,4,2,8,90,0,1
71662,-66.6666666666667,4,2,6,90,0,1
72142,-83.3333333333333,4,2,12,90,0,1
72622,-66.6666666666667,4,2,12,90,0,1
73582,-83.3333333333333,4,2,14,85,0,0
74062,-83.3333333333333,4,2,1,85,0,0
75182,-83.3333333333333,4,2,2,85,0,0
75342,-83.3333333333333,4,2,8,85,0,0
75502,-83.3333333333333,4,2,6,85,0,0
75822,-83.3333333333333,4,2,12,85,0,0
76942,-83.3333333333333,4,2,7,85,0,0
77102,-83.3333333333333,4,2,2,85,0,0
77262,-83.3333333333333,4,2,8,85,0,0
77422,-83.3333333333333,4,2,4,85,0,0
77582,-83.3333333333333,4,2,12,85,0,0
78862,-83.3333333333333,4,2,1,85,0,0
79022,-83.3333333333333,4,2,2,85,0,0
79182,-83.3333333333333,4,2,8,85,0,0
79342,-83.3333333333333,4,2,6,85,0,0
79662,-83.3333333333333,4,2,12,85,0,0
81262,-500,4,2,11,80,0,0
82222,-50,4,2,12,90,0,1
82702,-66.6666666666667,4,2,1,90,0,1
82862,-66.6666666666667,4,2,2,90,0,1
83022,-66.6666666666667,4,2,3,90,0,1
83182,-66.6666666666667,4,2,6,90,0,1
83502,-66.6666666666667,4,2,12,90,0,1
84622,-66.6666666666667,4,2,7,90,0,1
84782,-66.6666666666667,4,2,2,90,0,1
84942,-66.6666666666667,4,2,8,90,0,1
85102,-83.3333333333333,4,2,6,90,0,1
85582,-100,4,2,12,90,0,1
86062,-66.6666666666667,4,2,12,90,0,1
86542,-66.6666666666667,4,2,1,90,0,1
86702,-66.6666666666667,4,2,2,90,0,1
86862,-66.6666666666667,4,2,8,90,0,1
87022,-66.6666666666667,4,2,6,90,0,1
87502,-83.3333333333333,4,2,12,90,0,1
87982,-66.6666666666667,4,2,12,90,0,1
88942,-62.5,4,2,9,70,0,0
89422,-100,4,2,9,70,0,0
89902,-100,4,2,9,70,0,0
90382,-100,4,2,1,70,0,0
90542,-100,4,2,2,70,0,0
90702,-100,4,2,3,70,0,0
90862,-100,4,2,4,70,0,0
91342,-100,4,2,9,70,0,0
91822,-100,4,2,9,70,0,0
92302,-100,4,2,1,70,0,0
92462,-100,4,2,2,70,0,0
92622,-100,4,2,3,70,0,0
92782,-100,4,2,4,70,0,0
93262,-100,4,2,9,70,0,0
93742,-100,4,2,9,70,0,0
94222,-100,4,2,1,70,0,0
94382,-100,4,2,2,70,0,0
94542,-100,4,2,3,70,0,0
94702,-100,4,2,4,70,0,0
95022,-100,4,2,9,70,0,0
95662,-100,4,2,9,70,0,0
96142,-100,4,2,9,70,0,0
96622,-62.5,4,2,9,70,0,0
97102,-100,4,2,9,70,0,0
97582,-100,4,2,9,70,0,0
98222,-100,4,2,2,70,0,0
98382,-100,4,2,3,70,0,0
98542,-100,4,2,4,70,0,0
99022,-100,4,2,9,70,0,0
99502,-100,4,2,9,70,0,0
99982,-100,4,2,1,70,0,0
100142,-100,4,2,2,70,0,0
100302,-100,4,2,3,70,0,0
100462,-76.9230769230769,4,2,4,70,0,0
100942,-100,4,2,9,70,0,0
101422,-76.9230769230769,4,2,10,70,0,0
101902,-100,4,2,1,70,0,0
102062,-100,4,2,2,70,0,0
102222,-100,4,2,3,70,0,0
102382,-100,4,2,4,70,0,0
102862,-100,4,2,9,70,0,0
103982,-100,4,2,9,70,0,0
104302,-62.5,4,2,9,70,0,0
104622,-83.3333333333333,4,2,9,70,0,0
104782,-83.3333333333333,4,2,9,70,0,0
105262,-83.3333333333333,4,2,9,70,0,0
105742,-83.3333333333333,4,2,1,70,0,0
105902,-83.3333333333333,4,2,2,70,0,0
106062,-83.3333333333333,4,2,3,70,0,0
106222,-83.3333333333333,4,2,4,70,0,0
106542,-83.3333333333333,4,2,9,70,0,0
107182,-83.3333333333333,4,2,9,70,0,0
107662,-83.3333333333333,4,2,1,70,0,0
107822,-83.3333333333333,4,2,2,70,0,0
107982,-83.3333333333333,4,2,3,70,0,0
108142,-83.3333333333333,4,2,4,70,0,0
108462,-83.3333333333333,4,2,9,70,0,0
109102,-83.3333333333333,4,2,9,70,0,0
109582,-83.3333333333333,4,2,1,70,0,0
109742,-83.3333333333333,4,2,2,70,0,0
109902,-83.3333333333333,4,2,3,70,0,0
110062,-83.3333333333333,4,2,4,70,0,0
110382,-83.3333333333333,4,2,9,70,0,0
111022,-83.3333333333333,4,2,9,70,0,0
111502,-83.3333333333333,4,2,9,70,0,0
111982,-83.3333333333333,4,2,10,80,0,0
112142,-83.3333333333333,4,2,9,80,0,0
112462,-83.3333333333333,4,2,10,80,0,0
112622,-83.3333333333333,4,2,9,80,0,0
112942,-83.3333333333333,4,2,10,80,0,0
113102,-83.3333333333333,4,2,9,80,0,0
113422,-83.3333333333333,4,2,9,80,0,0
113582,-83.3333333333333,4,2,10,80,0,0
113742,-83.3333333333333,4,2,11,80,0,0
113902,-83.3333333333333,4,2,5,80,0,0
114062,-83.3333333333333,4,2,9,80,0,0
114382,-83.3333333333333,4,2,10,80,0,0
114542,-83.3333333333333,4,2,9,80,0,0
114862,-83.3333333333333,4,2,10,80,0,0
115022,-83.3333333333333,4,2,9,80,0,0
115342,-83.3333333333333,4,2,9,80,0,0
115502,-83.3333333333333,4,2,10,80,0,0
115662,-83.3333333333333,4,2,11,80,0,0
115822,-83.3333333333333,4,2,4,80,0,0
116142,-83.3333333333333,4,2,9,80,0,0
116782,-83.3333333333333,4,2,9,80,0,0
117262,-83.3333333333333,4,2,1,80,0,0
117422,-83.3333333333333,4,2,2,80,0,0
117582,-83.3333333333333,4,2,3,80,0,0
117742,-83.3333333333333,4,2,4,80,0,0
118222,-83.3333333333333,4,2,1,80,0,0
118702,-125,4,2,1,80,0,0
119662,-500,4,2,11,80,0,0
120622,-50,4,2,12,90,0,0
121102,-66.6666666666667,4,2,1,90,0,1
121262,-66.6666666666667,4,2,2,90,0,1
121422,-66.6666666666667,4,2,3,90,0,1
121582,-66.6666666666667,4,2,6,90,0,1
121902,-66.6666666666667,4,2,12,90,0,1
123022,-66.6666666666667,4,2,7,90,0,1
123182,-66.6666666666667,4,2,2,90,0,1
123342,-66.6666666666667,4,2,8,90,0,1
123502,-83.3333333333333,4,2,6,90,0,1
123982,-100,4,2,12,90,0,1
124462,-66.6666666666667,4,2,12,90,0,1
124942,-66.6666666666667,4,2,1,90,0,1
125102,-66.6666666666667,4,2,2,90,0,1
125262,-66.6666666666667,4,2,8,90,0,1
125422,-66.6666666666667,4,2,6,90,0,1
125902,-83.3333333333333,4,2,12,90,0,1
126382,-66.6666666666667,4,2,12,90,0,1
127342,-100,4,2,11,90,0,1
127822,-100,4,2,1,90,0,1
128302,-50,4,2,13,90,0,1
128782,-66.6666666666667,4,2,1,90,0,1
128942,-66.6666666666667,4,2,2,90,0,1
129102,-66.6666666666667,4,2,3,90,0,1
129262,-66.6666666666667,4,2,6,90,0,1
129582,-66.6666666666667,4,2,12,90,0,1
130702,-66.6666666666667,4,2,7,90,0,1
130862,-66.6666666666667,4,2,2,90,0,1
131022,-66.6666666666667,4,2,8,90,0,1
131182,-83.3333333333333,4,2,6,90,0,1
131662,-100,4,2,12,90,0,1
132142,-66.6666666666667,4,2,12,90,0,1
132622,-66.6666666666667,4,2,1,90,0,1
132782,-66.6666666666667,4,2,2,90,0,1
132942,-66.6666666666667,4,2,8,90,0,1
133102,-66.6666666666667,4,2,6,90,0,1
133582,-83.3333333333333,4,2,12,90,0,1
134062,-66.6666666666667,4,2,12,90,0,1
135022,-83.3333333333333,4,2,14,85,0,0
135502,-83.3333333333333,4,2,1,85,0,0
136622,-83.3333333333333,4,2,2,85,0,0
136782,-83.3333333333333,4,2,8,85,0,0
136942,-83.3333333333333,4,2,6,85,0,0
137262,-83.3333333333333,4,2,12,85,0,0
138382,-83.3333333333333,4,2,7,85,0,0
138542,-83.3333333333333,4,2,2,85,0,0
138702,-83.3333333333333,4,2,8,85,0,0
138862,-83.3333333333333,4,2,4,85,0,0
139022,-83.3333333333333,4,2,12,85,0,0
140302,-83.3333333333333,4,2,1,85,0,0
140462,-83.3333333333333,4,2,2,85,0,0
140622,-83.3333333333333,4,2,8,85,0,0
140782,-83.3333333333333,4,2,6,85,0,0
141102,-83.3333333333333,4,2,12,85,0,0
142702,-500,4,2,11,80,0,0
143662,-50,4,2,12,90,0,1
144142,-66.6666666666667,4,2,1,90,0,1
144302,-66.6666666666667,4,2,2,90,0,1
144462,-66.6666666666667,4,2,3,90,0,1
144622,-66.6666666666667,4,2,6,90,0,1
144942,-66.6666666666667,4,2,12,90,0,1
146062,-66.6666666666667,4,2,7,90,0,1
146222,-66.6666666666667,4,2,2,90,0,1
146382,-66.6666666666667,4,2,8,90,0,1
146542,-83.3333333333333,4,2,6,90,0,1
147022,-100,4,2,12,90,0,1
147502,-66.6666666666667,4,2,12,90,0,1
147982,-66.6666666666667,4,2,1,90,0,1
148142,-66.6666666666667,4,2,2,90,0,1
148302,-66.6666666666667,4,2,8,90,0,1
148462,-66.6666666666667,4,2,6,90,0,1
148942,-83.3333333333333,4,2,12,90,0,1
149422,-66.6666666666667,4,2,12,90,0,1
150382,-100,4,2,12,90,0,0

[Colours]
Combo1 : 255,128,128
Combo2 : 138,255,255
Combo3 : 138,138,255
Combo4 : 130,4,255
Combo5 : 17,17,255
Combo6 : 255,0,0
SliderBorder : 138,255,255

[HitObjects]
112,66,1233,6,0,L|85:149,1,61.3333307902019,2|2,0:2|0:2,0:0:0:0:
63,218,1596,1,2,0:2:0:0:
136,66,1778,2,0,L|109:149,1,61.3333307902019,2|2,0:2|0:2,0:0:0:0:
87,218,2141,1,2,0:2:0:0:
162,66,2323,2,0,L|135:149,1,61.3333307902019,2|2,0:2|0:2,0:0:0:0:
113,218,2686,1,2,0:2:0:0:
185,69,2869,2,0,L|158:152,1,61.3333307902019,2|2,0:2|0:2,0:0:0:0:
136,221,3232,1,2,0:2:0:0:
361,162,3414,38,0,P|321:123|241:136,1,122.666661580404,2|2,0:2|0:2,0:0:0:0:
162,204,3960,2,0,P|202:243|282:230,1,122.666661580404,2|2,0:2|0:2,0:0:0:0:
381,144,4505,2,0,P|341:105|261:118,1,122.666661580404,2|2,0:2|0:2,0:0:0:0:
182,186,5051,2,0,P|222:225|302:212,1,122.666661580404,2|2,0:2|0:2,0:0:0:0:
407,128,5596,38,0,P|439:200|380:295,1,183.999992370606,2|2,0:2|0:2,0:0:0:0:
343,197,6323,1,2,0:2:0:0:
343,197,6505,1,2,0:2:0:0:
266,269,6687,2,0,L|194:252,2,61.3333307902019,2|2|2,0:2|0:2|0:2,0:0:0:0:
343,197,7233,2,0,L|415:180,2,61.3333307902019,2|2|2,0:2|0:2|0:2,0:0:0:0:
236,145,7778,38,0,P|215:82|258:7,1,137.999990066529,2|2,0:2|0:2,0:0:0:0:
304,87,8505,1,2,0:2:0:0:
304,87,8687,1,2,0:2:0:0:
383,40,8869,2,0,L|440:34,2,45.9999966888429,2|2|2,0:2|0:2|0:2,0:0:0:0:
304,87,9414,2,0,L|247:81,2,45.9999966888429,2|2|2,0:2|0:2|0:2,0:0:0:0:
256,192,9960,12,0,11960,0:0:0:0:
54,25,12142,54,0,P|72:99|81:175,1,153.333326975505,2|0,3:2|0:0,0:0:0:0:
164,276,12622,2,0,P|173:199|191:125,1,153.333326975505,10|0,0:2|0:0,0:0:0:0:
54,25,13102,2,0,P|72:99|81:175,1,153.333326975505,2|0,1:2|0:0,0:0:0:0:
164,276,13582,1,6,0:3:0:0:
191,125,13742,1,4,0:3:0:0:
31,260,13902,1,6,3:3:0:0:
219,349,14062,70,0,P|256:270|227:203,1,153.333326975505,6|0,3:3|0:0,0:0:0:0:
140,90,14542,2,0,P|204:98|287:94,1,114.999995231629,10|0,0:2|0:0,0:0:0:0:
328,78,14862,1,2,0:2:0:0:
433,213,15022,2,0,P|395:220|357:223,1,76.6666634877523,2|0,1:2|0:0,0:0:0:0:
234,211,15342,1,2,0:2:0:0:
375,124,15502,1,6,0:3:0:0:
330,320,15662,1,4,0:3:0:0:
178,147,15822,1,6,3:3:0:0:
444,76,15982,5,6,3:3:0:0:
444,76,16462,2,0,P|370:56|294:45,1,153.333326975505,10|0,0:2|0:0,0:0:0:0:
179,170,16942,2,0,P|252:149|328:138,1,153.333326975505,2|0,1:2|0:0,0:0:0:0:
434,217,17422,1,6,0:3:0:0:
282,243,17582,1,4,0:3:0:0:
444,76,17742,1,6,3:3:0:0:
495,324,17902,70,0,P|419:312|345:292,1,153.333326975505,6|0,3:3|0:0,0:0:0:0:
230,190,18382,2,0,P|227:247|206:300,1,114.999995231629,10|0,0:2|0:0,0:0:0:0:
141,343,18702,1,2,0:2:0:0:
76,203,18862,2,0,P|78:242|88:279,1,76.6666634877523,2|0,1:2|0:0,0:0:0:0:
90,123,19182,1,2,0:2:0:0:
230,190,19342,2,0,P|227:247|206:300,1,114.999995231629,10|0,0:2|0:0,0:0:0:0:
141,343,19662,1,2,0:2:0:0:
102,82,19822,6,0,B|62:74|45:93|45:93|123:143|220:65,1,245.333323160807,6|0,3:2|0:0,0:0:0:0:
356,29,20302,2,0,P|281:30|210:75,1,153.333326975505,10|0,0:2|0:0,0:0:0:0:
318,194,20782,2,0,P|302:107|346:183,1,249.166644929251,2|0,1:2|0:0,0:0:0:0:
358,261,21262,1,4,0:3:0:0:
212,211,21422,1,4,0:3:0:0:
439,112,21582,1,4,3:3:0:0:
386,350,21742,69,4,3:3:0:0:
386,350,22222,1,8,0:2:0:0:
286,313,22542,1,2,0:2:0:0:
476,299,22702,2,0,P|485:262|488:223,1,76.6666634877523,2|0,1:2|0:0,0:0:0:0:
391,111,23022,1,2,0:2:0:0:
372,263,23182,1,6,0:3:0:0:
501,138,23342,1,4,0:3:0:0:
279,85,23502,1,6,3:3:0:0:
424,319,23662,6,0,P|440:227|355:190,1,199.333315943401,6|0,3:3|0:0,0:0:0:0:
150,237,24142,2,0,P|219:263|288:233,1,153.333326975505,10|0,0:2|0:0,0:0:0:0:
178,109,24622,2,0,P|265:135|176:154,1,249.166644929251,2|0,1:2|0:0,0:0:0:0:
99,131,25102,1,4,0:3:0:0:
208,14,25262,1,4,0:3:0:0:
167,267,25422,1,4,3:3:0:0:
20,107,25582,69,4,3:3:0:0:
20,107,26062,1,8,0:2:0:0:
54,356,26542,1,0,1:0:0:0:
54,356,27022,1,8,0:2:0:0:
273,238,27502,6,0,L|144:256,1,122.666661580404,6|0,3:2|0:0,0:0:0:0:
42,270,27822,1,2,0:2:0:0:
209,139,27982,2,0,L|365:168,1,153.333326975505,10|0,0:2|0:0,0:0:0:0:
192,247,28462,2,0,L|115:259,1,76.6666634877523,2|0,1:2|0:0,0:0:0:0:
125,122,28782,1,2,0:2:0:0:
273,238,28942,1,6,0:3:0:0:
37,274,29102,1,4,0:3:0:0:
163,48,29262,1,6,3:3:0:0:
297,322,29422,70,0,P|247:322|195:279,1,114.999995231629,6|0,3:3|0:0,0:0:0:0:
165,210,29742,1,2,0:2:0:0:
355,234,29902,2,0,P|403:226|446:174,1,114.999995231629,10|0,0:2|0:0,0:0:0:0:
463,102,30222,1,2,0:2:0:0:
283,148,30382,2,0,P|241:142|204:109,1,76.6666634877523,2|0,1:2|0:0,0:0:0:0:
173,15,30702,1,2,0:2:0:0:
314,21,30862,1,6,0:3:0:0:
205,215,31022,1,4,0:3:0:0:
91,10,31182,1,6,3:3:0:0:
399,25,31342,5,6,3:3:0:0:
399,25,31822,2,0,L|369:142,1,114.999995231629,10|0,0:2|0:0,0:0:0:0:
346,210,32142,1,2,0:2:0:0:
220,121,32302,2,0,L|265:267,1,153.333326975505,2|0,1:2|0:0,0:0:0:0:
418,255,32782,1,6,0:3:0:0:
313,130,32942,1,4,0:3:0:0:
224,342,33102,1,6,3:3:0:0:
478,323,33262,70,0,P|505:233|447:175,1,153.333326975505,6|0,3:3|0:0,0:0:0:0:
369,326,33742,2,0,L|247:299,1,114.999995231629,10|0,0:2|0:0,0:0:0:0:
181,285,34062,1,2,0:2:0:0:
293,180,34222,2,0,L|207:199,1,76.6666634877523,2|0,1:2|0:0,0:0:0:0:
366,159,34542,1,2,0:2:0:0:
369,326,34702,2,0,L|247:299,1,114.999995231629,10|0,0:2|0:0,0:0:0:0:
181,285,35022,1,2,0:2:0:0:
394,164,35182,6,0,B|437:6|437:6|371:70,1,245.333323160807,6|0,3:2|0:0,0:0:0:0:
227,85,35662,2,0,L|399:59,1,153.333326975505,10|0,0:2|0:0,0:0:0:0:
279,189,36142,2,0,B|240:175|240:175|402:150|402:150|367:179,1,249.166644929251,2|0,1:2|0:0,0:0:0:0:
333,248,36622,1,4,0:3:0:0:
299,79,36782,1,4,0:3:0:0:
451,222,36942,1,4,3:3:0:0:
199,276,37102,69,4,3:3:0:0:
199,276,37582,1,8,0:2:0:0:
109,234,37902,1,2,0:2:0:0:
292,243,38062,2,0,L|322:149,1,76.6666634877523,2|0,1:2|0:0,0:0:0:0:
172,161,38382,1,2,0:2:0:0:
268,319,38542,1,6,0:3:0:0:
339,95,38702,1,4,0:3:0:0:
91,192,38862,1,6,3:3:0:0:
359,338,39022,6,0,B|341:243|341:243|224:217,1,199.333315943401,6|0,3:3|0:0,0:0:0:0:
91,192,39502,2,0,L|245:222,1,153.333326975505,10|0,0:2|0:0,0:0:0:0:
97,309,39982,2,0,B|63:278|63:278|223:309|223:309|184:321,1,249.166644929251,2|0,1:2|0:0,0:0:0:0:
128,378,40462,1,4,0:3:0:0:
169,207,40622,1,4,0:3:0:0:
276,380,40782,1,4,3:3:0:0:
9,376,40942,69,4,3:3:0:0:
9,376,41422,1,8,0:2:0:0:
379,302,41902,1,0,1:0:0:0:
379,302,42382,1,8,0:2:0:0:
298,153,42542,1,2,0:2:0:0:
299,252,42702,1,2,0:2:0:0:
160,59,42862,22,0,B|123:82|123:82|279:69,1,183.999992370606,6|0,3:2|0:0,0:0:0:0:
330,6,43182,2,0,L|428:14,1,91.9999933776858,2|8,0:2|0:2,0:0:0:0:
323,179,43502,1,2,0:2:0:0:
445,98,43662,1,2,0:2:0:0:
294,199,43822,2,0,B|265:216|265:216|145:193,1,137.999990066529,2|0,1:2|0:0,0:0:0:0:
70,179,44142,2,0,L|5:165,1,45.9999966888429,2|0,0:2|0:0,0:0:0:0:
145,109,44302,1,6,0:3:0:0:
69,287,44462,1,6,0:3:0:0:
3,63,44622,1,6,3:3:0:0:
55,326,44782,6,0,L|197:298,1,137.999990066529,6|0,3:3|0:0,0:0:0:0:
273,256,45102,2,0,P|281:300|269:345,1,91.9999933776858,2|8,0:2|0:2,0:0:0:0:
195,174,45422,1,2,0:2:0:0:
355,209,45582,1,2,0:2:0:0:
156,165,45742,2,0,B|116:148|52:162|52:162|29:186,1,137.999990066529,2|0,1:2|0:0,0:0:0:0:
152,273,46062,2,0,P|174:269|196:261,1,45.9999966888429,2|0,0:2|0:0,0:0:0:0:
60,275,46222,1,6,0:3:0:0:
258,353,46382,1,6,0:3:0:0:
156,165,46542,1,6,3:3:0:0:
293,366,46702,70,0,P|361:371|427:352,1,137.999990066529,6|0,3:3|0:0,0:0:0:0:
493,280,47022,2,0,P|501:223|491:181,1,91.9999933776858,2|8,0:2|0:2,0:0:0:0:
310,210,47342,1,2,0:2:0:0:
410,316,47502,1,2,0:2:0:0:
278,174,47662,2,0,P|204:150|123:170,1,137.999990066529,2|0,1:2|0:0,0:0:0:0:
52,223,47982,2,0,L|35:288,1,45.9999966888429,2|0,0:2|0:0,0:0:0:0:
15,363,48142,1,6,0:3:0:0:
178,279,48302,1,6,0:3:0:0:
5,126,48462,1,6,3:3:0:0:
211,311,48622,5,6,3:3:0:0:
312,123,48782,1,2,0:2:0:0:
226,284,48942,1,2,0:2:0:0:
101,132,49102,53,10,0:2:0:0:
333,225,49262,1,2,0:2:0:0:
137,147,49422,1,2,0:2:0:0:
345,63,49582,69,2,1:2:0:0:
225,285,49742,1,2,0:2:0:0:
328,94,49902,1,2,0:2:0:0:
392,280,50062,69,10,0:2:0:0:
196,180,50222,1,2,0:2:0:0:
435,301,50382,1,2,0:2:0:0:
157,359,50542,38,0,B|120:292|140:216|140:216|188:179,1,183.999992370606,6|0,3:2|0:0,0:0:0:0:
260,149,50862,2,0,P|276:106|274:59,1,91.9999933776858,2|8,0:2|0:2,0:0:0:0:
118,136,51182,1,2,0:2:0:0:
221,278,51342,1,2,0:2:0:0:
94,104,51502,2,0,B|64:126|64:126|44:202|81:268,1,183.999986755372,2|0,1:2|0:0,0:0:0:0:
175,365,51982,1,6,0:3:0:0:
221,186,52142,1,6,0:3:0:0:
0,308,52302,1,6,3:3:0:0:
239,148,52462,6,0,P|276:204|277:280,1,137.999990066529,6|0,3:3|0:0,0:0:0:0:
175,365,52782,2,0,P|165:323|184:257,1,91.9999933776858,2|8,0:2|0:2,0:0:0:0:
378,274,53102,1,2,0:2:0:0:
239,148,53262,1,2,0:2:0:0:
415,307,53422,2,0,P|452:251|428:131,1,183.999986755372,2|0,1:2|0:0,0:0:0:0:
272,55,53902,1,6,0:3:0:0:
352,215,54062,1,6,0:3:0:0:
510,76,54222,1,6,3:3:0:0:
327,228,54382,70,0,L|347:371,1,137.999990066529,6|0,3:3|0:0,0:0:0:0:
248,307,54702,2,0,P|203:299|160:315,1,91.9999933776858,2|8,0:2|0:2,0:0:0:0:
327,228,55022,1,2,0:2:0:0:
213,379,55182,1,2,0:2:0:0:
347,207,55342,6,0,L|322:17,1,183.999986755372,2|0,1:2|0:0,0:0:0:0:
137,22,55822,1,6,0:3:0:0:
263,178,55982,1,6,0:3:0:0:
402,23,56142,1,6,3:3:0:0:
235,207,56302,2,0,L|215:64,1,137.999990066529,6|0,3:3|0:0,0:0:0:0:
136,141,56622,2,0,P|92:157|39:144,1,91.9999933776858,2|8,0:2|0:2,0:0:0:0:
235,207,56942,1,2,0:2:0:0:
78,68,57102,1,2,0:2:0:0:
47,324,57262,70,0,P|102:377|73:250,1,337.33331934611,0|0,1:0|0:0,0:0:0:0:
16,238,58222,6,0,P|58:243|103:237,1,84.3333298365276,2|0,0:2|0:0,0:0:0:0:
257,160,59182,6,0,B|286:172|286:172|323:249|272:304|272:304|262:274|220:211|140:200|59:261,1,383.333317438762,6|0,1:2|0:0,0:0:0:0:
25,296,59662,1,4,0:3:0:0:
71,91,59822,1,4,0:3:0:0:
5,384,59982,1,4,3:3:0:0:
257,160,60142,6,0,B|286:172|286:172|327:262|254:322,1,172.499999427796,6|0,3:3|0:0,0:0:0:0:
200,372,60462,1,2,0:2:0:0:
120,82,60622,2,0,B|91:94|91:94|50:184|123:244,1,172.499999427796,10|0,0:2|0:0,0:0:0:0:
177,294,60942,1,2,0:2:0:0:
284,63,61102,2,0,P|298:124|282:185,1,114.99999961853,2|0,1:2|0:0,0:0:0:0:
177,294,61422,1,2,0:2:0:0:
198,65,61582,69,6,0:3:0:0:
375,295,61742,1,4,0:3:0:0:
87,299,61902,1,6,3:3:0:0:
457,312,62062,70,0,B|460:263|431:227|431:227|445:181|445:181|419:149|425:87,1,229.999983444215,6|0,3:3|0:0,0:0:0:0:
481,18,62542,2,0,B|438:32|423:65|423:65|396:41|352:40,1,153.333326975505,10|0,0:2|0:0,0:0:0:0:
115,51,63022,1,0,1:0:0:0:
115,51,63502,5,4,0:3:0:0:
352,40,63662,1,4,0:3:0:0:
68,219,63822,1,6,3:3:0:0:
441,22,63982,54,0,B|448:88|414:125|414:125|432:172|432:172|384:221|399:302,1,287.499999046326,6|0,3:3|0:0,0:0:0:0:
454,378,64462,2,0,B|404:365|392:320|392:320|359:351|302:347,1,183.999986755372,10|0,0:2|0:0,0:0:0:0:
80,268,64942,1,0,1:0:0:0:
80,268,65422,1,8,0:2:0:0:
80,268,65902,54,0,P|21:319|88:309,1,191.666658719381,2|0,0:2|0:0,0:0:0:0:
154,289,66382,1,8,0:2:0:0:
154,289,66862,54,0,B|194:299|218:359|218:359|219:296|255:253|255:253|347:298|408:222,1,383.333317438762,6|0,1:2|0:0,0:0:0:0:
440,111,67342,1,4,0:3:0:0:
369,363,67502,1,4,0:3:0:0:
466,19,67662,1,4,3:3:0:0:
255,251,67822,6,0,P|360:263|416:212,1,172.499999427796,6|0,3:3|0:0,0:0:0:0:
440,111,68142,1,2,0:2:0:0:
200,319,68302,2,0,P|95:331|39:280,1,172.499999427796,10|0,0:2|0:0,0:0:0:0:
15,179,68622,1,2,0:2:0:0:
310,271,68782,2,0,P|368:262|412:222,1,114.99999961853,2|0,1:2|0:0,0:0:0:0:
466,19,69102,1,2,0:2:0:0:
478,294,69262,69,6,0:3:0:0:
271,62,69422,1,4,0:3:0:0:
199,362,69582,1,6,3:3:0:0:
504,166,69742,70,0,B|444:196|444:196|397:157|397:157|285:163,1,229.999983444215,6|0,3:3|0:0,0:0:0:0:
234,229,70222,2,0,B|196:160|196:160|236:98,1,153.333326975505,10|0,0:2|0:0,0:0:0:0:
109,289,70702,1,0,1:0:0:0:
109,289,71182,5,4,0:3:0:0:
206,39,71342,1,4,0:3:0:0:
311,326,71502,1,6,3:3:0:0:
34,141,71662,54,0,B|134:124|134:124|198:160|198:160|319:135,1,287.499999046326,6|0,3:3|0:0,0:0:0:0:
372,214,72142,2,0,B|399:121|399:121|346:46,1,183.999986755372,10|0,0:2|0:0,0:0:0:0:
473,252,72622,1,0,1:0:0:0:
473,252,73102,1,8,0:2:0:0:
473,252,73582,54,0,B|392:389|392:389|383:304,1,229.999983444215,6|0,3:2|0:0,0:0:0:0:
375,225,74062,1,8,0:2:0:0:
375,225,74542,1,0,1:0:0:0:
375,225,75022,1,4,0:3:0:0:
218,322,75182,1,4,0:3:0:0:
402,209,75342,1,6,3:3:0:0:
187,340,75502,6,0,B|161:317|161:317|174:208,1,137.999990066529,6|0,3:3|0:0,0:0:0:0:
189,122,75822,1,2,0:2:0:0:
311,267,75982,2,0,B|337:244|337:244|324:141,1,137.999990066529,10|0,0:2|0:0,0:0:0:0:
309,49,76302,1,2,0:2:0:0:
173,214,76462,2,0,L|189:115,1,91.9999933776858,2|0,1:2|0:0,0:0:0:0:
156,304,76782,1,2,0:2:0:0:
78,136,76942,1,6,0:3:0:0:
253,201,77102,1,4,0:3:0:0:
42,124,77262,1,6,3:3:0:0:
293,216,77422,70,0,B|321:117|235:40|235:40|227:78,1,229.999983444215,4|0,3:3|0:0,0:0:0:0:
206,150,77902,1,8,0:2:0:0:
206,150,78382,1,0,1:0:0:0:
206,150,78862,1,4,0:3:0:0:
380,100,79022,1,4,0:3:0:0:
168,162,79182,1,6,3:3:0:0:
423,85,79342,6,0,L|392:237,1,137.999990066529,6|0,3:3|0:0,0:0:0:0:
376,309,79662,1,2,0:2:0:0:
168,162,79822,2,0,L|201:316,1,137.999990066529,10|0,0:2|0:0,0:0:0:0:
215,384,80142,1,2,0:2:0:0:
394,219,80302,2,0,L|372:331,1,91.9999933776858,2|0,1:2|0:0,0:0:0:0:
416,142,80622,1,2,0:2:0:0:
274,279,80782,2,0,P|219:289|148:238,1,137.999990066529,2|0,0:2|0:0,0:0:0:0:
132,156,81102,1,2,0:2:0:0:
24,333,81262,22,0,P|70:334|102:313,1,84.3333298365276,2|0,0:2|0:0,0:0:0:0:
282,136,82222,6,0,B|248:215|248:215|294:289|294:289|175:228|92:325,1,383.333317438762,6|0,1:2|0:0,0:0:0:0:
7,384,82702,1,4,0:3:0:0:
70,162,82862,1,4,0:3:0:0:
203,379,83022,1,4,3:3:0:0:
282,136,83182,6,0,B|248:216|248:216|302:304,1,172.499999427796,6|0,3:3|0:0,0:0:0:0:
355,382,83502,1,2,0:2:0:0:
483,81,83662,2,0,B|517:161|517:161|463:249,1,172.499999427796,10|0,0:2|0:0,0:0:0:0:
410,327,83982,1,2,0:2:0:0:
282,136,84142,2,0,B|265:191|265:191|294:249,1,114.99999961853,2|0,1:2|0:0,0:0:0:0:
481,371,84462,1,2,0:2:0:0:
251,371,84622,69,6,0:3:0:0:
383,182,84782,1,4,0:3:0:0:
151,378,84942,1,6,3:3:0:0:
444,124,85102,70,0,B|399:79|339:112|339:112|278:144|221:87,1,229.999983444215,6|0,3:3|0:0,0:0:0:0:
191,21,85582,2,0,P|201:102|154:151,1,153.333326975505,10|0,0:2|0:0,0:0:0:0:
381,100,86062,1,0,1:0:0:0:
381,100,86542,5,4,0:3:0:0:
193,233,86702,1,4,0:3:0:0:
390,1,86862,1,6,3:3:0:0:
122,292,87022,54,0,B|180:342|262:301|262:301|352:292|397:351,1,287.499999046326,6|0,3:3|0:0,0:0:0:0:
465,384,87502,2,0,P|415:309|451:213,1,183.999986755372,10|0,0:2|0:0,0:0:0:0:
227,313,87982,1,0,1:0:0:0:
227,313,88462,1,8,0:2:0:0:
227,313,88942,70,0,B|226:345|226:345|334:280|317:128,1,245.333323160807,6|0,3:2|0:0,0:0:0:0:
177,71,89422,2,0,P|215:136|223:212,1,153.333326975505,10|0,0:2|0:0,0:0:0:0:
88,314,89902,2,0,P|126:248|134:172,1,153.333326975505,2|0,1:2|0:0,0:0:0:0:
83,53,90382,1,6,0:3:0:0:
236,123,90542,1,4,0:3:0:0:
31,228,90702,1,6,3:3:0:0:
317,179,90862,70,0,P|330:124|314:70,1,114.999995231629,6|0,3:3|0:0,0:0:0:0:
238,29,91182,1,0,0:0:0:0:
268,252,91342,2,0,P|316:265|405:226,1,114.999995231629,10|0,0:2|0:0,0:0:0:0:
419,173,91662,1,2,0:2:0:0:
324,351,91822,2,0,P|250:369|179:343,1,153.333326975505,2|2,1:2|0:2,0:0:0:0:
134,228,92302,1,6,0:3:0:0:
43,351,92462,1,4,0:3:0:0:
257,267,92622,1,6,3:3:0:0:
22,136,92782,5,6,3:3:0:0:
22,136,93262,2,0,P|76:114|151:130,1,114.999995231629,10|0,0:2|0:0,0:0:0:0:
205,160,93582,1,2,0:2:0:0:
97,340,93742,2,0,P|72:267|89:193,1,153.333326975505,2|0,1:2|0:0,0:0:0:0:
191,329,94222,1,6,0:3:0:0:
10,350,94382,1,4,0:3:0:0:
131,120,94542,1,6,3:3:0:0:
300,354,94702,70,0,P|355:341|396:302,1,114.999995231629,6|0,3:3|0:0,0:0:0:0:
423,231,95022,1,2,0:2:0:0:
242,256,95182,2,0,P|185:243|144:204,1,114.999995231629,10|0,0:2|0:0,0:0:0:0:
128,130,95502,1,2,0:2:0:0:
342,168,95662,2,0,P|379:158|407:130,1,76.6666634877523,2|0,1:2|0:0,0:0:0:0:
424,17,95982,1,2,0:2:0:0:
259,113,96142,2,0,P|244:158|273:245,1,114.999995231629,10|0,0:2|0:0,0:0:0:0:
319,275,96462,1,2,0:2:0:0:
55,199,96622,6,0,B|10:90|93:13|93:13|100:95,1,245.333323160807,6|0,3:2|0:0,0:0:0:0:
118,254,97102,2,0,P|176:265|267:206,1,153.333326975505,10|0,0:2|0:0,0:0:0:0:
165,92,97582,2,0,P|121:145|179:181,1,153.333326975505,0|0,1:0|0:0,0:0:0:0:
281,140,98062,1,4,0:3:0:0:
193,265,98222,1,4,0:3:0:0:
40,121,98382,1,4,3:3:0:0:
330,76,98542,69,4,3:3:0:0:
330,76,99022,1,8,0:2:0:0:
234,38,99342,1,2,0:2:0:0:
325,222,99502,2,0,P|352:181|355:128,1,76.6666634877523,2|0,1:2|0:0,0:0:0:0:
206,119,99822,1,2,0:2:0:0:
253,264,99982,1,6,0:3:0:0:
336,71,100142,1,4,0:3:0:0:
111,90,100302,1,6,3:3:0:0:
393,131,100462,6,0,B|425:214|365:288|365:288|350:240,1,199.333315943401,6|0,3:3|0:0,0:0:0:0:
334,69,100942,2,0,P|250:57|190:89,1,153.333326975505,10|0,0:2|0:0,0:0:0:0:
235,199,101422,2,0,P|300:135|272:222,1,249.166644929251,2|0,1:2|0:0,0:0:0:0:
191,257,101902,1,4,0:3:0:0:
191,87,102062,1,4,0:3:0:0:
267,314,102222,1,4,3:3:0:0:
36,243,102382,69,4,3:3:0:0:
36,243,102862,1,8,0:2:0:0:
346,353,103342,1,0,1:0:0:0:
346,353,103822,1,8,0:2:0:0:
268,216,103982,1,2,0:2:0:0:
352,254,104142,1,2,0:2:0:0:
399,88,104302,22,0,B|372:116|372:116|205:99,1,183.999992370606,6|0,3:2|0:0,0:0:0:0:
176,25,104622,2,0,L|75:34,1,91.9999933776858,2|8,0:2|0:2,0:0:0:0:
94,222,104942,1,2,0:2:0:0:
4,110,105102,1,2,0:2:0:0:
124,258,105262,2,0,B|151:286|151:286|295:271,1,183.999992370606,2|0,1:2|0:0,0:0:0:0:
408,343,105742,1,6,0:3:0:0:
357,175,105902,1,6,0:3:0:0:
223,361,106062,1,6,3:3:0:0:
380,141,106222,6,0,B|439:113|500:124|500:124|510:134,1,137.999990066529,6|0,3:3|0:0,0:0:0:0:
471,262,106542,2,0,P|427:270|361:246,1,91.9999933776858,2|8,0:2|0:2,0:0:0:0:
237,187,106862,1,2,0:2:0:0:
315,322,107022,1,2,0:2:0:0:
216,151,107182,2,0,B|68:140|68:140|110:176,1,183.999986755372,2|0,1:2|0:0,0:0:0:0:
205,266,107662,1,6,0:3:0:0:
249,74,107822,1,6,0:3:0:0:
29,215,107982,1,6,3:3:0:0:
263,37,108142,70,0,B|408:27,1,137.999990066529,6|0,3:3|0:0,0:0:0:0:
512,18,108462,2,0,L|456:95,1,91.9999933776858,2|8,0:2|0:2,0:0:0:0:
298,155,108782,1,2,0:2:0:0:
482,244,108942,1,2,0:2:0:0:
261,138,109102,2,0,B|192:102|106:136|106:136|131:185,1,183.999986755372,2|0,1:2|0:0,0:0:0:0:
173,300,109582,1,6,0:3:0:0:
338,218,109742,1,6,0:3:0:0:
116,157,109902,1,6,3:3:0:0:
380,234,110062,6,0,P|447:246|514:219,1,137.999990066529,6|0,3:3|0:0,0:0:0:0:
505,129,110382,2,0,P|462:113|416:118,1,91.9999933776858,2|8,0:2|0:2,0:0:0:0:
292,229,110702,1,2,0:2:0:0:
416,117,110862,1,2,0:2:0:0:
260,260,111022,2,0,P|178:268|78:208,1,183.999986755372,2|0,1:2|0:0,0:0:0:0:
160,149,111502,1,8,0:2:0:0:
33,278,111662,1,2,0:2:0:0:
12,87,111822,1,2,0:2:0:0:
38,317,111982,69,6,3:2:0:0:
222,204,112142,1,2,0:2:0:0:
65,300,112302,1,2,0:2:0:0:
72,46,112462,69,10,0:2:0:0:
146,252,112622,1,2,0:2:0:0:
84,79,112782,1,2,0:2:0:0:
335,166,112942,69,2,1:2:0:0:
113,159,113102,1,2,0:2:0:0:
296,165,113262,1,2,0:2:0:0:
119,24,113422,69,6,0:3:0:0:
119,248,113582,1,6,0:3:0:0:
382,168,113742,1,6,3:3:0:0:
113,159,113902,37,6,3:3:0:0:
335,166,114062,1,2,0:2:0:0:
151,161,114222,1,2,0:2:0:0:
277,380,114382,69,10,0:2:0:0:
243,163,114542,1,2,0:2:0:0:
272,344,114702,1,2,0:2:0:0:
476,189,114862,69,2,1:2:0:0:
263,259,115022,1,2,0:2:0:0:
438,202,115182,1,2,0:2:0:0:
207,116,115342,69,6,0:3:0:0:
290,335,115502,1,6,0:3:0:0:
476,189,115662,1,6,3:3:0:0:
289,376,115822,38,0,L|408:284,1,137.999990066529,6|0,3:3|0:0,0:0:0:0:
470,237,116142,1,2,0:2:0:0:
290,226,116302,1,8,0:2:0:0:
260,224,116622,1,0,0:0:0:0:
499,241,116782,1,0,1:0:0:0:
470,237,117102,1,2,0:2:0:0:
289,376,117262,1,6,0:3:0:0:
233,151,117422,1,4,0:3:0:0:
408,344,117582,1,4,3:3:0:0:
230,258,117742,6,0,P|261:175|348:158,1,183.999986755372,6|0,3:3|0:0,0:0:0:0:
379,314,118222,1,8,0:2:0:0:
348,158,118702,70,0,P|217:113|257:266,1,337.33331934611,0|0,1:0|0:0,0:0:0:0:
262,330,119662,6,0,P|255:284|227:256,1,84.3333298365276,2|0,0:2|0:0,0:0:0:0:
14,176,120622,6,0,B|30:161|30:161|101:140|170:193|170:193|99:242|132:314|214:324|248:285|223:236,1,383.333317438762,6|0,1:2|0:0,0:0:0:0:
239,147,121102,1,4,0:3:0:0:
29,275,121262,1,4,0:3:0:0:
241,384,121422,1,4,3:3:0:0:
14,176,121582,6,0,B|31:160|31:160|107:140|177:200,1,172.499999427796,6|0,3:3|0:0,0:0:0:0:
226,297,121902,1,2,0:2:0:0:
408,90,122062,2,0,B|391:74|391:74|315:54|245:114,1,172.499999427796,10|0,0:2|0:0,0:0:0:0:
165,205,122382,1,2,0:2:0:0:
7,37,122542,2,0,B|23:21|23:21|78:5|121:32,1,114.99999961853,2|0,1:2|0:0,0:0:0:0:
279,191,122862,1,2,0:2:0:0:
63,111,123022,69,6,0:3:0:0:
188,303,123182,1,4,0:3:0:0:
338,109,123342,1,6,3:3:0:0:
90,353,123502,70,0,B|110:378|110:378|181:321|267:335|267:335|296:366,1,229.999983444215,6|0,3:3|0:0,0:0:0:0:
366,378,123982,2,0,B|375:346|375:346|363:283|306:245,1,153.333326975505,10|0,0:2|0:0,0:0:0:0:
87,271,124462,1,0,1:0:0:0:
87,271,124942,5,4,0:3:0:0:
291,165,125102,1,4,0:3:0:0:
57,384,125262,1,6,3:3:0:0:
450,205,125422,54,0,B|451:175|451:175|373:167|372:253|292:265|238:246|238:246|254:196,1,287.499999046326,6|0,3:3|0:0,0:0:0:0:
175,179,125902,2,0,B|151:199|151:199|133:283|208:334,1,183.999986755372,10|0,0:2|0:0,0:0:0:0:
110,28,126382,1,0,1:0:0:0:
110,28,126862,1,8,0:2:0:0:
110,28,127342,54,0,P|178:53|107:89,1,191.666658719381,2|0,0:2|0:0,0:0:0:0:
41,62,127822,1,8,0:2:0:0:
41,62,128302,54,0,B|106:114|106:114|98:203|98:203|135:162|187:165|187:165|174:232|241:263,1,383.333317438762,6|0,1:2|0:0,0:0:0:0:
342,279,128782,1,4,0:3:0:0:
223,81,128942,1,4,0:3:0:0:
72,327,129102,1,4,3:3:0:0:
41,62,129262,6,0,B|107:115|107:115|96:210,1,172.499999427796,6|0,3:3|0:0,0:0:0:0:
72,327,129582,1,2,0:2:0:0:
281,113,129742,2,0,B|214:166|214:166|225:261,1,172.499999427796,10|0,0:2|0:0,0:0:0:0:
250,378,130062,1,2,0:2:0:0:
62,79,130222,2,0,B|107:115|107:115|99:190,1,114.99999961853,2|0,1:2|0:0,0:0:0:0:
64,382,130542,1,2,0:2:0:0:
14,145,130702,69,6,0:3:0:0:
304,200,130862,1,4,0:3:0:0:
64,382,131022,1,6,3:3:0:0:
381,282,131182,70,0,B|402:238|402:238|363:115|363:115|389:59,1,229.999983444215,6|0,3:3|0:0,0:0:0:0:
424,0,131662,2,0,B|399:38|399:38|275:32,1,153.333326975505,10|0,0:2|0:0,0:0:0:0:
61,23,132142,1,0,1:0:0:0:
61,23,132622,5,4,0:3:0:0:
271,114,132782,1,4,0:3:0:0:
0,227,132942,1,6,3:3:0:0:
332,19,133102,54,0,B|362:111|362:111|337:191|337:191|379:292,1,287.499999046326,6|0,3:3|0:0,0:0:0:0:
424,355,133582,2,0,B|395:331|395:331|242:350,1,183.999986755372,10|0,0:2|0:0,0:0:0:0:
25,374,134062,1,0,1:0:0:0:
25,374,134542,1,8,0:2:0:0:
25,374,135022,70,0,B|149:392|199:295|199:295|148:289,1,229.999983444215,6|0,3:2|0:0,0:0:0:0:
88,285,135502,1,8,0:2:0:0:
88,285,135982,1,0,1:0:0:0:
88,285,136462,1,4,0:3:0:0:
281,308,136622,1,4,0:3:0:0:
51,280,136782,1,6,3:3:0:0:
317,312,136942,70,0,B|343:295|343:295|354:237|334:168,1,137.999990066529,6|0,3:3|0:0,0:0:0:0:
310,101,137262,1,2,0:2:0:0:
173,252,137422,2,0,B|147:235|147:235|136:177|156:108,1,137.999990066529,10|0,0:2|0:0,0:0:0:0:
180,41,137742,1,2,0:2:0:0:
346,280,137902,2,0,P|348:232|336:182,1,91.9999933776858,2|0,1:2|0:0,0:0:0:0:
293,368,138222,1,2,0:2:0:0:
225,192,138382,1,6,0:3:0:0:
423,169,138542,1,4,0:3:0:0:
185,198,138702,1,6,3:3:0:0:
469,163,138862,6,0,P|442:66|321:62,1,229.999983444215,4|0,3:3|0:0,0:0:0:0:
278,136,139342,1,8,0:2:0:0:
278,136,139822,1,0,1:0:0:0:
278,136,140302,1,4,0:3:0:0:
95,110,140462,1,4,0:3:0:0:
313,142,140622,1,6,3:3:0:0:
51,104,140782,70,0,L|78:259,1,137.999990066529,6|0,3:3|0:0,0:0:0:0:
91,331,141102,1,2,0:2:0:0:
278,136,141262,2,0,L|251:291,1,137.999990066529,10|0,0:2|0:0,0:0:0:0:
238,363,141582,1,2,0:2:0:0:
60,148,141742,2,0,L|77:259,1,91.9999933776858,2|0,1:2|0:0,0:0:0:0:
41,56,142062,1,2,0:2:0:0:
173,183,142222,2,0,B|202:202|202:202|328:156,1,137.999990066529,2|0,0:2|0:0,0:0:0:0:
382,127,142542,1,2,0:2:0:0:
395,299,142702,38,0,L|315:265,1,84.3333298365276,2|0,0:2|0:0,0:0:0:0:
98,258,143662,6,0,B|69:261|34:281|34:281|75:327|165:312|165:312|225:223|337:275,1,383.333317438762,6|0,1:2|0:0,0:0:0:0:
266,371,144142,1,4,0:3:0:0:
310,145,144302,1,4,0:3:0:0:
433,339,144462,1,4,3:3:0:0:
166,311,144622,6,0,P|246:257|325:271,1,172.499999427796,6|0,3:3|0:0,0:0:0:0:
433,339,144942,1,2,0:2:0:0:
480,97,145102,2,0,P|395:90|328:141,1,172.499999427796,10|0,0:2|0:0,0:0:0:0:
317,266,145422,1,2,0:2:0:0:
109,139,145582,2,0,P|157:109|213:112,1,114.99999961853,2|0,1:2|0:0,0:0:0:0:
428,196,145902,1,2,0:2:0:0:
280,19,146062,69,6,0:3:0:0:
191,231,146222,1,4,0:3:0:0:
512,177,146382,1,6,3:3:0:0:
116,182,146542,70,0,B|80:276|161:318|161:318|158:360|191:382,1,229.999983444215,6|0,3:3|0:0,0:0:0:0:
258,284,147022,2,0,P|271:209|215:142,1,153.333326975505,10|0,0:2|0:0,0:0:0:0:
84,360,147502,1,0,1:0:0:0:
84,360,147982,5,4,0:3:0:0:
346,301,148142,1,4,0:3:0:0:
24,255,148302,1,6,3:3:0:0:
376,383,148462,54,0,B|458:336|419:246|419:246|445:215|425:174|425:174|415:147|424:123,1,287.499999046326,6|0,3:3|0:0,0:0:0:0:
316,127,148942,2,0,B|331:167|314:195|314:195|281:247|324:309,1,183.999986755372,10|0,0:2|0:0,0:0:0:0:
255,61,149422,1,0,1:0:0:0:
255,61,149902,1,8,0:2:0:0:
