osu file format v14

[General]
AudioFilename: audio.mp3
AudioLeadIn: 0
PreviewTime: 42385
Countdown: 0
SampleSet: Soft
StackLeniency: 0.4
Mode: 0
LetterboxInBreaks: 0
EpilepsyWarning: 1
WidescreenStoryboard: 1

[Editor]
DistanceSpacing: 1.6
BeatDivisor: 6
GridSize: 4
TimelineZoom: 1

[Metadata]
Title:Believer
TitleUnicode:Believer
Artist:J.Fla
ArtistUnicode:J.Fla
Creator:seselis1
Version:Insane
Source:
Tags:Imagine Dragons pop rock English Dora- doraemonelf female version vocals cover
BeatmapID:2311948
BeatmapSetID:1079693

[Difficulty]
HPDrainRate:5
CircleSize:3.5
OverallDifficulty:7
ApproachRate:9
SliderMultiplier:1.99999990463257
SliderTickRate:1

[Events]
//Background and Video events
0,0,"bg.jpg",0,0
//Break Periods
//Storyboard Layer 0 (Background)
//Storyboard Layer 1 (Fail)
//Storyboard Layer 2 (Pass)
//Storyboard Layer 3 (Foreground)
//Storyboard Layer 4 (Overlay)
//Storyboard Sound Samples

[TimingPoints]
1233,545.454545454546,4,2,1,45,1,0
1233,-125,4,2,1,45,0,0
1414,-125,4,2,2,45,0,0
1596,-125,4,2,3,45,0,0
1778,-125,4,2,4,45,0,0
1960,-125,4,2,2,45,0,0
2142,-125,4,2,3,45,0,0
2323,-125,4,2,4,45,0,0
2505,-125,4,2,2,45,0,0
2687,-125,4,2,3,45,0,0
2869,-125,4,2,4,45,0,0
3051,-125,4,2,2,45,0,0
3233,-125,4,2,3,45,0,0
3414,-125,4,2,4,45,0,0
3596,-125,4,2,2,45,0,0
3778,-125,4,2,3,45,0,0
3960,-125,4,2,4,45,0,0
4142,-125,4,2,2,45,0,0
4323,-125,4,2,3,45,0,0
4505,-125,4,2,4,45,0,0
4687,-125,4,2,2,45,0,0
4869,-125,4,2,3,45,0,0
5051,-125,4,2,4,45,0,0
5233,-125,4,2,2,45,0,0
5414,-125,4,2,3,45,0,0
5596,-125,4,2,5,45,0,0
5778,-125,4,2,2,45,0,0
5960,-125,4,2,3,45,0,0
6142,-125,4,2,4,45,0,0
6323,-125,4,2,2,45,0,0
6505,-125,4,2,3,45,0,0
6687,-125,4,2,4,45,0,0
6869,-125,4,2,2,45,0,0
7051,-125,4,2,3,45,0,0
7233,-125,4,2,4,45,0,0
7414,-125,4,2,2,45,0,0
7596,-125,4,2,3,45,0,0
7778,-166.666666666667,4,2,6,45,0,0
7960,-166.666666666667,4,2,7,45,0,0
8142,-166.666666666667,4,2,3,45,0,0
8323,-166.666666666667,4,2,8,45,0,0
8505,-166.666666666667,4,2,7,45,0,0
8687,-166.666666666667,4,2,3,45,0,0
8869,-125,4,2,8,45,0,0
9051,-125,4,2,7,45,0,0
9233,-125,4,2,3,45,0,0
9414,-125,4,2,8,45,0,0
9596,-125,4,2,7,45,0,0
9778,-125,4,2,3,45,0,0
11957,-125,4,2,3,12,0,0
12142,480,4,2,9,70,1,0
12622,-100,4,2,9,70,0,0
13102,-100,4,2,9,70,0,0
13582,-100,4,2,1,70,0,0
13742,-100,4,2,2,70,0,0
13902,-100,4,2,3,70,0,0
14062,-100,4,2,4,70,0,0
14542,-100,4,2,9,70,0,0
15022,-100,4,2,9,70,0,0
15502,-100,4,2,1,70,0,0
15662,-100,4,2,2,70,0,0
15822,-100,4,2,3,70,0,0
15982,-100,4,2,4,70,0,0
16462,-100,4,2,9,70,0,0
16942,-100,4,2,9,70,0,0
17422,-100,4,2,1,70,0,0
17582,-100,4,2,2,70,0,0
17742,-100,4,2,3,70,0,0
17902,-100,4,2,4,70,0,0
18382,-100,4,2,9,70,0,0
18862,-100,4,2,9,70,0,0
19342,-100,4,2,9,70,0,0
19822,-76.9230769230769,4,2,9,70,0,0
20302,-100,4,2,9,70,0,0
20782,-100,4,2,10,70,0,0
21262,-100,4,2,1,70,0,0
21422,-100,4,2,2,70,0,0
21582,-100,4,2,3,70,0,0
21742,-100,4,2,4,70,0,0
22222,-100,4,2,9,70,0,0
22702,-100,4,2,9,70,0,0
23182,-100,4,2,1,70,0,0
23342,-100,4,2,2,70,0,0
23502,-100,4,2,3,70,0,0
23662,-100,4,2,4,70,0,0
24142,-100,4,2,9,70,0,0
24622,-100,4,2,10,70,0,0
25102,-100,4,2,1,70,0,0
25262,-100,4,2,2,70,0,0
25422,-100,4,2,3,70,0,0
25582,-100,4,2,4,70,0,0
26062,-100,4,2,9,70,0,0
27502,-76.9230769230769,4,2,9,70,0,0
27982,-100,4,2,9,70,0,0
28462,-100,4,2,9,70,0,0
28942,-100,4,2,1,70,0,0
29102,-100,4,2,2,70,0,0
29262,-100,4,2,3,70,0,0
29422,-100,4,2,4,70,0,0
29742,-100,4,2,9,70,0,0
30382,-100,4,2,9,70,0,0
30862,-100,4,2,1,70,0,0
31022,-100,4,2,2,70,0,0
31182,-100,4,2,3,70,0,0
31342,-100,4,2,4,70,0,0
31822,-100,4,2,9,70,0,0
32302,-100,4,2,9,70,0,0
32782,-100,4,2,1,70,0,0
32942,-100,4,2,2,70,0,0
33102,-100,4,2,3,70,0,0
33262,-100,4,2,4,70,0,0
33742,-100,4,2,9,70,0,0
34222,-100,4,2,9,70,0,0
34702,-100,4,2,9,70,0,0
35182,-76.9230769230769,4,2,9,70,0,0
35662,-100,4,2,9,70,0,0
36142,-100,4,2,10,70,0,0
36622,-100,4,2,1,70,0,0
36782,-100,4,2,2,70,0,0
36942,-100,4,2,3,70,0,0
37102,-100,4,2,4,70,0,0
37582,-100,4,2,9,70,0,0
38062,-100,4,2,9,70,0,0
38542,-100,4,2,1,70,0,0
38702,-100,4,2,2,70,0,0
38862,-100,4,2,3,70,0,0
39022,-100,4,2,4,70,0,0
39502,-100,4,2,9,70,0,0
39982,-100,4,2,10,70,0,0
40462,-100,4,2,1,70,0,0
40622,-100,4,2,2,70,0,0
40782,-100,4,2,3,70,0,0
40942,-100,4,2,4,70,0,0
41422,-100,4,2,9,70,0,0
42542,-100,4,2,9,70,0,0
42862,-71.4285714285714,4,2,9,70,0,0
43182,-83.3333333333333,4,2,9,70,0,0
43342,-83.3333333333333,4,2,9,70,0,0
43822,-83.3333333333333,4,2,9,70,0,0
44302,-83.3333333333333,4,2,1,70,0,0
44462,-83.3333333333333,4,2,2,70,0,0
44622,-83.3333333333333,4,2,3,70,0,0
44782,-83.3333333333333,4,2,4,70,0,0
45102,-83.3333333333333,4,2,9,70,0,0
45742,-83.3333333333333,4,2,9,70,0,0
46222,-83.3333333333333,4,2,1,70,0,0
46382,-83.3333333333333,4,2,2,70,0,0
46542,-83.3333333333333,4,2,3,70,0,0
46702,-83.3333333333333,4,2,4,70,0,0
47022,-83.3333333333333,4,2,9,70,0,0
47662,-83.3333333333333,4,2,9,70,0,0
48142,-83.3333333333333,4,2,1,70,0,0
48302,-83.3333333333333,4,2,2,70,0,0
48462,-83.3333333333333,4,2,3,70,0,0
48622,-83.3333333333333,4,2,5,80,0,0
48782,-83.3333333333333,4,2,9,80,0,0
49102,-83.3333333333333,4,2,10,80,0,0
49262,-83.3333333333333,4,2,9,80,0,0
49582,-83.3333333333333,4,2,10,80,0,0
49742,-83.3333333333333,4,2,9,80,0,0
50062,-83.3333333333333,4,2,10,80,0,0
50222,-83.3333333333333,4,2,9,80,0,0
50542,-71.4285714285714,4,2,10,70,0,0
50862,-83.3333333333333,4,2,9,70,0,0
51502,-83.3333333333333,4,2,9,70,0,0
51982,-83.3333333333333,4,2,1,70,0,0
52142,-83.3333333333333,4,2,2,70,0,0
52302,-83.3333333333333,4,2,3,70,0,0
52462,-83.3333333333333,4,2,4,70,0,0
52782,-83.3333333333333,4,2,9,70,0,0
53422,-83.3333333333333,4,2,9,70,0,0
53902,-83.3333333333333,4,2,1,70,0,0
54062,-83.3333333333333,4,2,2,70,0,0
54222,-83.3333333333333,4,2,3,70,0,0
54382,-83.3333333333333,4,2,4,70,0,0
54702,-83.3333333333333,4,2,9,70,0,0
55342,-83.3333333333333,4,2,9,70,0,0
55822,-83.3333333333333,4,2,1,70,0,0
55982,-83.3333333333333,4,2,2,70,0,0
56142,-83.3333333333333,4,2,3,70,0,0
56302,-83.3333333333333,4,2,4,70,0,0
56622,-83.3333333333333,4,2,9,70,0,0
57262,-111.111111111111,4,2,9,70,0,0
58222,-333.333333333333,4,2,11,80,0,0
59182,-62.5,4,2,12,90,0,1
59662,-62.5,4,2,1,90,0,1
59822,-62.5,4,2,2,90,0,1
59982,-62.5,4,2,3,90,0,1
60142,-71.4285714285714,4,2,6,90,0,1
60462,-71.4285714285714,4,2,12,90,0,1
61582,-62.5,4,2,7,90,0,1
61742,-62.5,4,2,2,90,0,1
61902,-62.5,4,2,8,90,0,1
62062,-83.3333333333333,4,2,6,90,0,1
62542,-100,4,2,12,90,0,1
63022,-71.4285714285714,4,2,12,90,0,1
63502,-71.4285714285714,4,2,1,90,0,1
63662,-71.4285714285714,4,2,2,90,0,1
63822,-71.4285714285714,4,2,8,90,0,1
63982,-71.4285714285714,4,2,6,90,0,1
64462,-83.3333333333333,4,2,12,90,0,1
64942,-71.4285714285714,4,2,12,90,0,1
65902,-100,4,2,11,90,0,1
66382,-100,4,2,1,90,0,1
66862,-62.5,4,2,13,90,0,1
67342,-71.4285714285714,4,2,1,90,0,1
67502,-71.4285714285714,4,2,2,90,0,1
67662,-71.4285714285714,4,2,3,90,0,1
67822,-71.4285714285714,4,2,6,90,0,1
68142,-71.4285714285714,4,2,12,90,0,1
69262,-71.4285714285714,4,2,7,90,0,1
69422,-71.4285714285714,4,2,2,90,0,1
69582,-71.4285714285714,4,2,8,90,0,1
69742,-83.3333333333333,4,2,6,90,0,1
70222,-100,4,2,12,90,0,1
70702,-71.4285714285714,4,2,12,90,0,1
71182,-71.4285714285714,4,2,1,90,0,1
71342,-71.4285714285714,4,2,2,90,0,1
71502,-71.4285714285714,4,2,8,90,0,1
71662,-71.4285714285714,4,2,6,90,0,1
72142,-83.3333333333333,4,2,12,90,0,1
72622,-71.4285714285714,4,2,12,90,0,1
73582,-83.3333333333333,4,2,14,85,0,0
74062,-83.3333333333333,4,2,1,85,0,0
75182,-83.3333333333333,4,2,2,85,0,0
75342,-83.3333333333333,4,2,8,85,0,0
75502,-83.3333333333333,4,2,6,85,0,0
75822,-83.3333333333333,4,2,12,85,0,0
76942,-83.3333333333333,4,2,7,85,0,0
77102,-83.3333333333333,4,2,2,85,0,0
77262,-83.3333333333333,4,2,8,85,0,0
77422,-83.3333333333333,4,2,4,85,0,0
77582,-83.3333333333333,4,2,12,85,0,0
78862,-83.3333333333333,4,2,1,85,0,0
79022,-83.3333333333333,4,2,2,85,0,0
79182,-83.3333333333333,4,2,8,85,0,0
79342,-83.3333333333333,4,2,6,85,0,0
79662,-83.3333333333333,4,2,12,85,0,0
81262,-333.333333333333,4,2,11,80,0,0
82222,-62.5,4,2,12,90,0,1
82702,-71.4285714285714,4,2,1,90,0,1
82862,-71.4285714285714,4,2,2,90,0,1
83022,-71.4285714285714,4,2,3,90,0,1
83182,-71.4285714285714,4,2,6,90,0,1
83502,-71.4285714285714,4,2,12,90,0,1
84622,-71.4285714285714,4,2,7,90,0,1
84782,-71.4285714285714,4,2,2,90,0,1
84942,-71.4285714285714,4,2,8,90,0,1
85102,-83.3333333333333,4,2,6,90,0,1
85582,-100,4,2,12,90,0,1
86062,-71.4285714285714,4,2,12,90,0,1
86542,-71.4285714285714,4,2,1,90,0,1
86702,-71.4285714285714,4,2,2,90,0,1
86862,-71.4285714285714,4,2,8,90,0,1
87022,-71.4285714285714,4,2,6,90,0,1
87502,-83.3333333333333,4,2,12,90,0,1
87982,-71.4285714285714,4,2,12,90,0,1
88942,-76.9230769230769,4,2,9,70,0,0
89422,-100,4,2,9,70,0,0
89902,-100,4,2,9,70,0,0
90382,-100,4,2,1,70,0,0
90542,-100,4,2,2,70,0,0
90702,-100,4,2,3,70,0,0
90862,-100,4,2,4,70,0,0
91342,-100,4,2,9,70,0,0
91822,-100,4,2,9,70,0,0
92302,-100,4,2,1,70,0,0
92462,-100,4,2,2,70,0,0
92622,-100,4,2,3,70,0,0
92782,-100,4,2,4,70,0,0
93262,-100,4,2,9,70,0,0
93742,-100,4,2,9,70,0,0
94222,-100,4,2,1,70,0,0
94382,-100,4,2,2,70,0,0
94542,-100,4,2,3,70,0,0
94702,-100,4,2,4,70,0,0
95022,-100,4,2,9,70,0,0
95662,-100,4,2,9,70,0,0
96142,-100,4,2,9,70,0,0
96622,-76.9230769230769,4,2,9,70,0,0
97102,-100,4,2,9,70,0,0
97582,-100,4,2,9,70,0,0
98222,-100,4,2,2,70,0,0
98382,-100,4,2,3,70,0,0
98542,-100,4,2,4,70,0,0
99022,-100,4,2,9,70,0,0
99502,-100,4,2,9,70,0,0
99982,-100,4,2,1,70,0,0
100142,-100,4,2,2,70,0,0
100302,-100,4,2,3,70,0,0
100462,-100,4,2,4,70,0,0
100942,-100,4,2,9,70,0,0
101422,-100,4,2,10,70,0,0
101902,-100,4,2,1,70,0,0
102062,-100,4,2,2,70,0,0
102222,-100,4,2,3,70,0,0
102382,-100,4,2,4,70,0,0
102862,-100,4,2,9,70,0,0
103982,-100,4,2,9,70,0,0
104302,-71.4285714285714,4,2,9,70,0,0
104622,-83.3333333333333,4,2,9,70,0,0
104782,-83.3333333333333,4,2,9,70,0,0
105262,-83.3333333333333,4,2,9,70,0,0
105742,-83.3333333333333,4,2,1,70,0,0
105902,-83.3333333333333,4,2,2,70,0,0
106062,-83.3333333333333,4,2,3,70,0,0
106222,-83.3333333333333,4,2,4,70,0,0
106542,-83.3333333333333,4,2,9,70,0,0
107182,-83.3333333333333,4,2,9,70,0,0
107662,-83.3333333333333,4,2,1,70,0,0
107822,-83.3333333333333,4,2,2,70,0,0
107982,-83.3333333333333,4,2,3,70,0,0
108142,-83.3333333333333,4,2,4,70,0,0
108462,-83.3333333333333,4,2,9,70,0,0
109102,-83.3333333333333,4,2,9,70,0,0
109582,-83.3333333333333,4,2,1,70,0,0
109742,-83.3333333333333,4,2,2,70,0,0
109902,-83.3333333333333,4,2,3,70,0,0
110062,-83.3333333333333,4,2,4,70,0,0
110382,-83.3333333333333,4,2,9,70,0,0
111022,-83.3333333333333,4,2,9,70,0,0
111502,-83.3333333333333,4,2,9,70,0,0
111982,-83.3333333333333,4,2,10,80,0,0
112142,-83.3333333333333,4,2,9,80,0,0
112462,-83.3333333333333,4,2,10,80,0,0
112622,-83.3333333333333,4,2,9,80,0,0
112942,-83.3333333333333,4,2,10,80,0,0
113102,-83.3333333333333,4,2,9,80,0,0
113422,-83.3333333333333,4,2,9,80,0,0
113582,-83.3333333333333,4,2,10,80,0,0
113742,-83.3333333333333,4,2,11,80,0,0
113902,-83.3333333333333,4,2,5,80,0,0
114062,-83.3333333333333,4,2,9,80,0,0
114382,-83.3333333333333,4,2,10,80,0,0
114542,-83.3333333333333,4,2,9,80,0,0
114862,-83.3333333333333,4,2,10,80,0,0
115022,-83.3333333333333,4,2,9,80,0,0
115342,-83.3333333333333,4,2,9,80,0,0
115502,-83.3333333333333,4,2,10,80,0,0
115662,-83.3333333333333,4,2,11,80,0,0
115822,-83.3333333333333,4,2,4,80,0,0
116142,-83.3333333333333,4,2,9,80,0,0
116782,-83.3333333333333,4,2,9,80,0,0
117262,-83.3333333333333,4,2,1,80,0,0
117422,-83.3333333333333,4,2,2,80,0,0
117582,-83.3333333333333,4,2,3,80,0,0
117742,-83.3333333333333,4,2,4,80,0,0
118222,-83.3333333333333,4,2,1,80,0,0
118702,-125,4,2,1,80,0,0
119662,-333.333333333333,4,2,11,80,0,0
120622,-62.5,4,2,12,90,0,0
121102,-71.4285714285714,4,2,1,90,0,1
121262,-71.4285714285714,4,2,2,90,0,1
121422,-71.4285714285714,4,2,3,90,0,1
121582,-71.4285714285714,4,2,6,90,0,1
121902,-71.4285714285714,4,2,12,90,0,1
123022,-71.4285714285714,4,2,7,90,0,1
123182,-71.4285714285714,4,2,2,90,0,1
123342,-71.4285714285714,4,2,8,90,0,1
123502,-83.3333333333333,4,2,6,90,0,1
123982,-100,4,2,12,90,0,1
124462,-71.4285714285714,4,2,12,90,0,1
124942,-71.4285714285714,4,2,1,90,0,1
125102,-71.4285714285714,4,2,2,90,0,1
125262,-71.4285714285714,4,2,8,90,0,1
125422,-71.4285714285714,4,2,6,90,0,1
125902,-83.3333333333333,4,2,12,90,0,1
126382,-71.4285714285714,4,2,12,90,0,1
127342,-100,4,2,11,90,0,1
127822,-100,4,2,1,90,0,1
128302,-62.5,4,2,13,90,0,1
128782,-71.4285714285714,4,2,1,90,0,1
128942,-71.4285714285714,4,2,2,90,0,1
129102,-71.4285714285714,4,2,3,90,0,1
129262,-71.4285714285714,4,2,6,90,0,1
129582,-71.4285714285714,4,2,12,90,0,1
130702,-71.4285714285714,4,2,7,90,0,1
130862,-71.4285714285714,4,2,2,90,0,1
131022,-71.4285714285714,4,2,8,90,0,1
131182,-83.3333333333333,4,2,6,90,0,1
131662,-100,4,2,12,90,0,1
132142,-71.4285714285714,4,2,12,90,0,1
132622,-71.4285714285714,4,2,1,90,0,1
132782,-71.4285714285714,4,2,2,90,0,1
132942,-71.4285714285714,4,2,8,90,0,1
133102,-71.4285714285714,4,2,6,90,0,1
133582,-83.3333333333333,4,2,12,90,0,1
134062,-71.4285714285714,4,2,12,90,0,1
135022,-83.3333333333333,4,2,14,85,0,0
135502,-83.3333333333333,4,2,1,85,0,0
136622,-83.3333333333333,4,2,2,85,0,0
136782,-83.3333333333333,4,2,8,85,0,0
136942,-83.3333333333333,4,2,6,85,0,0
137262,-83.3333333333333,4,2,12,85,0,0
138382,-83.3333333333333,4,2,7,85,0,0
138542,-83.3333333333333,4,2,2,85,0,0
138702,-83.3333333333333,4,2,8,85,0,0
138862,-83.3333333333333,4,2,4,85,0,0
139022,-83.3333333333333,4,2,12,85,0,0
140302,-83.3333333333333,4,2,1,85,0,0
140462,-83.3333333333333,4,2,2,85,0,0
140622,-83.3333333333333,4,2,8,85,0,0
140782,-83.3333333333333,4,2,6,85,0,0
141102,-83.3333333333333,4,2,12,85,0,0
142702,-333.333333333333,4,2,11,80,0,0
143662,-62.5,4,2,12,90,0,1
144142,-71.4285714285714,4,2,1,90,0,1
144302,-71.4285714285714,4,2,2,90,0,1
144462,-71.4285714285714,4,2,3,90,0,1
144622,-71.4285714285714,4,2,6,90,0,1
144942,-71.4285714285714,4,2,12,90,0,1
146062,-71.4285714285714,4,2,7,90,0,1
146222,-71.4285714285714,4,2,2,90,0,1
146382,-71.4285714285714,4,2,8,90,0,1
146542,-83.3333333333333,4,2,6,90,0,1
147022,-100,4,2,12,90,0,1
147502,-71.4285714285714,4,2,12,90,0,1
147982,-71.4285714285714,4,2,1,90,0,1
148142,-71.4285714285714,4,2,2,90,0,1
148302,-71.4285714285714,4,2,8,90,0,1
148462,-71.4285714285714,4,2,6,90,0,1
148942,-83.3333333333333,4,2,12,90,0,1
149422,-71.4285714285714,4,2,12,90,0,1
150382,-100,4,2,12,90,0,0

[Colours]
Combo1 : 255,128,128
Combo2 : 138,255,255
Combo3 : 138,138,255
Combo4 : 130,4,255
Combo5 : 17,17,255
Combo6 : 255,0,0
SliderBorder : 138,255,255

[HitObjects]
92,137,1233,6,0,L|15:121,2,53.3333307902019,2|2|2,0:2|0:2|0:2,0:0:0:0:
169,155,1778,2,0,L|246:171,2,53.3333307902019,2|2|2,0:2|0:2|0:2,0:0:0:0:
92,137,2323,2,0,L|15:121,2,53.3333307902019,2|2|2,0:2|0:2|0:2,0:0:0:0:
169,155,2869,2,0,L|221:165,1,53.3333307902019,2|2,0:2|0:2,0:0:0:0:
293,130,3233,1,2,0:2:0:0:
221,165,3414,38,0,L|193:275,1,106.666661580404,2|2,0:2|0:2,0:0:0:0:
245,334,3960,1,2,0:2:0:0:
293,130,4323,1,2,0:2:0:0:
221,165,4505,2,0,L|193:281,1,106.666661580404,2|2,0:2|0:2,0:0:0:0:
245,334,5051,1,2,0:2:0:0:
293,130,5414,1,2,0:2:0:0:
313,245,5596,38,0,L|494:280,1,159.999992370606,2|2,0:2|0:2,0:0:0:0:
234,226,6687,2,0,L|161:212,2,53.3333307902019,2|2|2,0:2|0:2|0:2,0:0:0:0:
313,245,7233,2,0,L|386:259,1,53.3333307902019,2|2,0:2|0:2,0:0:0:0:
435,217,7596,1,2,0:2:0:0:
313,245,7778,38,0,L|183:217,1,119.999990615845,2|2,0:2|0:2,0:0:0:0:
390,265,8869,2,0,L|466:282,2,53.3333307902019,2|2|2,0:2|0:2|0:2,0:0:0:0:
312,245,9414,2,0,L|236:228,2,53.3333307902019,2|2|2,0:2|0:2|0:2,0:0:0:0:
256,192,9960,12,0,11960,0:0:0:0:
43,90,12142,54,0,P|53:154|80:234,1,133.333326975505,2|0,3:2|0:0,0:0:0:0:
178,241,12622,2,0,P|168:305|141:385,1,133.333326975505,10|0,0:2|0:0,0:0:0:0:
73,219,13102,2,0,P|52:155|42:89,1,133.333326975505,2|0,1:2|0:0,0:0:0:0:
147,107,13582,1,6,0:3:0:0:
169,2,13742,1,4,0:3:0:0:
140,139,13902,1,6,3:3:0:0:
264,59,14062,70,0,P|316:43|398:61,1,133.333326975505,6|0,3:3|0:0,0:0:0:0:
461,137,14542,2,0,P|396:152|332:136,1,133.333326975505,10|2,0:2|0:2,0:0:0:0:
192,246,15022,2,0,P|244:261|323:245,1,133.333326975505,2|2,1:2|0:2,0:0:0:0:
255,155,15502,1,6,0:3:0:0:
361,151,15662,1,4,0:3:0:0:
224,157,15822,1,6,3:3:0:0:
320,43,15982,5,6,3:3:0:0:
320,43,16462,2,0,P|246:42|170:72,1,133.333326975505,10|0,0:2|0:0,0:0:0:0:
38,151,16942,2,0,P|112:150|188:180,1,133.333326975505,2|0,1:2|0:0,0:0:0:0:
237,248,17422,1,6,0:3:0:0:
133,274,17582,1,4,0:3:0:0:
269,240,17742,1,6,3:3:0:0:
176,370,17902,70,0,P|108:367|31:329,1,133.333326975505,6|0,3:3|0:0,0:0:0:0:
133,274,18382,1,10,0:2:0:0:
109,279,18702,1,2,0:2:0:0:
229,240,18862,1,2,1:2:0:0:
238,265,19182,1,2,0:2:0:0:
212,142,19342,1,10,0:2:0:0:
186,138,19662,1,2,0:2:0:0:
352,145,19822,6,0,P|431:65|320:35,1,259.99997570038,6|10,3:2|0:2,0:0:0:0:
332,26,20782,2,0,P|389:76|335:150,1,166.666658719381,2|0,1:2|0:0,0:0:0:0:
323,158,21262,1,4,0:3:0:0:
248,81,21422,1,4,0:3:0:0:
206,179,21582,1,4,3:3:0:0:
155,33,21742,69,4,3:3:0:0:
155,33,22222,1,8,0:2:0:0:
164,12,22542,1,2,0:2:0:0:
73,147,22702,2,0,P|125:160|215:137,1,133.333326975505,2|2,1:2|0:2,0:0:0:0:
147,249,23182,1,6,0:3:0:0:
249,253,23342,1,4,0:3:0:0:
113,249,23502,1,6,3:3:0:0:
225,357,23662,6,0,P|288:348|234:255,1,199.999990463257,6|10,3:3|0:2,0:0:0:0:
249,252,24622,2,0,P|282:332|209:351,1,166.666658719381,2|0,1:2|0:0,0:0:0:0:
199,342,25102,1,4,0:3:0:0:
169,239,25262,1,4,0:3:0:0:
108,323,25422,1,4,3:3:0:0:
99,165,25582,69,4,3:3:0:0:
99,165,26062,1,8,0:2:0:0:
404,259,26542,1,0,1:0:0:0:
404,259,27022,1,8,0:2:0:0:
51,329,27502,6,0,P|61:250|101:161,1,173.333317133587,6|2,3:2|0:2,0:0:0:0:
205,154,27982,2,0,P|196:83|174:22,1,133.333326975505,10|0,0:2|0:0,0:0:0:0:
99,165,28462,2,0,P|75:209|53:299,1,133.333326975505,2|2,1:2|0:2,0:0:0:0:
168,256,28942,1,6,0:3:0:0:
146,360,29102,1,4,0:3:0:0:
175,225,29262,1,6,3:3:0:0:
257,320,29422,70,0,P|321:348|387:345,1,133.333326975505,6|2,3:3|0:2,0:0:0:0:
450,233,29902,2,0,P|392:261|317:257,1,133.333326975505,10|2,0:2|0:2,0:0:0:0:
273,145,30382,1,2,1:2:0:0:
282,170,30702,1,2,0:2:0:0:
261,56,30862,1,6,0:3:0:0:
350,113,31022,1,4,0:3:0:0:
237,39,31182,1,6,3:3:0:0:
162,174,31342,5,6,3:3:0:0:
162,174,31822,2,0,P|107:154|28:156,1,133.333326975505,10|2,0:2|0:2,0:0:0:0:
71,306,32302,2,0,P|168:284|215:291,1,133.333326975505,2|0,1:2|0:0,0:0:0:0:
297,331,32782,1,6,0:3:0:0:
274,226,32942,1,4,0:3:0:0:
303,364,33102,1,6,3:3:0:0:
399,214,33262,70,0,P|302:192|255:199,1,133.333326975505,6|0,3:3|0:0,0:0:0:0:
166,222,33742,1,10,0:2:0:0:
157,236,34062,1,2,0:2:0:0:
221,112,34222,1,2,1:2:0:0:
228,97,34541,1,2,0:2:0:0:
123,71,34702,1,10,0:2:0:0:
104,64,35022,1,2,0:2:0:0:
96,202,35182,6,0,P|101:96|12:153,1,259.99997570038,6|10,3:2|0:2,0:0:0:0:
12,153,36142,2,0,P|82:129|96:202,1,166.666658719381,2|0,1:2|0:0,0:0:0:0:
80,224,36622,1,4,0:3:0:0:
129,321,36782,1,4,0:3:0:0:
27,352,36942,1,4,3:3:0:0:
192,379,37102,69,4,3:3:0:0:
192,379,37582,1,8,0:2:0:0:
172,377,37902,1,2,0:2:0:0:
315,364,38062,2,0,P|347:309|331:236,1,133.333326975505,2|2,1:2|0:2,0:0:0:0:
238,291,38542,1,6,0:3:0:0:
258,186,38702,1,4,0:3:0:0:
232,320,38862,1,6,3:3:0:0:
149,185,39022,6,0,P|165:132|257:186,1,199.999990463257,6|10,3:3|0:2,0:0:0:0:
257,185,39982,2,0,P|192:134|149:195,1,166.666658719381,2|0,1:2|0:0,0:0:0:0:
154,215,40462,1,4,0:3:0:0:
247,266,40622,1,4,0:3:0:0:
138,310,40782,1,4,3:3:0:0:
318,320,40942,69,4,3:3:0:0:
318,320,41422,1,8,0:2:0:0:
50,144,41902,1,0,1:0:0:0:
50,144,42382,1,8,0:2:0:0:
155,128,42542,1,2,0:2:0:0:
112,30,42702,1,2,0:2:0:0:
173,166,42862,22,0,B|202:182|202:182|336:152,1,139.999989051819,6|0,3:2|0:0,0:0:0:0:
384,140,43182,2,0,L|306:158,1,79.9999937438968,2|8,0:2|0:2,0:0:0:0:
302,286,43502,1,2,0:2:0:0:
410,218,43662,1,2,0:2:0:0:
269,310,43822,2,0,B|240:326|240:326|120:301,1,119.999990615845,2|0,1:2|0:0,0:0:0:0:
120,302,44142,1,2,0:2:0:0:
153,178,44302,1,6,0:3:0:0:
34,281,44462,1,6,0:3:0:0:
224,239,44622,1,6,3:3:0:0:
63,193,44782,6,0,B|51:175|51:175|44:128|69:62,1,119.999990615845,6|0,3:3|0:0,0:0:0:0:
108,13,45102,2,0,P|78:49|62:79,1,79.9999937438968,2|8,0:2|0:2,0:0:0:0:
163,157,45422,1,2,0:2:0:0:
209,37,45582,1,2,0:2:0:0:
146,201,45742,2,0,P|146:246|181:321,1,119.999990615845,2|0,1:2|0:0,0:0:0:0:
199,338,46062,1,2,0:2:0:0:
320,297,46222,1,6,0:3:0:0:
238,198,46382,1,6,0:3:0:0:
275,377,46542,1,6,3:3:0:0:
362,200,46702,70,0,B|418:179|418:179|492:205,1,119.999990615845,6|0,3:3|0:0,0:0:0:0:
485,279,47022,2,0,L|473:192,1,79.9999937438968,2|8,0:2|0:2,0:0:0:0:
383,99,47342,1,2,0:2:0:0:
492,37,47502,1,2,0:2:0:0:
345,118,47662,2,0,B|289:139|289:139|215:113,1,119.999990615845,2|0,1:2|0:0,0:0:0:0:
202,104,47982,1,2,0:2:0:0:
248,223,48142,1,6,0:3:0:0:
291,43,48302,1,6,0:3:0:0:
112,101,48462,1,6,3:3:0:0:
248,223,48622,5,6,3:3:0:0:
261,172,48782,1,2,0:2:0:0:
273,121,48942,1,2,0:2:0:0:
351,255,49102,53,10,0:2:0:0:
297,239,49262,1,2,0:2:0:0:
248,223,49422,1,2,0:2:0:0:
221,328,49582,69,2,1:2:0:0:
235,274,49742,1,2,0:2:0:0:
248,223,49902,1,2,0:2:0:0:
141,195,50062,69,10,0:2:0:0:
195,208,50222,1,2,0:2:0:0:
248,223,50382,1,2,0:2:0:0:
223,360,50542,38,0,L|248:221,1,139.999989051819,6|0,3:2|0:0,0:0:0:0:
262,143,50862,2,0,L|241:255,1,79.9999937438968,2|8,0:2|0:2,0:0:0:0:
120,244,51182,1,2,0:2:0:0:
180,131,51342,1,2,0:2:0:0:
20,202,51502,2,0,L|48:365,1,159.999987487794,2|0,1:2|0:0,0:0:0:0:
181,369,51982,1,6,0:3:0:0:
120,244,52142,1,6,0:3:0:0:
268,373,52302,1,6,3:3:0:0:
286,199,52462,6,0,P|234:177|155:198,1,119.999990615845,6|0,3:3|0:0,0:0:0:0:
120,244,52782,2,0,P|142:209|177:186,1,79.9999937438968,2|8,0:2|0:2,0:0:0:0:
238,298,53102,1,2,0:2:0:0:
116,338,53262,1,2,0:2:0:0:
317,361,53422,2,0,P|404:338|439:268,1,159.999987487794,2|0,1:2|0:0,0:0:0:0:
410,156,53902,1,6,0:3:0:0:
333,258,54062,1,6,0:3:0:0:
504,208,54222,1,6,3:3:0:0:
269,198,54382,70,0,B|221:119|221:119|230:89,1,119.999990615845,6|0,3:3|0:0,0:0:0:0:
259,18,54702,2,0,L|226:99,1,79.9999937438968,2|8,0:2|0:2,0:0:0:0:
110,153,55022,1,2,0:2:0:0:
167,27,55182,1,2,0:2:0:0:
32,87,55342,2,0,B|4:162|4:162|45:248,1,159.999987487794,2|0,1:2|0:0,0:0:0:0:
183,269,55822,1,6,0:3:0:0:
110,153,55982,1,6,0:3:0:0:
92,324,56142,1,6,3:3:0:0:
254,215,56302,6,0,B|292:193|355:204|355:204|384:226,1,119.999990615845,6|0,3:3|0:0,0:0:0:0:
446,217,56622,2,0,P|401:222|363:211,1,79.9999937438968,2|8,0:2|0:2,0:0:0:0:
284,115,56942,1,2,0:2:0:0:
411,126,57102,1,2,0:2:0:0:
195,109,57262,2,0,B|167:104|149:82|149:82|222:57|300:108|265:203|205:234|132:203,1,329.999974193574,0|0,1:0|0:0,0:0:0:0:
59,172,58222,70,0,P|92:173|162:216,1,109.999991397858,2|0,0:2|0:0,0:0:0:0:
185,309,59182,22,0,B|174:283|183:248|183:248|228:245|266:282|266:282|343:294|385:238,1,266.666653951009,6|0,1:2|0:0,0:0:0:0:
394,224,59662,1,4,0:3:0:0:
343,364,59822,1,4,0:3:0:0:
406,182,59982,1,4,3:3:0:0:
232,365,60142,6,0,B|205:353|205:353|164:289|191:224,1,139.999989051819,6|0,3:3|0:0,0:0:0:0:
194,215,60462,1,2,0:2:0:0:
332,269,60622,2,0,B|358:257|358:257|399:193|372:128,1,139.999989051819,10|0,0:2|0:0,0:0:0:0:
370,119,60942,1,2,0:2:0:0:
183,247,61102,2,0,B|156:235|156:235|115:171|142:106,1,139.999989051819,2|0,1:2|0:0,0:0:0:0:
145,97,61422,1,2,0:2:0:0:
56,216,61582,1,6,0:3:0:0:
224,164,61742,1,4,0:3:0:0:
23,226,61902,1,6,3:3:0:0:
204,335,62062,54,0,B|311:366|366:317|366:317|356:306|337:296,1,199.999984359742,6|0,3:3|0:0,0:0:0:0:
262,262,62542,2,0,P|232:225|237:133,1,133.333326975505,10|0,0:2|0:0,0:0:0:0:
342,299,63022,1,0,1:0:0:0:
342,299,63502,1,4,0:3:0:0:
384,155,63662,1,4,0:3:0:0:
331,335,63822,1,6,3:3:0:0:
232,142,63982,70,0,B|141:81|45:131|45:131|61:148|91:151,1,233.333315086366,6|0,3:3|0:0,0:0:0:0:
148,206,64462,2,0,P|163:255|103:337,1,159.999987487794,10|0,0:2|0:0,0:0:0:0:
75,148,64942,1,0,1:0:0:0:
75,148,65422,1,8,0:2:0:0:
338,330,65902,54,0,B|349:239|349:239|340:222|340:222|355:111,1,199.999990463257,2|8,0:2|0:2,0:0:0:0:
351,133,66862,54,0,B|310:143|283:120|283:120|241:162|241:162|216:134|216:134|177:115|121:130,1,266.666653951009,6|0,1:2|0:0,0:0:0:0:
82,151,67342,1,4,0:3:0:0:
182,40,67502,1,4,0:3:0:0:
51,180,67662,1,4,3:3:0:0:
282,121,67822,6,0,B|352:119|352:119|407:167,1,139.999989051819,6|0,3:3|0:0,0:0:0:0:
420,198,68142,1,2,0:2:0:0:
271,210,68302,2,0,B|200:208|200:208|145:256,1,139.999989051819,10|0,0:2|0:0,0:0:0:0:
133,287,68622,1,2,0:2:0:0:
366,271,68782,2,0,B|436:269|436:269|491:317,1,139.999989051819,2|0,1:2|0:0,0:0:0:0:
504,348,69102,1,2,0:2:0:0:
486,199,69262,1,6,0:3:0:0:
401,358,69422,1,4,0:3:0:0:
504,159,69582,1,6,3:3:0:0:
325,271,69742,54,0,B|169:280|169:280|225:226,1,199.999984359742,6|0,3:3|0:0,0:0:0:0:
280,189,70222,2,0,B|306:169|306:169|312:64,1,133.333326975505,10|0,0:2|0:0,0:0:0:0:
200,249,70702,1,0,1:0:0:0:
200,249,71182,1,4,0:3:0:0:
142,111,71342,1,4,0:3:0:0:
212,277,71502,1,6,3:3:0:0:
311,68,71662,70,0,B|486:53|486:53|411:113,1,233.333315086366,6|0,3:3|0:0,0:0:0:0:
361,154,72142,2,0,B|328:180|328:180|324:300,1,159.999987487794,10|0,0:2|0:0,0:0:0:0:
440,89,72622,1,0,1:0:0:0:
440,89,73102,1,8,0:2:0:0:
89,246,73582,70,0,B|76:224|81:193|81:193|180:242|106:365,1,239.99998123169,6|8,3:2|0:2,0:0:0:0:
114,350,74542,1,0,1:0:0:0:
29,45,75022,1,4,0:3:0:0:
3,170,75182,1,4,0:3:0:0:
36,12,75342,1,6,3:3:0:0:
142,155,75502,70,0,B|177:174|177:174|301:155,1,159.999987487794,6|2,3:3|0:2,0:0:0:0:
360,266,75982,2,0,B|321:286|321:286|197:266,1,159.999987487794,10|2,0:2|0:2,0:0:0:0:
30,356,76462,2,0,B|65:376|65:376|195:355,1,159.999987487794,2|2,1:2|0:2,0:0:0:0:
102,249,76942,1,6,0:3:0:0:
249,259,77102,1,4,0:3:0:0:
63,247,77262,1,6,3:3:0:0:
294,175,77422,6,0,P|349:268|259:354,1,239.99998123169,4|8,3:3|0:2,0:0:0:0:
270,352,78382,1,0,1:0:0:0:
320,34,78862,1,4,0:3:0:0:
381,146,79022,1,4,0:3:0:0:
303,4,79182,1,6,3:3:0:0:
229,157,79342,70,0,L|71:124,1,159.999987487794,6|2,3:3|0:2,0:0:0:0:
201,257,79822,2,0,L|371:225,1,159.999987487794,10|2,0:2|0:2,0:0:0:0:
176,358,80302,2,0,L|11:324,1,159.999987487794,2|2,1:2|0:2,0:0:0:0:
201,257,80782,2,0,L|370:224,1,159.999987487794,2|2,0:2|0:2,0:0:0:0:
379,50,81262,22,0,P|344:89|336:152,1,109.999991397858,2|0,0:2|0:0,0:0:0:0:
374,249,82222,22,0,B|341:229|331:200|331:200|284:206|253:236|253:236|186:251|126:193,1,266.666653951009,6|0,1:2|0:0,0:0:0:0:
124,178,82702,1,4,0:3:0:0:
140,326,82862,1,4,0:3:0:0:
120,133,83022,1,4,3:3:0:0:
9,331,83182,6,0,P|79:350|154:310,1,139.999989051819,6|0,3:3|0:0,0:0:0:0:
157,298,83502,1,2,0:2:0:0:
20,237,83662,2,0,P|30:169|80:121,1,139.999989051819,10|0,0:2|0:0,0:0:0:0:
108,116,83982,1,2,0:2:0:0:
248,305,84142,2,0,P|231:238|178:195,1,139.999989051819,2|0,1:2|0:0,0:0:0:0:
149,191,84462,1,2,0:2:0:0:
296,170,84622,1,6,0:3:0:0:
150,287,84782,1,4,0:3:0:0:
324,148,84942,1,6,3:3:0:0:
72,138,85102,54,0,B|51:178|51:178|69:339,1,199.999984359742,6|0,3:3|0:0,0:0:0:0:
167,364,85582,2,0,B|150:333|150:333|163:225,1,133.333326975505,10|0,0:2|0:0,0:0:0:0:
187,57,86062,1,0,1:0:0:0:
187,57,86542,1,4,0:3:0:0:
279,174,86702,1,4,0:3:0:0:
163,27,86862,1,6,3:3:0:0:
404,92,87022,70,0,B|428:136|428:136|406:330,1,233.333315086366,6|0,3:3|0:0,0:0:0:0:
297,375,87502,2,0,B|317:338|317:338|299:216,1,159.999987487794,10|0,0:2|0:0,0:0:0:0:
259,36,87982,1,0,1:0:0:0:
259,36,88462,1,8,0:2:0:0:
55,224,88942,70,0,P|132:195|231:198,1,173.333317133587,6|0,3:2|0:0,0:0:0:0:
239,301,89422,2,0,P|296:319|375:312,1,133.333326975505,10|0,0:2|0:0,0:0:0:0:
222,195,89902,2,0,P|156:191|92:207,1,133.333326975505,2|0,1:2|0:0,0:0:0:0:
30,296,90382,1,6,0:3:0:0:
116,358,90542,1,4,0:3:0:0:
10,279,90702,1,6,3:3:0:0:
123,199,90862,70,0,P|170:189|254:209,1,133.333326975505,6|0,3:3|0:0,0:0:0:0:
305,304,91342,2,0,P|249:316|166:284,1,133.333326975505,10|2,0:2|0:2,0:0:0:0:
367,246,91822,2,0,P|382:197|363:107,1,133.333326975505,2|2,1:2|0:2,0:0:0:0:
281,56,92302,1,6,0:3:0:0:
262,161,92462,1,4,0:3:0:0:
286,21,92622,1,6,3:3:0:0:
144,137,92782,5,6,3:3:0:0:
144,137,93262,2,0,P|192:123|285:140,1,133.333326975505,10|2,0:2|0:2,0:0:0:0:
426,251,93742,2,0,P|374:229|289:234,1,133.333326975505,2|0,1:2|0:0,0:0:0:0:
245,324,94222,1,6,0:3:0:0:
171,246,94382,1,4,0:3:0:0:
267,347,94542,1,6,3:3:0:0:
100,316,94702,70,0,P|77:262|94:181,1,133.333326975505,6|2,3:3|0:2,0:0:0:0:
185,236,95182,1,10,0:2:0:0:
179,209,95502,1,2,0:2:0:0:
204,342,95662,1,2,1:2:0:0:
180,352,95982,1,2,0:2:0:0:
296,291,96142,1,10,0:2:0:0:
275,277,96462,1,2,0:2:0:0:
441,351,96622,6,0,P|512:314|412:235,1,259.99997570038,6|10,3:2|0:2,0:0:0:0:
415,234,97582,2,0,P|458:252|435:355,1,166.666658719381,0|0,1:0|0:0,0:0:0:0:
403,349,98062,1,4,0:3:0:0:
330,270,98222,1,4,0:3:0:0:
278,363,98382,1,4,3:3:0:0:
271,203,98542,69,4,3:3:0:0:
271,203,99022,1,8,0:2:0:0:
295,230,99342,1,2,0:2:0:0:
194,130,99502,2,0,P|143:114|61:138,1,133.333326975505,2|2,1:2|0:2,0:0:0:0:
133,218,99982,1,6,0:3:0:0:
33,255,100142,1,4,0:3:0:0:
169,205,100302,1,6,3:3:0:0:
89,329,100462,6,0,P|17:346|37:254,1,199.999990463257,6|10,3:3|0:2,0:0:0:0:
33,254,101422,2,0,P|18:329|98:317,1,166.666658719381,2|0,1:2|0:0,0:0:0:0:
107,303,101902,1,4,0:3:0:0:
186,368,102062,1,4,0:3:0:0:
190,261,102222,1,4,3:3:0:0:
287,371,102382,69,4,3:3:0:0:
287,371,102862,1,8,0:2:0:0:
351,57,103342,1,0,1:0:0:0:
351,57,103822,1,8,0:2:0:0:
320,159,103982,1,2,0:2:0:0:
418,118,104142,1,2,0:2:0:0:
280,175,104302,22,0,B|219:185|168:164|168:164|148:138,1,139.999989051819,6|0,3:2|0:0,0:0:0:0:
73,136,104622,2,0,P|111:135|159:145,1,79.9999937438968,2|8,0:2|0:2,0:0:0:0:
202,260,104942,1,2,0:2:0:0:
76,233,105102,1,2,0:2:0:0:
246,270,105262,2,0,P|326:272|398:230,1,159.999987487794,2|0,1:2|0:0,0:0:0:0:
422,108,105742,1,6,0:3:0:0:
302,157,105902,1,6,0:3:0:0:
473,191,106062,1,6,3:3:0:0:
324,271,106222,6,0,B|307:251|307:251|302:148,1,119.999990615845,6|0,3:3|0:0,0:0:0:0:
298,77,106542,2,0,L|302:156,1,79.9999937438968,2|8,0:2|0:2,0:0:0:0:
195,229,106862,1,2,0:2:0:0:
324,271,107022,1,2,0:2:0:0:
155,215,107182,2,0,B|137:245|137:245|145:401,1,159.999987487794,2|0,1:2|0:0,0:0:0:0:
228,273,107662,1,6,0:3:0:0:
59,230,107822,1,6,0:3:0:0:
143,369,107982,1,6,3:3:0:0:
179,182,108142,70,0,P|247:168|305:193,1,119.999990615845,6|0,3:3|0:0,0:0:0:0:
342,245,108462,2,0,P|321:208|273:175,1,79.9999937438968,2|8,0:2|0:2,0:0:0:0:
217,288,108782,1,2,0:2:0:0:
336,334,108942,1,2,0:2:0:0:
142,350,109102,2,0,P|126:262|168:201,1,159.999987487794,2|0,1:2|0:0,0:0:0:0:
292,184,109582,1,6,0:3:0:0:
217,288,109742,1,6,0:3:0:0:
192,112,109902,1,6,3:3:0:0:
313,273,110062,6,0,B|372:291|372:291|454:251,1,119.999990615845,6|0,3:3|0:0,0:0:0:0:
444,188,110382,2,0,L|420:280,1,79.9999937438968,2|8,0:2|0:2,0:0:0:0:
400,384,110702,1,2,0:2:0:0:
500,304,110862,1,2,0:2:0:0:
321,333,111022,2,0,B|241:344|241:344|172:282,1,159.999987487794,2|0,1:2|0:0,0:0:0:0:
285,215,111502,1,8,0:2:0:0:
141,218,111662,1,2,0:2:0:0:
217,139,111822,1,2,0:2:0:0:
26,141,111982,69,6,3:2:0:0:
45,195,112142,1,2,0:2:0:0:
62,238,112302,1,2,0:2:0:0:
117,141,112462,69,10,0:2:0:0:
136,87,112622,1,2,0:2:0:0:
153,45,112782,1,2,0:2:0:0:
210,134,112942,69,2,1:2:0:0:
229,188,113102,1,2,0:2:0:0:
246,231,113262,1,2,0:2:0:0:
325,130,113422,69,6,0:3:0:0:
246,231,113582,1,6,0:3:0:0:
419,189,113742,1,6,3:3:0:0:
246,231,113902,37,6,3:3:0:0:
229,188,114062,1,2,0:2:0:0:
210,134,114222,1,2,0:2:0:0:
164,232,114382,69,10,0:2:0:0:
145,279,114542,1,2,0:2:0:0:
128,329,114702,1,2,0:2:0:0:
77,235,114862,69,2,1:2:0:0:
60,192,115022,1,2,0:2:0:0:
41,138,115182,1,2,0:2:0:0:
161,170,115342,69,6,0:3:0:0:
95,276,115502,1,6,0:3:0:0:
273,240,115662,1,6,3:3:0:0:
207,360,115822,38,0,P|183:309|196:215,1,119.999990615845,6|0,3:3|0:0,0:0:0:0:
194,214,116142,1,2,0:2:0:0:
318,242,116302,2,0,P|342:182|317:75,1,159.999987487794,8|0,0:2|0:0,0:0:0:0:
194,214,116782,1,0,1:0:0:0:
173,189,117102,1,2,0:2:0:0:
251,294,117262,1,6,0:3:0:0:
260,150,117422,1,4,0:3:0:0:
160,309,117582,1,4,3:3:0:0:
338,283,117742,6,0,P|347:158|251:157,1,239.99998123169,6|8,3:3|0:2,0:0:0:0:
259,151,118702,2,0,B|349:104|422:225|338:283|338:283|312:269|280:280,1,293.33331934611,0|0,1:0|0:0,0:0:0:0:
207,347,119662,70,0,P|240:299|288:277,1,109.999991397858,2|0,0:2|0:0,0:0:0:0:
381,324,120622,22,0,B|366:290|328:272|328:272|413:183|326:78,1,266.666653951009,6|0,1:2|0:0,0:0:0:0:
309,75,121102,1,4,0:3:0:0:
451,119,121262,1,4,0:3:0:0:
263,60,121422,1,4,3:3:0:0:
329,271,121582,6,0,P|279:300|179:274,1,139.999989051819,6|0,3:3|0:0,0:0:0:0:
168,269,121902,1,2,0:2:0:0:
279,169,122062,2,0,P|346:156|407:187,1,139.999989051819,10|0,0:2|0:0,0:0:0:0:
435,218,122382,1,2,0:2:0:0:
219,345,122542,2,0,P|151:357|90:326,1,139.999989051819,2|0,1:2|0:0,0:0:0:0:
64,295,122862,1,2,0:2:0:0:
174,194,123022,1,6,0:3:0:0:
2,175,123182,1,4,0:3:0:0:
211,196,123342,1,6,3:3:0:0:
78,22,123502,54,0,B|29:89|124:143|74:226,1,199.999984359742,6|0,3:3|0:0,0:0:0:0:
17,267,123982,2,0,P|70:297|148:264,1,133.333326975505,10|0,0:2|0:0,0:0:0:0:
150,70,124462,1,0,1:0:0:0:
150,70,124942,1,4,0:3:0:0:
280,141,125102,1,4,0:3:0:0:
105,46,125262,1,6,3:3:0:0:
332,0,125422,70,0,B|402:85|275:139|349:220,1,233.333315086366,6|0,3:3|0:0,0:0:0:0:
425,252,125902,2,0,P|363:298|288:276,1,159.999987487794,10|0,0:2|0:0,0:0:0:0:
268,56,126382,1,0,1:0:0:0:
268,56,126862,1,8,0:2:0:0:
76,310,127342,54,0,B|74:275|74:275|140:174|140:174|141:112,1,199.999990463257,2|8,0:2|0:2,0:0:0:0:
141,130,128302,54,0,B|151:152|192:166|192:166|232:153|254:131|254:131|290:162|290:162|354:137|403:173,1,266.666653951009,6|0,1:2|0:0,0:0:0:0:
405,177,128782,1,4,0:3:0:0:
324,51,128942,1,4,0:3:0:0:
432,218,129102,1,4,3:3:0:0:
492,37,129262,6,0,B|462:20|462:20|334:46,1,139.999989051819,6|0,3:3|0:0,0:0:0:0:
324,51,129582,1,2,0:2:0:0:
226,151,129742,2,0,B|247:178|247:178|375:201,1,139.999989051819,10|0,0:2|0:0,0:0:0:0:
388,201,130062,1,2,0:2:0:0:
198,62,130222,2,0,B|168:45|168:45|40:71,1,139.999989051819,2|0,1:2|0:0,0:0:0:0:
30,76,130542,1,2,0:2:0:0:
144,156,130702,1,6,0:3:0:0:
25,231,130862,1,4,0:3:0:0:
178,137,131022,1,6,3:3:0:0:
135,324,131182,54,0,B|130:357|130:357|229:331|212:225,1,199.999984359742,6|0,3:3|0:0,0:0:0:0:
126,207,131662,2,0,P|98:160|128:65,1,133.333326975505,10|0,0:2|0:0,0:0:0:0:
213,232,132142,1,0,1:0:0:0:
213,232,132622,1,4,0:3:0:0:
352,231,132782,1,4,0:3:0:0:
174,232,132942,1,6,3:3:0:0:
329,71,133102,70,0,B|334:30|334:30|228:58|256:186,1,233.333315086366,6|0,3:3|0:0,0:0:0:0:
352,231,133582,2,0,P|374:283|344:378,1,159.999987487794,10|0,0:2|0:0,0:0:0:0:
254,180,134062,1,0,1:0:0:0:
254,180,134542,1,8,0:2:0:0:
440,361,135022,70,0,B|489:321|489:321|291:332,1,239.99998123169,6|8,3:2|0:2,0:0:0:0:
312,330,135982,1,0,1:0:0:0:
40,117,136462,1,4,0:3:0:0:
72,234,136622,1,4,0:3:0:0:
30,78,136782,1,6,3:3:0:0:
162,178,136942,70,0,P|232:171|297:111,1,159.999987487794,6|2,3:3|0:2,0:0:0:0:
181,53,137422,2,0,P|129:23|30:31,1,159.999987487794,10|2,0:2|0:2,0:0:0:0:
88,235,137902,2,0,P|139:264|242:251,1,159.999987487794,2|2,1:2|0:2,0:0:0:0:
294,114,138382,1,6,0:3:0:0:
344,231,138542,1,4,0:3:0:0:
279,79,138702,1,6,3:3:0:0:
305,316,138862,6,0,P|421:274|405:161,1,239.99998123169,4|8,3:3|0:2,0:0:0:0:
415,174,139822,1,0,1:0:0:0:
113,338,140302,1,4,0:3:0:0:
77,215,140462,1,4,0:3:0:0:
123,369,140622,1,6,3:3:0:0:
198,198,140782,70,0,L|259:43,1,159.999987487794,6|2,3:3|0:2,0:0:0:0:
307,179,141262,2,0,L|370:332,1,159.999987487794,10|2,0:2|0:2,0:0:0:0:
135,345,141742,2,0,L|201:190,1,159.999987487794,2|2,1:2|0:2,0:0:0:0:
264,77,142222,2,0,L|328:230,1,159.999987487794,2|2,0:2|0:2,0:0:0:0:
370,346,142702,22,0,P|329:319|265:322,1,109.999991397858,2|0,0:2|0:0,0:0:0:0:
187,364,143662,22,0,B|223:329|223:329|196:290|196:290|212:262|226:224|226:224|225:183|200:106,1,266.666653951009,6|0,1:2|0:0,0:0:0:0:
186,95,144142,1,4,0:3:0:0:
316,168,144302,1,4,0:3:0:0:
146,76,144462,1,4,3:3:0:0:
346,46,144622,6,0,B|360:118|360:118|303:181,1,139.999989051819,6|0,3:3|0:0,0:0:0:0:
285,186,144942,1,2,0:2:0:0:
249,40,145102,2,0,B|186:6|186:6|116:40,1,139.999989051819,10|0,0:2|0:0,0:0:0:0:
98,56,145422,1,2,0:2:0:0:
233,256,145582,2,0,B|163:232|163:232|144:155,1,139.999989051819,2|0,1:2|0:0,0:0:0:0:
142,132,145902,1,2,0:2:0:0:
59,256,146062,1,6,0:3:0:0:
19,111,146222,1,4,0:3:0:0:
68,291,146382,1,6,3:3:0:0:
186,113,146542,54,0,B|282:81|282:81|377:132,1,199.999984359742,6|0,3:3|0:0,0:0:0:0:
331,204,147022,2,0,B|273:172|273:172|197:200,1,133.333326975505,10|0,0:2|0:0,0:0:0:0:
58,270,147502,1,0,1:0:0:0:
58,270,147982,1,4,0:3:0:0:
157,381,148142,1,4,0:3:0:0:
38,246,148302,1,6,3:3:0:0:
228,327,148462,70,0,B|342:360|342:360|438:294,1,233.333315086366,6|0,3:3|0:0,0:0:0:0:
387,220,148942,2,0,B|328:270|328:270|244:242,1,159.999987487794,10|0,0:2|0:0,0:0:0:0:
70,166,149422,1,0,1:0:0:0:
70,166,149902,1,8,0:2:0:0:
