osu file format v14

[General]
AudioFilename: audio.mp3
AudioLeadIn: 0
PreviewTime: 55762
Countdown: 0
SampleSet: Soft
StackLeniency: 0.5
Mode: 0
LetterboxInBreaks: 0
WidescreenStoryboard: 0

[Editor]
Bookmarks: 1345,12254,23163,34072,44981,53163,55890,66799,77708,88617,99526
DistanceSpacing: 0.8
BeatDivisor: 4
GridSize: 32
TimelineZoom: 2.5

[Metadata]
Title:Canon (Cranky Remix)
TitleUnicode:Canon (Cranky Remix)
Artist:J. Pachelbel
ArtistUnicode:J. Pachelbel
Creator:lcfc
Version:Extra
Source:
Tags:fa featured artist mappers' guild electronic classical lowcombofc regou kalibe pishifat
BeatmapID:1773002
BeatmapSetID:847812

[Difficulty]
HPDrainRate:6
CircleSize:4.2
OverallDifficulty:8.3
ApproachRate:9.2
SliderMultiplier:2.4
SliderTickRate:1

[Events]
//Background and Video events
0,0,"fantasy-2861107_1920.jpg",0,0
//Break Periods
2,45663,52563
//Storyboard Layer 0 (Background)
//Storyboard Layer 1 (Fail)
//Storyboard Layer 2 (Pass)
//Storyboard Layer 3 (Foreground)
//Storyboard Sound Samples

[TimingPoints]
1345,340.909090909091,4,2,1,40,1,0
11572,-100,4,2,1,40,0,0
11913,-200,4,2,1,40,0,0
12254,-133.333333333333,4,2,1,40,0,0
12935,-200,4,2,1,40,0,0
14299,-100,4,2,1,40,0,0
14981,-133.333333333333,4,2,1,40,0,0
15662,-200,4,2,1,40,0,0
17026,-100,4,2,1,40,0,0
17708,-133.333333333333,4,2,1,40,0,0
18389,-200,4,2,1,40,0,0
19754,-100,4,2,1,40,0,0
20435,-133.333333333333,4,2,1,40,0,0
21116,-200,4,2,1,40,0,0
22140,-133.333333333333,4,2,1,40,0,0
22481,-100,4,2,1,40,0,0
22822,-133.333333333333,4,2,1,40,0,0
23845,-200,4,2,1,40,0,0
24867,-133.333333333333,4,2,1,40,0,0
25208,-100,4,2,1,40,0,0
25890,-133.333333333333,4,2,1,40,0,0
26572,-200,4,2,1,40,0,0
27595,-133.333333333333,4,2,1,40,0,0
27935,-100,4,2,1,40,0,0
28617,-133.333333333333,4,2,1,40,0,0
29299,-200,4,2,1,40,0,0
30322,-133.333333333333,4,2,1,40,0,0
30663,-100,4,2,1,40,0,0
31345,-133.333333333333,4,2,1,40,0,0
32026,-200,4,2,1,40,0,0
33049,-133.333333333333,4,2,1,40,0,0
33390,-100,4,2,1,40,0,0
33731,-133.333333333333,4,2,1,40,0,0
34754,-200,4,2,1,40,0,0
35776,-133.333333333333,4,2,1,40,0,0
36117,-100,4,2,1,40,0,0
36799,-133.333333333333,4,2,1,40,0,0
37481,-200,4,2,1,40,0,0
38504,-133.333333333333,4,2,1,40,0,0
38845,-100,4,2,1,40,0,0
39185,-133.333333333333,4,2,1,40,0,0
40208,-200,4,2,1,40,0,0
41231,-133.333333333333,4,2,1,40,0,0
41572,-100,4,2,1,40,0,0
42254,-133.333333333333,4,2,1,40,0,0
42935,-200,4,2,1,40,0,0
43958,-133.333333333333,4,2,1,40,0,0
44299,-100,4,2,1,40,0,0
44640,-133.333333333333,4,2,1,40,0,0
53163,-100,4,2,1,40,0,0
54526,-100,4,2,1,60,0,0
55208,-80,4,2,1,60,0,0
55549,-66.6666666666667,4,2,1,60,0,0
55890,-100,4,2,1,60,0,1
65435,-80,4,2,1,60,0,0
65947,-66.6666666666667,4,2,1,60,0,0
66799,-100,4,2,1,60,0,1
76345,-100,4,2,1,60,0,0
77026,-80,4,2,1,60,0,0
77367,-66.6666666666667,4,2,1,40,0,0
78049,-100,4,2,1,60,0,1
78390,-100,4,2,1,60,0,0
88362,-80,4,2,1,60,0,0
88447,-66.6666666666667,4,2,1,60,0,0
88532,-57.1428571428571,4,2,1,60,0,0
88617,-100,4,2,1,60,0,0
98845,-80,4,2,1,60,0,0
99015,-66.6666666666667,4,2,1,60,0,0
99185,-57.1428571428571,4,2,1,60,0,0

[Colours]
Combo1 : 234,196,43
Combo2 : 206,157,91
Combo3 : 247,230,136
Combo4 : 138,138,138
Combo5 : 168,158,87
Combo6 : 237,133,39

[HitObjects]
426,111,11572,70,0,B|456:70|456:70|335:104,1,160,8|0,0:0|0:0,0:0:0:0:
295,151,11913,6,0,B|257:159|257:159|218:142,1,80
210,127,12254,70,0,P|140:174|163:255,1,180.000006866455,0|0,1:0|0:0,0:0:0:0:
303,328,12822,53,0,1:0:0:0:
295,315,12935,2,0,L|176:331,1,120
72,340,13504,5,0,0:0:0:0:
64,353,13617,1,0,1:0:0:0:
3,211,13845,1,0,0:0:0:0:
19,241,13958,1,0,1:0:0:0:
124,57,14299,22,0,B|186:24|186:24|147:104,1,160,8|0,0:0|0:0,0:0:0:0:
114,177,14640,1,0,1:0:0:0:
114,177,14981,70,0,B|210:163|167:234|281:217,1,180.000006866455,0|0,1:0|0:0,0:0:0:0:
435,127,15549,53,0,1:0:0:0:
426,114,15663,2,0,P|368:109|329:153,1,120
381,310,16231,5,2,0:0:0:0:
416,319,16345,1,0,1:0:0:0:
209,235,16572,1,0,0:0:0:0:
281,217,16686,1,0,1:0:0:0:
106,358,16913,21,2,0:0:0:0:
105,358,17026,2,0,P|38:287|135:274,1,240,8|2,0:0|0:0,0:0:0:0:
26,376,17595,69,2,0:0:0:0:
105,358,17708,2,0,B|122:305|122:305|102:181,1,180.000006866455,0|0,1:0|0:0,0:0:0:0:
79,13,18276,53,0,1:0:0:0:
93,1,18390,2,0,L|61:133,1,120
201,166,18958,5,0,0:0:0:0:
186,153,19072,2,0,L|171:95,2,40,0|0|0,1:0|0:0|0:0,0:0:0:0:
207,240,19413,1,0,1:0:0:0:
207,240,19754,22,0,B|269:207|269:207|230:287,1,160,8|0,0:0|0:0,0:0:0:0:
197,360,20095,1,0,1:0:0:0:
197,359,20435,70,0,P|274:316|363:318,1,180.000006866455,0|0,1:0|0:0,0:0:0:0:
512,239,21004,53,0,1:0:0:0:
501,250,21117,2,0,P|450:242|387:196,1,120
324,65,21685,5,0,0:0:0:0:
335,54,21799,1,0,1:0:0:0:
269,207,22026,21,0,0:0:0:0:
251,175,22140,2,0,B|223:147|223:147|144:131,1,120.000004577637,0|0,1:0|0:0,0:0:0:0:
165,45,22481,70,0,B|125:94|125:94|31:117,1,160,8|0,0:0|0:0,0:0:0:0:
64,208,22822,6,0,P|99:233|76:197,1,120.000004577637
84,218,23163,70,0,B|175:201|142:280|250:258,1,180.000006866455,0|0,1:0|0:0,0:0:0:0:
412,135,23731,53,0,1:0:0:0:
397,123,23845,2,0,P|356:164|357:222,1,120
499,342,24413,5,0,0:0:0:0:
508,327,24526,1,0,1:0:0:0:
357,222,24754,5,0,0:0:0:0:
366,259,24867,2,0,B|283:244|283:244|251:258,1,120.000004577637,0|0,1:0|0:0,0:0:0:0:
223,340,25208,6,0,L|199:181,1,160,8|0,0:0|0:0,0:0:0:0:
189,104,25549,1,0,1:0:0:0:
188,104,25890,70,0,P|236:33|320:49,1,180.000006866455,0|0,1:0|0:0,0:0:0:0:
449,143,26458,53,0,1:0:0:0:
441,157,26572,2,0,L|311:131,1,120
146,228,27140,5,2,0:0:0:0:
152,242,27254,1,0,1:0:0:0:
330,324,27481,5,2,0:0:0:0:
340,288,27595,2,0,B|290:257|290:257|230:268,1,120.000004577637,0|2,1:0|0:0,0:0:0:0:
171,326,27935,6,0,P|111:375|35:362,1,160,8|0,0:0|0:0,0:0:0:0:
14,287,28276,1,2,0:0:0:0:
46,110,28504,69,2,0:0:0:0:
98,49,28617,2,0,B|82:124|82:124|84:142|84:142|65:225,1,180.000006866455,0|0,1:0|0:0,0:0:0:0:
229,268,29185,53,0,1:0:0:0:
240,281,29299,2,0,P|217:321|141:314,1,120
251,169,29867,5,0,0:0:0:0:
244,185,29981,1,0,1:0:0:0:
110,75,30208,5,0,0:0:0:0:
98,49,30322,2,0,B|177:66|177:66|210:108,1,120.000004577637,0|0,1:0|0:0,0:0:0:0:
251,169,30663,6,0,P|325:185|381:132,1,160,8|0,0:0|0:0,0:0:0:0:
371,50,31004,1,0,1:0:0:0:
371,50,31345,70,0,B|344:105|344:105|377:230,1,180.000006866455,0|0,1:0|0:0,0:0:0:0:
319,354,31913,53,0,1:0:0:0:
330,339,32026,2,0,L|299:220,1,120
209,82,32595,5,0,0:0:0:0:
201,96,32708,1,0,1:0:0:0:
403,177,32935,21,0,0:0:0:0:
393,138,33049,2,0,L|268:126,1,120.000004577637,0|0,1:0|0:0,0:0:0:0:
225,187,33390,70,0,P|147:194|85:146,1,160,8|0,0:0|0:0,0:0:0:0:
158,32,33731,6,0,B|191:3|191:3|173:76,1,120.000004577637
158,31,34072,70,0,P|215:98|225:186,1,180.000006866455,0|0,1:0|0:0,0:0:0:0:
118,347,34640,53,0,1:0:0:0:
113,333,34754,2,0,L|136:191,1,120
297,44,35322,5,0,0:0:0:0:
305,58,35435,1,0,1:0:0:0:
485,162,35663,5,0,0:0:0:0:
475,191,35776,2,0,B|425:200|425:200|410:211|410:211|361:221,1,120.000004577637,0|0,1:0|0:0,0:0:0:0:
299,162,36117,6,0,P|302:236|232:263,1,160,8|0,0:0|0:0,0:0:0:0:
170,217,36458,1,0,1:0:0:0:
297,44,36685,69,2,0:0:0:0:
305,58,36799,2,0,B|272:85|272:85|136:64,1,180.000006866455,0|0,1:0|0:0,0:0:0:0:
38,222,37367,53,0,1:0:0:0:
53,233,37481,2,0,L|149:222,1,80
208,218,37822,1,0,0:0:0:0:
19,304,38049,5,2,0:0:0:0:
34,315,38163,1,0,1:0:0:0:
261,347,38390,5,0,0:0:0:0:
278,325,38504,2,0,B|301:270|301:270|286:210,1,120.000004577637,0|2,1:0|0:0,0:0:0:0:
246,146,38845,5,8,0:0:0:0:
234,134,38958,2,0,L|132:154,1,80,2|0,0:0|0:0,0:0:0:0:
380,264,39185,70,0,P|429:281|492:243,1,120.000004577637,0|2,0:0|0:0,0:0:0:0:
465,181,39526,2,0,L|430:357,1,180.000006866455,0|0,1:0|0:0,0:0:0:0:
173,304,40095,53,0,1:0:0:0:
163,289,40208,2,0,P|147:244|177:177,1,120
325,24,40776,5,0,0:0:0:0:
319,39,40890,1,0,1:0:0:0:
114,108,41117,5,0,0:0:0:0:
83,96,41231,2,0,B|56:134|56:134|72:227,1,120.000004577637,0|0,1:0|0:0,0:0:0:0:
161,323,41572,6,0,B|116:347|116:347|146:242,1,160,8|0,0:0|0:0,0:0:0:0:
201,181,41913,1,0,1:0:0:0:
202,181,42254,70,0,B|301:191|248:253|354:261,1,180.000006866455,0|0,1:0|0:0,0:0:0:0:
499,128,42822,53,0,1:0:0:0:
486,115,42935,2,0,P|428:108|386:162,1,120
264,346,43504,5,0,0:0:0:0:
253,332,43618,1,0,1:0:0:0:
338,73,43845,5,0,0:0:0:0:
331,101,43958,2,0,L|358:246,1,120.000004577637,0|0,1:0|0:0,0:0:0:0:
404,279,44299,6,0,P|377:348|302:344,1,160,8|0,0:0|0:0,0:0:0:0:
238,300,44640,70,0,L|217:183,1,120.000004577637
201,108,44981,69,0,1:0:0:0:
66,38,53163,69,0,0:0:0:0:
66,38,53333,1,0,0:0:0:0:
145,225,53504,1,2,0:0:0:0:
102,146,53674,1,0,0:0:0:0:
106,132,53759,1,0,0:0:0:0:
110,118,53845,1,0,0:0:0:0:
319,34,54015,1,2,0:0:0:0:
194,2,54185,5,0,0:0:0:0:
202,31,54271,1,0,0:0:0:0:
210,60,54356,1,0,0:0:0:0:
218,89,54441,1,0,0:0:0:0:
226,118,54526,1,0,1:0:0:0:
251,284,54697,22,0,B|203:322|203:322|232:207,1,180,8|0,0:0|0:0,0:0:0:0:
243,199,55038,1,0,1:0:0:0:
404,199,55208,70,0,P|372:216|335:219,1,75,8|0,0:0|0:0,0:0:0:0:
318,141,55379,2,0,P|349:120|386:121,1,75,8|0,0:0|0:0,0:0:0:0:
311,349,55549,6,0,P|268:337|238:304,1,90.0000034332277,8|0,0:0|0:0,0:0:0:0:
38,298,55720,2,0,P|15:259|17:215,1,90.0000034332277,8|0,0:0|0:0,0:0:0:0:
52,66,55890,6,0,B|100:28|100:28|71:143,1,180,2|0,1:0|0:0,0:0:0:0:
61,155,56231,1,8,0:0:0:0:
245,216,56401,1,2,0:0:0:0:
172,259,56572,2,0,L|153:140,1,120,2|0,0:0|1:0,0:0:0:0:
338,68,56913,2,0,P|351:124|318:172,1,120,8|2,0:0|0:0,0:0:0:0:
245,216,57168,1,0,0:0:0:0:
239,180,57254,5,2,1:0:0:0:
427,93,57424,1,0,0:0:0:0:
512,282,57595,1,8,0:0:0:0:
324,369,57765,1,0,0:0:0:0:
376,232,57935,70,0,L|363:308,1,60,2|0,0:0|0:0,0:0:0:0:
324,369,58106,1,0,1:0:0:0:
245,216,58276,2,0,L|232:140,1,60,10|0,0:0|0:0,0:0:0:0:
188,37,58447,1,0,0:0:0:0:
200,68,58532,1,0,0:0:0:0:
183,97,58617,6,0,P|104:111|70:22,1,180,2|0,1:0|0:0,0:0:0:0:
82,24,58958,1,8,0:0:0:0:
151,205,59129,1,2,0:0:0:0:
390,108,59299,2,0,L|271:89,1,120,2|0,0:0|1:0,0:0:0:0:
192,271,59640,2,0,P|248:284|296:251,1,120,8|2,0:0|0:0,0:0:0:0:
339,177,59895,1,0,0:0:0:0:
303,171,59981,69,2,1:0:0:0:
224,364,60151,1,0,0:0:0:0:
22,285,60322,1,8,0:0:0:0:
101,92,60492,1,0,0:0:0:0:
163,228,60663,6,0,L|87:215,1,60,2|0,0:0|0:0,0:0:0:0:
26,176,60834,1,0,1:0:0:0:
186,77,61004,2,0,L|262:64,1,60,10|0,0:0|0:0,0:0:0:0:
383,21,61174,1,0,0:0:0:0:
371,52,61259,1,0,0:0:0:0:
388,81,61345,70,0,B|414:174|345:156|369:255,1,180,2|0,1:0|0:0,0:0:0:0:
381,268,61685,1,8,0:0:0:0:
207,160,61856,1,2,0:0:0:0:
271,272,62026,2,0,L|290:153,1,120,2|0,0:0|1:0,0:0:0:0:
113,13,62367,2,0,P|100:69|133:117,1,120,8|2,0:0|0:0,0:0:0:0:
207,160,62622,1,0,0:0:0:0:
213,124,62708,5,2,1:0:0:0:
2,195,62879,1,0,0:0:0:0:
60,383,63049,1,8,0:0:0:0:
271,312,63220,1,0,0:0:0:0:
136,253,63390,70,0,L|149:177,1,60,2|0,0:0|0:0,0:0:0:0:
213,124,63560,1,0,1:0:0:0:
356,21,63731,2,0,L|369:97,1,60,10|0,0:0|0:0,0:0:0:0:
341,262,63902,1,0,0:0:0:0:
324,233,63987,1,0,0:0:0:0:
336,202,64072,6,0,B|361:162|361:162|425:139|482:193,1,180,2|0,1:0|0:0,0:0:0:0:
488,208,64413,1,8,0:0:0:0:
271,312,64583,1,2,0:0:0:0:
406,383,64754,2,0,L|425:264,1,120,2|0,0:0|1:0,0:0:0:0:
242,55,65095,2,0,P|229:111|262:159,1,120,8|2,0:0|0:0,0:0:0:0:
336,202,65350,1,0,0:0:0:0:
342,166,65435,37,2,1:0:0:0:
352,160,65521,1,0,0:0:0:0:
362,154,65606,2,0,L|443:144,1,75
271,312,65776,2,0,L|352:322,1,75,10|0,0:0|0:0,0:0:0:0:
112,90,65947,5,2,0:0:0:0:
122,84,66032,1,0,0:0:0:0:
132,78,66117,1,0,0:0:0:0:
142,72,66202,1,0,0:0:0:0:
152,66,66288,2,0,L|263:52,1,90.0000034332277,0|0,1:0|0:0,0:0:0:0:
67,366,66458,2,0,L|178:380,1,90.0000034332277,10|0,0:0|0:0,0:0:0:0:
239,212,66629,1,2,0:0:0:0:
166,223,66714,1,0,0:0:0:0:
93,234,66799,6,0,B|42:198|42:198|23:81,1,180,2|0,1:0|0:0,0:0:0:0:
35,66,67140,1,8,0:0:0:0:
242,132,67310,1,2,0:0:0:0:
134,35,67481,2,0,L|115:154,1,120,2|0,0:0|1:0,0:0:0:0:
336,279,67822,2,0,P|349:223|316:175,1,120,8|2,0:0|0:0,0:0:0:0:
242,132,68077,1,0,0:0:0:0:
236,168,68163,5,2,1:0:0:0:
285,359,68333,1,0,0:0:0:0:
498,314,68504,1,8,0:0:0:0:
449,123,68674,1,0,0:0:0:0:
367,241,68845,70,0,L|380:317,1,60,2|0,0:0|0:0,0:0:0:0:
431,366,69015,1,0,1:0:0:0:
236,168,69185,2,0,L|249:92,1,60,10|2,0:0|0:0,0:0:0:0:
300,43,69355,1,0,0:0:0:0:
329,26,69441,1,0,0:0:0:0:
360,38,69526,6,0,P|423:77|493:2,1,180,2|0,1:0|0:0,0:0:0:0:
480,3,69867,1,8,0:0:0:0:
333,132,70038,1,2,0:0:0:0:
430,241,70208,2,0,L|449:122,1,120,2|0,0:0|1:0,0:0:0:0:
221,100,70549,2,0,P|208:156|241:204,1,120,8|2,0:0|0:0,0:0:0:0:
315,247,70804,1,0,0:0:0:0:
321,211,70890,69,2,1:0:0:0:
107,272,71060,1,0,0:0:0:0:
46,65,71231,1,8,0:0:0:0:
260,4,71401,1,0,0:0:0:0:
183,138,71572,6,0,L|107:125,1,60,2|0,0:0|0:0,0:0:0:0:
46,65,71742,1,0,1:0:0:0:
178,320,71913,2,0,L|254:307,1,60,10|0,0:0|0:0,0:0:0:0:
359,250,72083,1,0,0:0:0:0:
371,219,72168,1,0,0:0:0:0:
353,189,72254,70,0,B|320:300|320:300|380:320,1,180,2|0,1:0|0:0,0:0:0:0:
398,312,72595,1,8,0:0:0:0:
340,103,72765,1,2,0:0:0:0:
139,214,72935,2,0,L|258:233,1,120,2|0,0:0|1:0,0:0:0:0:
380,34,73276,2,0,P|324:21|276:54,1,120,8|2,0:0|0:0,0:0:0:0:
233,128,73531,1,0,0:0:0:0:
269,134,73617,5,2,1:0:0:0:
225,342,73788,1,0,0:0:0:0:
9,294,73958,1,8,0:0:0:0:
53,86,74129,1,0,0:0:0:0:
139,214,74299,70,0,L|126:290,1,60,2|0,0:0|0:0,0:0:0:0:
80,341,74469,1,0,1:0:0:0:
202,107,74640,2,0,L|215:183,1,60,10|0,0:0|0:0,0:0:0:0:
261,234,74810,1,0,0:0:0:0:
292,246,74895,1,0,0:0:0:0:
322,228,74981,6,0,B|334:168|334:168|311:126|311:126|324:56,1,180,2|0,1:0|0:0,0:0:0:0:
338,48,75322,1,8,0:0:0:0:
380,297,75492,1,2,0:0:0:0:
417,108,75663,2,0,L|436:227,1,120,2|0,0:0|1:0,0:0:0:0:
222,339,76004,2,0,P|209:283|242:235,1,120,8|2,0:0|0:0,0:0:0:0:
316,192,76259,1,0,0:0:0:0:
322,228,76345,38,0,L|358:242,1,30,2|0,0:0|0:0,0:0:0:0:
318,237,76430,2,0,L|354:251,1,30,2|0,0:0|0:0,0:0:0:0:
314,246,76515,2,0,L|350:260,1,30,2|0,0:0|0:0,0:0:0:0:
310,255,76600,2,0,L|346:269,1,30,2|0,0:0|0:0,0:0:0:0:
306,264,76685,5,2,0:0:0:0:
96,350,76856,1,0,0:0:0:0:
84,319,76940,1,0,0:0:0:0:
102,289,77026,70,0,L|183:279,1,75,2|0,0:0|0:0,0:0:0:0:
198,121,77197,2,0,L|279:131,1,75,2|0,0:0|0:0,0:0:0:0:
297,374,77367,6,0,L|408:360,1,90.0000034332277,2|0,0:0|0:0,0:0:0:0:
398,59,77538,2,0,L|509:73,1,90.0000034332277,2|0,0:0|0:0,0:0:0:0:
415,216,77708,37,0,1:0:0:0:
404,214,77793,1,0,1:0:0:0:
394,213,77879,1,0,1:0:0:0:
384,211,77964,1,0,1:0:0:0:
356,187,78049,70,0,B|482:172|482:172|512:215,1,180,14|0,0:0|0:0,0:0:0:0:
506,231,78390,1,0,0:0:0:0:
306,264,78560,1,0,1:0:0:0:
418,375,78731,2,0,B|466:340|466:340|441:281,1,120,8|0,0:0|0:0,0:0:0:0:
385,197,78987,1,0,0:0:0:0:
359,215,79072,70,0,P|335:269|339:328,1,120,2|0,1:0|0:0,0:0:0:0:
238,86,79413,2,0,P|244:145|276:194,1,120,10|0,0:0|0:0,0:0:0:0:
486,247,79754,1,2,0:0:0:0:
499,242,79839,1,0,0:0:0:0:
512,237,79924,2,0,L|438:224,1,60,0|0,1:0|0:0,0:0:0:0:
227,253,80095,1,10,0:0:0:0:
418,375,80265,1,0,1:0:0:0:
430,344,80350,1,8,0:0:0:0:
411,313,80435,6,0,P|356:292|297:300,1,120,2|0,1:0|0:0,0:0:0:0:
237,351,80691,1,0,0:0:0:0:
207,360,80776,1,8,0:0:0:0:
95,260,80947,2,0,P|116:239|145:231,1,60
227,253,81117,2,0,P|273:215|295:160,1,120,2|0,0:0|1:0,0:0:0:0:
445,29,81458,2,0,P|454:87|490:134,1,120,8|0,0:0|1:0,0:0:0:0:
477,211,81714,1,0,0:0:0:0:
468,217,81799,70,0,L|393:197,1,60,0|0,1:0|0:0,0:0:0:0:
257,91,81970,1,0,1:0:0:0:
297,300,82140,2,0,B|352:323|352:323|387:275,1,120,8|0,0:0|1:0,0:0:0:0:
410,201,82396,1,8,0:0:0:0:
403,190,82481,2,0,L|328:170,2,60,2|8|0,1:0|0:0|1:0,0:0:0:0:
227,253,82822,2,0,B|179:218|179:218|202:162,1,120,8|0,0:0|1:0,0:0:0:0:
287,108,83077,1,0,0:0:0:0:
257,91,83163,6,0,B|168:100|208:163|103:171,1,180,2|0,1:0|0:0,0:0:0:0:
56,107,83504,2,0,P|64:165|43:221,1,120,8|0,0:0|0:0,0:0:0:0:
1,287,83759,1,0,0:0:0:0:
11,313,83845,1,0,0:0:0:0:
211,256,84015,1,0,1:0:0:0:
80,348,84185,2,0,B|135:371|135:371|170:323,1,120,8|0,0:0|1:0,0:0:0:0:
257,91,84526,69,2,1:0:0:0:
103,170,84697,1,0,1:0:0:0:
288,298,84867,2,0,L|269:179,1,120,8|0,0:0|0:0,0:0:0:0:
115,58,85208,1,2,0:0:0:0:
110,45,85293,1,0,0:0:0:0:
105,32,85378,2,0,L|92:106,1,60,0|0,1:0|0:0,0:0:0:0:
121,317,85549,1,8,0:0:0:0:
257,210,85720,1,0,1:0:0:0:
269,179,85805,1,8,0:0:0:0:
250,148,85890,6,0,P|191:140|135:161,1,120,2|0,1:0|0:0,0:0:0:0:
89,225,86146,1,0,0:0:0:0:
79,250,86231,1,8,0:0:0:0:
261,344,86401,2,0,P|239:323|211:315,1,60
68,326,86572,2,0,P|105:280|160:257,1,120,0|0,0:0|1:0,0:0:0:0:
382,97,86913,2,0,P|334:60|275:50,1,120,8|0,0:0|1:0,0:0:0:0:
160,256,87254,69,2,1:0:0:0:
186,278,87340,1,0,1:0:0:0:
219,272,87424,1,0,1:0:0:0:
191,75,87595,2,0,L|210:194,1,120,8|0,0:0|1:0,0:0:0:0:
290,222,87850,1,8,0:0:0:0:
304,216,87935,6,0,L|295:278,1,60,0|8,1:0|0:0,0:0:0:0:
104,307,88106,2,0,L|113:369,1,60
372,376,88276,38,0,P|381:366|383:348,1,30,2|0,0:0|0:0,0:0:0:0:
394,365,88362,6,0,P|395:346|389:328,1,37.5,2|0,0:0|0:0,0:0:0:0:
416,337,88447,70,0,P|405:317|387:304,1,45.0000017166138,2|0,0:0|0:0,0:0:0:0:
428,290,88532,6,0,P|402:283|377:290,1,52.500000500679,2|0,0:0|0:0,0:0:0:0:
406,243,88617,6,0,P|346:245|295:275,1,120,2|0,1:0|0:0,0:0:0:0:
99,161,88958,2,0,P|150:191|209:193,1,120,8|0,0:0|0:0,0:0:0:0:
274,138,89214,1,0,0:0:0:0:
285,115,89299,1,2,0:0:0:0:
41,223,89470,1,0,1:0:0:0:
134,316,89640,2,0,P|117:291|109:262,1,60,8|0,0:0|0:0,0:0:0:0:
203,56,89810,2,0,P|186:80|178:109,1,60
290,222,89981,5,0,1:0:0:0:
128,377,90151,1,0,0:0:0:0:
116,346,90237,1,0,0:0:0:0:
134,316,90322,2,0,L|253:335,1,120,8|0,0:0|0:0,0:0:0:0:
406,230,90663,1,2,0:0:0:0:
419,235,90748,1,0,0:0:0:0:
432,240,90833,2,0,L|358:253,1,60,0|0,1:0|0:0,0:0:0:0:
209,192,91004,1,8,0:0:0:0:
461,64,91174,69,0,1:0:0:0:
473,95,91258,1,8,0:0:0:0:
455,125,91345,2,0,B|370:113|400:190|289:172,1,180,2|0,1:0|0:0,0:0:0:0:
280,161,91685,1,8,0:0:0:0:
74,95,91856,1,0,0:0:0:0:
175,33,92026,1,2,1:0:0:0:
202,8,92111,2,0,L|169:128,1,120,8|0,0:0|0:0,0:0:0:0:
175,139,92367,1,8,0:0:0:0:
33,18,92538,1,0,1:0:0:0:
130,268,92708,6,0,L|145:210,1,60,0|0,1:0|0:0,0:0:0:0:
78,110,92879,1,0,1:0:0:0:
211,335,93049,2,0,P|241:284|243:225,1,120,8|0,0:0|1:0,0:0:0:0:
184,126,93305,1,8,0:0:0:0:
175,139,93390,2,0,L|160:197,2,60,2|8|0,1:0|0:0|1:0,0:0:0:0:
272,35,93731,2,0,L|287:93,1,60,8|0,0:0|0:0,0:0:0:0:
347,308,93901,2,0,L|332:250,1,60,8|0,0:0|0:0,0:0:0:0:
309,171,94072,70,0,B|368:180|368:180|419:148,1,120,2|0,1:0|0:0,0:0:0:0:
194,29,94413,2,0,B|135:20|135:20|83:51,1,120,8|0,0:0|0:0,0:0:0:0:
55,124,94668,1,0,0:0:0:0:
48,148,94754,1,0,0:0:0:0:
242,224,94924,1,0,1:0:0:0:
113,203,95095,2,0,P|138:186|167:178,1,60,8|0,0:0|0:0,0:0:0:0:
317,331,95265,2,0,P|293:315|264:307,1,60
92,375,95435,5,2,1:0:0:0:
285,117,95606,1,0,0:0:0:0:
255,96,95692,1,0,0:0:0:0:
223,105,95776,2,0,L|242:224,1,120,8|0,0:0|0:0,0:0:0:0:
396,332,96117,1,2,0:0:0:0:
401,345,96202,1,0,0:0:0:0:
406,358,96287,2,0,L|419:284,1,60,0|0,1:0|0:0,0:0:0:0:
355,81,96458,1,8,0:0:0:0:
202,285,96629,69,0,1:0:0:0:
232,303,96715,1,8,0:0:0:0:
263,291,96799,2,0,P|284:230|206:127,1,180,2|0,1:0|0:0,0:0:0:0:
212,132,97140,1,8,0:0:0:0:
41,173,97310,1,0,0:0:0:0:
40,208,97396,1,0,0:0:0:0:
67,230,97480,1,0,0:0:0:0:
175,48,97651,1,0,1:0:0:0:
104,314,97822,1,8,0:0:0:0:
128,286,97907,2,0,L|141:226,1,60,0|0,1:0|0:0,0:0:0:0:
93,37,98077,1,8,0:0:0:0:
69,65,98163,53,2,0:0:0:0:
75,75,98248,1,0,0:0:0:0:
81,85,98333,1,0,0:0:0:0:
87,95,98418,1,0,0:0:0:0:
93,105,98504,2,0,L|153:118,1,60
232,303,98674,5,2,0:0:0:0:
238,293,98759,1,0,0:0:0:0:
244,283,98845,2,0,L|332:263,1,75
357,46,99015,2,0,L|451:66,1,90.0000034332277,2|0,0:0|0:0,0:0:0:0:
431,258,99185,70,0,B|426:287|426:287|390:214,1,105.000001001358,2|0,0:0|0:0,0:0:0:0:
206,214,99356,2,0,B|178:224|178:224|223:156,1,105.000001001358,2|0,0:0|0:0,0:0:0:0:
326,139,99526,53,4,0:0:0:0:
