osu file format v14

[General]
AudioFilename: audio.mp3
AudioLeadIn: 0
PreviewTime: 55762
Countdown: 0
SampleSet: Soft
StackLeniency: 0.5
Mode: 0
LetterboxInBreaks: 0
WidescreenStoryboard: 1

[Editor]
Bookmarks: 1345,12254,23163,34072,44981,53163,55890,66799,77708,88617,99526
DistanceSpacing: 1.3
BeatDivisor: 4
GridSize: 32
TimelineZoom: 2.5

[Metadata]
Title:Canon (Cranky Remix)
TitleUnicode:Canon (Cranky Remix)
Artist:J. Pachelbel
ArtistUnicode:J. Pachelbel
Creator:lcfc
Version:Easy
Source:
Tags:fa featured artist mappers' guild electronic classical lowcombofc regou kalibe pishifat
BeatmapID:1773001
BeatmapSetID:847812

[Difficulty]
HPDrainRate:2
CircleSize:2.5
OverallDifficulty:3
ApproachRate:3
SliderMultiplier:0.799999999999999
SliderTickRate:1

[Events]
//Background and Video events
0,0,"fantasy-2861107_1920.jpg",0,0
//Break Periods
2,45181,51723
//Storyboard Layer 0 (Background)
//Storyboard Layer 1 (Fail)
//Storyboard Layer 2 (Pass)
//Storyboard Layer 3 (Foreground)
//Storyboard Sound Samples

[TimingPoints]
1345,340.909090909091,4,2,1,40,1,0
12254,-111.111111111111,4,2,1,40,0,0
54526,-111.111111111111,4,2,1,60,0,0
55890,-100,4,2,1,60,0,1
65435,-100,4,2,1,60,0,0
66799,-100,4,2,1,60,0,1
76345,-100,4,2,1,60,0,0
77708,-100,4,2,1,40,0,0
78049,-100,4,2,1,60,0,1
78390,-100,4,2,1,60,0,0

[Colours]
Combo1 : 234,196,43
Combo2 : 206,157,91
Combo3 : 247,230,136
Combo4 : 138,138,138
Combo5 : 168,158,87
Combo6 : 237,133,39

[HitObjects]
55,101,12254,70,0,P|110:59|180:65,1,143.999995605469,0|0,1:0|0:0,0:0:0:0:
300,210,13617,2,0,L|371:204,1,71.9999978027344,0|0,1:0|1:0,0:0:0:0:
405,114,14299,2,0,L|333:108,1,71.9999978027344,8|0,0:0|1:0,0:0:0:0:
271,37,14981,6,0,P|225:54|125:63,1,143.999995605469,0|0,1:0|0:0,0:0:0:0:
45,331,16685,1,0,1:0:0:0:
127,285,17026,2,0,P|162:287|197:296,1,71.9999978027344,8|2,0:0|0:0,0:0:0:0:
282,335,17708,70,0,P|327:282|330:212,1,143.999995605469,0|0,1:0|0:0,0:0:0:0:
229,51,19072,2,0,L|154:65,1,71.9999978027344,0|0,1:0|1:0,0:0:0:0:
166,156,19754,2,0,L|236:169,1,71.9999978027344,8|0,0:0|1:0,0:0:0:0:
260,259,20435,6,0,P|228:301|139:299,1,143.999995605469,0|0,1:0|0:0,0:0:0:0:
95,119,21799,1,0,1:0:0:0:
184,85,22140,2,0,P|180:49|172:14,2,71.9999978027344,0|8|0,1:0|0:0|0:0,0:0:0:0:
218,172,23163,70,0,B|288:189|288:189|358:158,1,143.999995605469,0|0,1:0|0:0,0:0:0:0:
497,40,24526,2,0,P|503:73|499:118,1,71.9999978027344,0|0,1:0|1:0,0:0:0:0:
441,184,25208,2,0,P|438:219|444:255,1,71.9999978027344,8|0,0:0|1:0,0:0:0:0:
378,322,25890,6,0,L|223:288,1,143.999995605469,0|0,1:0|0:0,0:0:0:0:
123,34,27595,1,0,1:0:0:0:
204,77,27935,2,0,L|218:155,1,71.9999978027344,8|2,0:0|0:0,0:0:0:0:
294,200,28617,70,0,L|260:355,1,143.999995605469,0|0,1:0|0:0,0:0:0:0:
77,315,29981,2,0,P|66:281|66:239,1,71.9999978027344,0|0,1:0|1:0,0:0:0:0:
144,195,30663,2,0,P|155:161|155:119,1,71.9999978027344,8|0,0:0|1:0,0:0:0:0:
114,40,31345,6,0,P|172:80|243:88,1,143.999995605469,0|0,1:0|0:0,0:0:0:0:
422,32,32708,1,0,1:0:0:0:
388,119,33049,2,0,L|403:201,2,71.9999978027344,0|8|0,1:0|0:0|0:0,0:0:0:0:
303,159,34072,70,0,B|269:189|269:189|253:286,1,143.999995605469,0|0,1:0|0:0,0:0:0:0:
423,364,35435,2,0,L|494:352,1,71.9999978027344,0|0,1:0|1:0,0:0:0:0:
455,266,36117,2,0,L|383:277,1,71.9999978027344,8|0,0:0|1:0,0:0:0:0:
297,314,36799,6,0,P|244:267|242:197,1,143.999995605469,0|0,1:0|0:0,0:0:0:0:
467,29,38504,1,0,1:0:0:0:
424,112,38845,2,0,P|427:147|437:182,1,71.9999978027344,8|0,0:0|0:0,0:0:0:0:
468,270,39526,70,0,P|434:248|330:230,1,143.999995605469,0|0,1:0|0:0,0:0:0:0:
173,326,40890,2,0,P|158:295|152:245,1,71.9999978027344,0|0,1:0|1:0,0:0:0:0:
224,198,41572,2,0,P|239:167|245:117,1,71.9999978027344,8|0,0:0|1:0,0:0:0:0:
191,53,42254,6,0,L|334:88,1,143.999995605469,0|0,1:0|0:0,0:0:0:0:
509,30,43617,1,0,1:0:0:0:
451,103,43958,2,0,L|469:176,2,71.9999978027344,0|8|0,1:0|0:0|0:0,0:0:0:0:
367,59,44981,53,0,1:0:0:0:
256,192,53163,12,0,54526,1:0:0:0:
70,101,55890,38,0,P|130:52|207:64,1,160,2|2,1:0|0:0,0:0:0:0:
273,146,56913,1,8,0:0:0:0:
212,230,57254,2,0,L|224:318,1,79.9999999999999,2|8,1:0|0:0,0:0:0:0:
323,336,57935,2,0,L|333:256,1,79.9999999999999,2|10,0:0|0:0,0:0:0:0:
427,209,58617,5,2,1:0:0:0:
423,102,58958,2,0,B|394:124|394:124|269:146,1,160,8|8,0:0|0:0,0:0:0:0:
189,208,59981,2,0,P|146:204|102:182,1,79.9999999999999,2|8,1:0|0:0,0:0:0:0:
8,188,60663,2,0,P|23:224|26:264,1,79.9999999999999,2|10,0:0|0:0,0:0:0:0:
98,340,61345,70,0,P|175:345|234:294,1,160,2|2,1:0|0:0,0:0:0:0:
279,200,62367,1,8,0:0:0:0:
232,105,62708,2,0,P|229:66|238:27,1,79.9999999999999,2|8,1:0|0:0,0:0:0:0:
328,78,63390,2,0,P|367:75|406:84,1,79.9999999999999,2|10,0:0|0:0,0:0:0:0:
420,187,64072,5,2,1:0:0:0:
316,181,64413,2,0,L|336:346,1,160,8|8,0:0|0:0,0:0:0:0:
235,370,65435,2,0,P|193:364|157:351,2,79.9999999999999,2|10|0,1:0|0:0|0:0,0:0:0:0:
226,265,66458,1,10,0:0:0:0:
175,173,66799,70,0,P|102:145|24:158,1,160,2|2,1:0|0:0,0:0:0:0:
30,263,67822,1,8,0:0:0:0:
101,338,68163,2,0,L|127:257,1,79.9999999999999,2|8,1:0|0:0,0:0:0:0:
176,174,68845,2,0,L|257:200,1,79.9999999999999,2|10,0:0|0:0,0:0:0:0:
308,285,69526,5,2,1:0:0:0:
410,265,69867,2,0,B|432:188|432:188|394:117,1,160,8|8,0:0|0:0,0:0:0:0:
325,38,70890,2,0,L|237:50,1,79.9999999999999,2|8,1:0|0:0,0:0:0:0:
203,144,71572,2,0,L|115:132,1,79.9999999999999,2|10,0:0|0:0,0:0:0:0:
41,68,72254,70,0,P|72:140|75:220,1,160,2|2,1:0|0:0,0:0:0:0:
44,319,73276,1,8,0:0:0:0:
125,383,73617,2,0,P|143:335|148:293,1,79.9999999999999,2|8,1:0|0:0,0:0:0:0:
220,232,74299,2,0,P|212:192|197:155,1,79.9999999999999,2|10,0:0|0:0,0:0:0:0:
97,127,74981,5,2,1:0:0:0:
141,32,75322,2,0,P|219:34|274:89,1,160,8|8,0:0|0:0,0:0:0:0:
315,185,76345,2,0,L|408:176,2,79.9999999999999,2|2|2,0:0|0:0|0:0,0:0:0:0:
267,277,77367,1,2,0:0:0:0:
69,210,78049,70,0,P|53:133|98:71,1,160,14|8,0:0|0:0,0:0:0:0:
176,140,79072,2,0,P|214:150|254:149,1,79.9999999999999,2|10,1:0|0:0,0:0:0:0:
302,56,79754,2,0,P|340:45|380:46,1,79.9999999999999,2|10,0:0|0:0,0:0:0:0:
457,116,80435,6,0,P|459:191|392:227,1,160,2|2,1:0|0:0,0:0:0:0:
287,222,81458,1,8,0:0:0:0:
225,137,81799,2,0,P|222:61|289:25,1,160,0|2,1:0|1:0,0:0:0:0:
394,32,82822,1,8,0:0:0:0:
457,116,83163,70,0,P|442:196|417:270,1,160,2|0,1:0|0:0,0:0:0:0:
328,324,84185,1,8,0:0:0:0:
248,256,84526,2,0,P|203:241|154:235,1,79.9999999999999,2|8,1:0|0:0,0:0:0:0:
114,147,85208,2,0,P|159:132|208:126,1,79.9999999999999,2|8,0:0|0:0,0:0:0:0:
274,64,85890,6,0,P|211:32|115:29,1,160,2|0,1:0|0:0,0:0:0:0:
33,80,86913,1,8,0:0:0:0:
78,173,87254,2,0,L|57:261,2,79.9999999999999,2|8|0,1:0|0:0|1:0,0:0:0:0:
177,141,88276,1,2,0:0:0:0:
243,220,88617,70,0,P|285:224|334:201,1,79.9999999999999,2|8,1:0|0:0,0:0:0:0:
397,142,89299,2,0,P|450:199|448:277,1,160,2|0,0:0|1:0,0:0:0:0:
370,346,90322,1,8,0:0:0:0:
266,351,90663,2,0,L|176:330,1,79.9999999999999,2|8,0:0|0:0,0:0:0:0:
121,252,91345,6,0,L|198:233,1,79.9999999999999,2|8,1:0|0:0,0:0:0:0:
298,264,92026,2,0,B|335:99,1,160,2|0,1:0|1:0,0:0:0:0:
280,17,93049,1,8,0:0:0:0:
204,88,93390,2,0,P|157:111|117:109,1,79.9999999999999,2|8,1:0|0:0,0:0:0:0:
40,58,94072,70,0,P|79:114|72:215,1,160,2|0,1:0|0:0,0:0:0:0:
19,289,95095,1,8,0:0:0:0:
103,349,95435,2,0,P|142:345|176:325,1,79.9999999999999,2|8,1:0|0:0,0:0:0:0:
238,241,96117,2,0,P|277:244|311:264,1,79.9999999999999,2|8,0:0|0:0,0:0:0:0:
368,352,96799,6,0,B|403:320|403:320|426:209,1,160,2|0,1:0|0:0,0:0:0:0:
341,148,97822,1,8,0:0:0:0:
256,192,98163,12,4,99526,0:0:0:0:
