osu file format v14

[General]
AudioFilename: audio.mp3
AudioLeadIn: 0
PreviewTime: 55762
Countdown: 0
SampleSet: Soft
StackLeniency: 0.7
Mode: 0
LetterboxInBreaks: 0
WidescreenStoryboard: 0

[Editor]
Bookmarks: 11572,12254,55890,99526
DistanceSpacing: 0.5
BeatDivisor: 4
GridSize: 32
TimelineZoom: 1.7

[Metadata]
Title:Canon (Cranky Remix)
TitleUnicode:Canon (Cranky Remix)
Artist:J. Pachelbel
ArtistUnicode:J. Pachelbel
Creator:lcfc
Version:Collab Insane
Source:
Tags:fa featured artist mappers' guild electronic classical lowcombofc regou kalibe pishifat
BeatmapID:1773005
BeatmapSetID:847812

[Difficulty]
HPDrainRate:5.7
CircleSize:4
OverallDifficulty:8
ApproachRate:9
SliderMultiplier:1.8
SliderTickRate:1

[Events]
//Background and Video events
0,0,"fantasy-2861107_1920.jpg",0,0
//Break Periods
2,45181,52563
//Storyboard Layer 0 (Background)
//Storyboard Layer 1 (Fail)
//Storyboard Layer 2 (Pass)
//Storyboard Layer 3 (Foreground)
//Storyboard Sound Samples

[TimingPoints]
1345,340.909090909091,4,2,1,40,1,0
11572,-50,4,2,1,40,0,0
12254,-83.3333333333333,4,2,1,40,0,0
13617,-133.333333333333,4,2,1,40,0,0
14299,-100,4,2,1,40,0,0
14981,-83.3333333333333,4,2,1,40,0,0
16345,-133.333333333333,4,2,1,40,0,0
17026,-100,4,2,1,40,0,0
17708,-83.3333333333333,4,2,1,40,0,0
19072,-133.333333333333,4,2,1,40,0,0
19754,-100,4,2,1,40,0,0
20435,-83.3333333333333,4,2,1,40,0,0
21458,-133.333333333333,4,2,1,40,0,0
22140,-100,4,2,1,40,0,0
22481,-83.3333333333333,4,2,1,40,0,0
24526,-133.333333333333,4,2,1,40,0,0
24867,-100,4,2,1,40,0,0
25890,-83.3333333333333,4,2,1,40,0,0
27140,-133.333333333333,4,2,1,40,0,0
27595,-100,4,2,1,40,0,0
28617,-83.3333333333333,4,2,1,40,0,0
29867,-133.333333333333,4,2,1,40,0,0
30322,-100,4,2,1,40,0,0
31345,-83.3333333333333,4,2,1,40,0,0
32367,-133.333333333333,4,2,1,40,0,0
33049,-100,4,2,1,40,0,0
33390,-83.3333333333333,4,2,1,40,0,0
35435,-133.333333333333,4,2,1,40,0,0
35776,-100,4,2,1,40,0,0
36799,-83.3333333333333,4,2,1,40,0,0
38163,-133.333333333333,4,2,1,40,0,0
38504,-100,4,2,1,40,0,0
39526,-83.3333333333333,4,2,1,40,0,0
40890,-133.333333333333,4,2,1,40,0,0
41231,-100,4,2,1,40,0,0
42254,-83.3333333333333,4,2,1,40,0,0
43617,-133.333333333333,4,2,1,40,0,0
43958,-100,4,2,1,40,0,0
44299,-83.3333333333333,4,2,1,40,0,0
53163,-133.333333333333,4,2,1,40,0,0
54526,-100,4,2,1,60,0,0
55549,-50,4,2,1,60,0,0
55890,-100,4,2,1,60,0,1
65435,-100,4,2,1,60,0,0
66799,-100,4,2,1,60,0,1
76345,-100,4,2,1,60,0,0
77026,-66.6666666666667,4,2,1,60,0,0
77367,-50,4,2,1,60,0,0
77708,-50,4,2,1,40,0,0
78049,-200,4,2,1,60,0,1
78390,-200,4,2,1,60,0,0
78731,-100,4,2,1,60,0,0
98845,-50,4,2,1,60,0,0
99185,-200,4,2,1,60,0,0

[Colours]
Combo1 : 234,196,43
Combo2 : 206,157,91
Combo3 : 247,230,136
Combo4 : 138,138,138
Combo5 : 168,158,87
Combo6 : 237,133,39

[HitObjects]
49,241,11572,86,0,B|149:207|176:84|78:6|-11:55|-13:142|29:159,1,360,8|0,0:0|0:0,0:0:0:0:
25,157,12254,70,0,B|136:187|136:187|163:297|163:297|292:330,1,359.999989013672,0|0,1:0|1:0,0:0:0:0:
290,329,13504,53,0,0:0:0:0:
303,320,13617,2,0,P|312:284|276:240,1,90.0000034332277,0|0,1:0|0:0,0:0:0:0:
268,240,13958,1,0,1:0:0:0:
455,270,14299,6,0,P|455:353|373:364,1,180,8|0,0:0|1:0,0:0:0:0:
269,156,14981,6,0,B|234:34|234:34|403:71|403:71|368:120,1,359.999989013672,0|0,1:0|1:0,0:0:0:0:
368,120,16231,53,2,0:0:0:0:
372,137,16345,2,0,P|361:183|354:231,1,90.0000034332277,0|0,1:0|0:0,0:0:0:0:
362,241,16685,1,0,1:0:0:0:
209,296,16913,5,2,0:0:0:0:
220,284,17026,2,0,B|310:268|286:351|384:330,1,180,8|2,0:0|0:0,0:0:0:0:
333,117,17595,5,2,0:0:0:0:
319,105,17708,2,0,B|209:123|209:123|202:118|202:118|200:124|200:124|91:144|91:144|212:163,1,359.999989013672,0|0,1:0|1:0,0:0:0:0:
212,163,18958,53,0,0:0:0:0:
224,174,19072,2,0,P|239:211|217:256,1,90.0000034332277,0|0,1:0|0:0,0:0:0:0:
208,263,19413,1,0,1:0:0:0:
9,349,19754,6,0,P|57:280|138:303,1,180,8|0,0:0|1:0,0:0:0:0:
318,239,20435,6,0,B|322:132|365:13|365:13|260:87,1,359.999989013672,0|0,1:0|1:0,0:0:0:0:
180,102,21288,53,0,0:0:0:0:
180,102,21458,2,0,P|147:95|113:97,1,67.5000025749208
44,135,21799,1,0,1:0:0:0:
234,172,22026,21,0,0:0:0:0:
243,184,22140,2,0,B|301:197|301:197|351:163,1,120,0|0,1:0|0:0,0:0:0:0:
366,248,22481,6,0,B|321:304|321:304|258:269,1,143.999995605469,8|0,0:0|0:0,0:0:0:0:
286,108,22822,1,0,0:0:0:0:
159,222,23163,70,0,B|75:237|75:237|107:52|107:52|180:102,1,359.999989013672,0|0,1:0|1:0,0:0:0:0:
179,101,24413,53,0,0:0:0:0:
190,110,24526,2,0,P|224:113|265:69,1,90.0000034332277,0|0,1:0|0:0,0:0:0:0:
263,60,24867,38,0,P|321:73|380:81,1,120,0|0,1:0|0:0,0:0:0:0:
433,3,25208,2,0,P|412:90|399:179,1,180,8|0,0:0|1:0,0:0:0:0:
415,333,25890,70,0,B|398:382|319:398|283:353|283:353|318:155,1,359.999989013672,0|0,1:0|1:0,0:0:0:0:
318,155,27140,69,2,0:0:0:0:
309,141,27254,2,0,P|273:155|220:160,1,90.0000034332277,0|2,1:0|0:0,0:0:0:0:
207,151,27595,22,0,L|227:282,1,120,0|2,1:0|0:0,0:0:0:0:
151,316,27935,2,0,L|124:137,1,180,8|2,0:0|0:0,0:0:0:0:
312,21,28504,69,2,0:0:0:0:
326,30,28617,2,0,B|343:137|343:137|306:180|306:180|297:179|297:179|299:188|299:188|264:226|264:226|282:351,1,359.999989013672,0|0,1:0|1:0,0:0:0:0:
282,350,29867,53,0,0:0:0:0:
292,360,29981,2,0,P|330:368|379:326,1,90.0000034332277,0|0,1:0|0:0,0:0:0:0:
378,329,30322,38,0,B|369:274|369:274|411:225,1,120,0|0,1:0|0:0,0:0:0:0:
454,145,30663,2,0,B|463:200|463:200|341:174,1,180,8|0,0:0|1:0,0:0:0:0:
151,47,31345,70,0,B|59:26|59:26|87:189|87:189|185:210,1,359.999989013672,0|0,1:0|1:0,0:0:0:0:
259,176,32197,53,0,0:0:0:0:
259,176,32367,2,0,P|252:144|248:99,1,67.5000025749208,0|0,0:0|0:0,0:0:0:0:
276,35,32708,1,0,1:0:0:0:
307,244,33049,22,0,L|284:361,1,120,0|0,1:0|0:0,0:0:0:0:
360,384,33390,6,0,L|386:242,1,143.999995605469,8|0,0:0|0:0,0:0:0:0:
221,283,33731,1,0,0:0:0:0:
107,372,34072,70,0,B|7:338|-20:215|78:137|167:186|169:273|127:290,1,360,0|0,1:0|1:0,0:0:0:0:
130,288,35322,53,0,0:0:0:0:
140,298,35435,2,0,L|184:292,2,45.0000017166138,0|0|0,1:0|0:0|0:0,0:0:0:0:
300,350,35776,38,0,B|254:336|254:336|270:266,1,120,0|0,1:0|0:0,0:0:0:0:
330,172,36117,2,0,B|308:242|308:242|204:217,1,180,8|0,0:0|1:0,0:0:0:0:
20,84,36685,69,2,0:0:0:0:
34,71,36799,2,0,B|77:124|77:124|43:275,3,215.999993408203,0|0|0|0,1:0|0:0|0:0|0:0,0:0:0:0:
69,346,38049,69,2,0:0:0:0:
82,355,38163,2,0,P|115:349|189:346,1,90.0000034332277,0|0,1:0|0:0,0:0:0:0:
249,253,38504,22,0,P|189:263|130:265,1,120,0|2,1:0|0:0,0:0:0:0:
86,200,38845,2,0,L|98:141,2,60,8|2|0,0:0|0:0|0:0,0:0:0:0:
121,275,39185,1,0,0:0:0:0:
306,333,39413,69,2,0:0:0:0:
319,340,39526,2,0,B|381:297|357:198|357:198|246:160|285:36,1,359.999989013672,0|0,1:0|1:0,0:0:0:0:
285,35,40776,53,0,0:0:0:0:
300,29,40890,2,0,L|353:40,1,45.0000017166138,0|0,1:0|0:0,0:0:0:0:
230,116,41117,1,0,0:0:0:0:
242,108,41231,38,0,L|380:136,1,120,0|0,1:0|0:0,0:0:0:0:
366,227,41572,2,0,L|189:190,1,180,8|0,0:0|1:0,0:0:0:0:
204,355,42254,70,0,B|304:324|425:332|425:332|488:211,1,359.999989013672,0|0,1:0|1:0,0:0:0:0:
488,211,43504,69,0,0:0:0:0:
479,194,43617,2,0,P|440:175|396:181,1,90.0000034332277,0|0,1:0|0:0,0:0:0:0:
347,245,43958,6,0,P|318:278|245:269,1,120,0|0,1:0|0:0,0:0:0:0:
169,259,44299,6,0,P|149:213|202:143,1,143.999995605469,8|0,0:0|0:0,0:0:0:0:
276,176,44640,1,0,0:0:0:0:
276,176,44981,53,0,1:0:0:0:
228,128,53163,70,0,B|195:135|195:135|165:119,2,67.5000025749208,0|0|2,0:0|0:0|0:0,0:0:0:0:
92,154,53674,1,0,0:0:0:0:
97,170,53759,1,0,0:0:0:0:
102,186,53845,1,0,0:0:0:0:
177,27,54015,2,0,B|209:19|209:19|239:35,1,67.5000025749208,2|0,0:0|0:0,0:0:0:0:
254,45,54271,1,0,0:0:0:0:
268,55,54356,2,0,L|310:47,1,33.7500012874604,0|0,0:0|0:0,0:0:0:0:
366,3,54526,5,0,1:0:0:0:
440,161,54697,2,0,P|397:206|324:207,1,135,8|0,0:0|0:0,0:0:0:0:
314,197,55038,1,0,1:0:0:0:
287,328,55208,6,0,L|296:284,1,45,8|0,0:0|0:0,0:0:0:0:
212,111,55379,2,0,L|202:154,1,45,8|0,0:0|0:0,0:0:0:0:
236,226,55549,6,0,P|195:266|150:271,1,90,8|0,0:0|0:0,0:0:0:0:
0,336,55720,2,0,P|29:370|71:383,1,90,8|0,0:0|0:0,0:0:0:0:
138,345,55890,6,0,P|135:252|80:176,1,180,2|8,1:0|0:0,0:0:0:0:
79,24,56401,1,2,0:0:0:0:
9,158,56572,2,0,P|34:119|90:100,1,90,2|0,0:0|1:0,0:0:0:0:
160,14,56913,1,8,0:0:0:0:
237,131,57083,1,2,0:0:0:0:
244,139,57168,1,0,0:0:0:0:
251,146,57254,1,2,1:0:0:0:
314,56,57424,5,0,0:0:0:0:
148,107,57595,1,8,0:0:0:0:
274,232,57765,2,0,L|269:283,2,45,0|0|2,0:0|0:0|0:0,0:0:0:0:
251,146,58106,69,0,1:0:0:0:
145,267,58276,1,10,0:0:0:0:
270,362,58447,1,0,0:0:0:0:
278,371,58532,1,0,0:0:0:0:
289,379,58617,6,0,P|359:321|349:224,1,180,2|8,1:0|0:0,0:0:0:0:
309,88,59129,1,2,0:0:0:0:
279,227,59299,2,0,P|299:181|338:159,1,90,2|0,0:0|1:0,0:0:0:0:
371,33,59640,1,8,0:0:0:0:
503,101,59810,1,2,0:0:0:0:
507,111,59896,1,0,0:0:0:0:
510,121,59981,1,2,1:0:0:0:
426,282,60151,69,0,0:0:0:0:
412,191,60322,1,8,0:0:0:0:
420,289,60492,1,0,0:0:0:0:
315,126,60663,6,0,P|309:185|308:239,1,90,2|0,0:0|1:0,0:0:0:0:
214,313,61004,2,0,P|208:254|207:200,1,90,10|0,0:0|0:0,0:0:0:0:
173,148,61259,1,0,0:0:0:0:
183,138,61345,70,0,B|95:119|115:200|15:187,1,180,2|8,1:0|0:0,0:0:0:0:
20,31,61856,1,2,0:0:0:0:
0,104,62026,2,0,B|44:114|44:114|78:83,1,90,2|0,0:0|1:0,0:0:0:0:
181,7,62367,1,8,0:0:0:0:
314,114,62538,1,2,0:0:0:0:
319,126,62623,1,0,0:0:0:0:
322,138,62708,1,2,1:0:0:0:
384,55,62879,5,0,0:0:0:0:
217,109,63049,1,8,0:0:0:0:
341,235,63220,2,0,L|354:285,2,45,0|0|2,0:0|0:0|0:0,0:0:0:0:
257,189,63560,69,0,1:0:0:0:
423,200,63731,1,10,0:0:0:0:
371,384,63901,1,0,0:0:0:0:
375,371,63987,1,0,0:0:0:0:
378,356,64072,6,0,B|290:375|310:294|210:307,1,180,2|8,1:0|0:0,0:0:0:0:
130,220,64583,1,2,0:0:0:0:
108,380,64754,2,0,B|133:341|133:341|117:280,1,90,2|0,0:0|1:0,0:0:0:0:
200,107,65095,2,0,B|188:149|188:149|213:188,1,90,8|2,0:0|0:0,0:0:0:0:
286,232,65350,1,0,0:0:0:0:
290,219,65435,38,0,L|296:165,2,45,2|0|0,1:0|0:0|0:0,0:0:0:0:
315,2,65776,1,10,0:0:0:0:
373,152,65947,5,2,0:0:0:0:
366,137,66032,2,0,L|338:62,1,45,2|0,0:0|0:0,0:0:0:0:
438,106,66202,1,0,0:0:0:0:
439,88,66288,2,0,L|446:35,1,45
475,294,66458,69,10,0:0:0:0:
473,175,66629,1,2,0:0:0:0:
478,184,66714,1,0,0:0:0:0:
483,194,66799,22,0,P|415:215|383:319,1,180,2|8,1:0|0:0,0:0:0:0:
323,206,67310,1,2,0:0:0:0:
360,384,67481,2,0,P|324:363|304:308,1,90,2|0,0:0|1:0,0:0:0:0:
179,258,67822,1,8,0:0:0:0:
284,133,67992,1,2,0:0:0:0:
276,120,68077,1,0,0:0:0:0:
269,107,68163,1,2,1:0:0:0:
333,6,68333,5,0,0:0:0:0:
169,118,68504,1,8,0:0:0:0:
346,223,68674,2,0,L|352:158,2,45,0|0|2,0:0|0:0|0:0,0:0:0:0:
378,89,69015,69,0,1:0:0:0:
428,291,69185,1,10,0:0:0:0:
507,159,69356,1,0,0:0:0:0:
505,170,69441,1,0,0:0:0:0:
504,183,69526,6,0,P|424:181|369:93,1,180,2|8,1:0|0:0,0:0:0:0:
207,5,70038,1,2,0:0:0:0:
357,30,70208,2,0,P|312:46|291:103,1,90,2|0,0:0|1:0,0:0:0:0:
146,140,70549,1,8,0:0:0:0:
262,213,70720,1,2,0:0:0:0:
270,201,70805,1,0,0:0:0:0:
276,190,70890,1,2,1:0:0:0:
77,83,71060,69,0,0:0:0:0:
64,170,71231,1,8,0:0:0:0:
71,78,71401,1,0,0:0:0:0:
0,246,71572,5,2,0:0:0:0:
172,166,71742,1,0,1:0:0:0:
15,6,71913,1,10,0:0:0:0:
119,255,72083,1,0,0:0:0:0:
127,260,72168,1,0,0:0:0:0:
135,264,72254,70,0,P|202:261|266:353,1,180,2|8,1:0|0:0,0:0:0:0:
166,177,72765,1,2,0:0:0:0:
177,342,72935,2,0,P|132:353|89:336,1,90,2|0,0:0|1:0,0:0:0:0:
273,199,73276,1,8,0:0:0:0:
280,55,73447,1,2,0:0:0:0:
284,44,73532,1,0,0:0:0:0:
288,34,73617,1,2,1:0:0:0:
354,180,73788,5,0,0:0:0:0:
196,62,73958,1,8,0:0:0:0:
384,14,74129,2,0,L|431:20,2,45,0|0|2,0:0|0:0|0:0,0:0:0:0:
384,262,74470,69,0,1:0:0:0:
288,119,74640,1,10,0:0:0:0:
252,290,74810,1,0,0:0:0:0:
258,297,74896,1,0,0:0:0:0:
263,304,74981,6,0,B|170:297|205:371|91:361,1,180,2|8,1:0|0:0,0:0:0:0:
250,207,75492,1,2,0:0:0:0:
112,279,75663,2,0,B|89:235|89:235|107:180,1,90,2|0,0:0|1:0,0:0:0:0:
110,23,76004,2,0,L|4:39,1,90,8|2,0:0|0:0,0:0:0:0:
40,117,76259,1,0,0:0:0:0:
52,105,76345,38,0,L|55:127,1,22.5,2|0,0:0|0:0,0:0:0:0:
67,103,76430,6,0,L|70:125,1,22.5,2|0,0:0|0:0,0:0:0:0:
85,100,76515,70,0,L|88:122,1,22.5,2|0,0:0|0:0,0:0:0:0:
100,98,76600,6,0,L|103:120,1,22.5,2|0,0:0|0:0,0:0:0:0:
115,95,76685,70,0,L|118:117,1,22.5,2|0,0:0|0:0,0:0:0:0:
19,264,76856,5,0,0:0:0:0:
62,258,76941,1,0,0:0:0:0:
104,254,77026,70,0,L|176:246,1,67.5000025749208,2|0,0:0|0:0,0:0:0:0:
340,246,77197,2,0,L|408:254,1,67.5000025749208,2|0,0:0|0:0,0:0:0:0:
267,378,77367,6,0,P|252:333|265:272,1,90,2|0,0:0|0:0,0:0:0:0:
251,191,77538,2,0,P|266:146|253:85,1,90,2|0,0:0|0:0,0:0:0:0:
312,26,77708,37,0,1:0:0:0:
320,39,77793,1,0,1:0:0:0:
329,32,77879,1,0,1:0:0:0:
336,44,77964,1,0,1:0:0:0:
348,38,78049,54,0,P|407:35|457:102,1,135,14|0,0:0|1:0,0:0:0:0:
343,224,78731,6,0,L|308:230,6,22.5,8|0|0|0|0|0|0,0:0|0:0|0:0|0:0|0:0|0:0|0:0,0:0:0:0:
422,273,79072,2,0,L|430:173,1,90,2|0,1:0|0:0,0:0:0:0:
360,134,79327,1,0,0:0:0:0:
368,124,79413,2,0,B|315:117|315:117|291:133|291:133|227:126,1,135,10|0,0:0|0:0,0:0:0:0:
158,179,79754,2,0,L|146:85,2,90,2|0|10,0:0|1:0|0:0,0:0:0:0:
231,239,80265,69,0,1:0:0:0:
237,227,80350,1,8,0:0:0:0:
244,216,80435,2,0,P|177:221|141:327,1,180,2|8,1:0|0:0,0:0:0:0:
57,373,80947,1,0,0:0:0:0:
57,373,81032,1,0,0:0:0:0:
57,373,81117,2,0,P|47:333|35:285,1,90,2|0,0:0|1:0,0:0:0:0:
187,124,81458,2,0,P|235:126|284:128,1,90,8|0,0:0|1:0,0:0:0:0:
296,51,81714,1,0,0:0:0:0:
304,39,81799,5,0,1:0:0:0:
206,29,81970,1,0,1:0:0:0:
105,21,82140,2,0,P|98:103|90:175,1,135,8|0,0:0|0:0,0:0:0:0:
80,235,82481,1,2,1:0:0:0:
57,228,82566,1,8,0:0:0:0:
31,225,82651,1,0,1:0:0:0:
188,214,82822,1,8,0:0:0:0:
47,320,82992,70,0,L|97:326,1,45,0|0,1:0|0:0,0:0:0:0:
184,304,83163,2,0,B|279:297|246:378|356:371,1,180,2|8,1:0|0:0,0:0:0:0:
336,284,83674,1,0,0:0:0:0:
345,275,83759,1,0,0:0:0:0:
354,268,83845,2,0,P|352:214|358:160,1,90,0|0,0:0|1:0,0:0:0:0:
255,18,84185,2,0,L|160:28,1,90,8|0,0:0|1:0,0:0:0:0:
210,102,84441,1,0,0:0:0:0:
217,108,84526,5,2,1:0:0:0:
310,92,84697,1,0,1:0:0:0:
404,80,84867,1,8,0:0:0:0:
103,203,85123,69,0,1:0:0:0:
77,184,85209,1,0,0:0:0:0:
46,178,85294,1,2,0:0:0:0:
15,181,85379,1,0,0:0:0:0:
107,92,85549,5,8,0:0:0:0:
151,310,85720,1,0,1:0:0:0:
160,305,85805,1,8,0:0:0:0:
180,266,85890,70,0,P|245:277|289:398,1,180,2|8,1:0|0:0,0:0:0:0:
378,316,86401,1,0,0:0:0:0:
383,328,86487,1,0,0:0:0:0:
389,341,86572,2,0,P|391:285|399:218,1,90,0|0,0:0|1:0,0:0:0:0:
234,169,86913,2,0,P|232:113|224:46,1,90,8|0,0:0|1:0,0:0:0:0:
319,3,87168,1,0,0:0:0:0:
329,37,87254,1,2,1:0:0:0:
322,72,87339,1,0,1:0:0:0:
326,108,87424,1,0,1:0:0:0:
136,11,87595,6,0,L|130:117,1,90,8|0,0:0|0:0,0:0:0:0:
121,184,87850,1,8,0:0:0:0:
90,166,87935,1,0,1:0:0:0:
58,160,88021,1,0,0:0:0:0:
21,164,88106,1,0,0:0:0:0:
0,325,88276,38,0,L|6:356,1,22.5,2|0,0:0|0:0,0:0:0:0:
15,310,88362,6,0,L|21:341,1,22.5,2|0,0:0|0:0,0:0:0:0:
31,296,88447,70,0,L|37:327,1,22.5,2|0,0:0|0:0,0:0:0:0:
46,280,88533,6,0,L|52:311,1,22.5,2|0,0:0|0:0,0:0:0:0:
64,269,88617,6,0,B|171:292|171:292|212:354,1,180,2|8,1:0|0:0,0:0:0:0:
270,268,89129,1,0,0:0:0:0:
270,268,89214,1,0,0:0:0:0:
270,268,89299,2,0,P|284:218|256:165,1,90,2|0,0:0|1:0,0:0:0:0:
430,107,89640,2,0,P|385:80|326:93,1,90,8|0,0:0|0:0,0:0:0:0:
299,8,89896,1,0,0:0:0:0:
293,19,89981,5,0,1:0:0:0:
378,192,90151,1,0,0:0:0:0:
231,99,90322,2,0,L|85:120,1,135,8|0,0:0|0:0,0:0:0:0:
14,126,90663,1,2,0:0:0:0:
19,97,90748,1,0,0:0:0:0:
34,73,90833,1,0,1:0:0:0:
206,190,91004,1,8,0:0:0:0:
123,199,91174,70,0,L|132:252,1,45,0|8,1:0|0:0,0:0:0:0:
0,324,91345,2,0,B|73:313|73:313|107:337|107:337|189:327,1,180,2|8,1:0|0:0,0:0:0:0:
336,370,91856,1,0,0:0:0:0:
327,360,91941,1,0,0:0:0:0:
314,351,92026,1,2,1:0:0:0:
346,311,92112,1,8,0:0:0:0:
339,262,92197,1,0,0:0:0:0:
247,293,92367,6,0,B|230:247|230:247|245:202,1,90,8|0,0:0|1:0,0:0:0:0:
283,142,92623,1,0,0:0:0:0:
288,131,92708,70,0,L|223:120,1,45,0|0,1:0|0:0,0:0:0:0:
49,101,92879,1,0,1:0:0:0:
146,4,93049,6,0,B|163:50|163:50|148:95,1,90,8|0,0:0|0:0,0:0:0:0:
115,163,93305,1,8,0:0:0:0:
122,182,93390,1,2,1:0:0:0:
129,200,93475,1,8,0:0:0:0:
135,217,93560,1,0,1:0:0:0:
292,46,93731,70,0,L|338:57,1,45,8|0,0:0|0:0,0:0:0:0:
441,268,93901,2,0,L|395:279,1,45,8|0,0:0|0:0,0:0:0:0:
314,316,94072,6,0,B|294:221|364:236|335:134,1,180,2|8,1:0|0:0,0:0:0:0:
202,123,94583,1,0,0:0:0:0:
193,129,94668,1,0,0:0:0:0:
182,137,94754,2,0,P|216:174|254:179,1,90,0|0,0:0|1:0,0:0:0:0:
159,380,95095,2,0,P|203:360|218:321,1,90,8|0,0:0|0:0,0:0:0:0:
163,242,95350,1,0,0:0:0:0:
151,246,95435,69,2,1:0:0:0:
317,373,95606,1,0,0:0:0:0:
335,99,95776,2,0,L|357:249,1,135,8|0,0:0|0:0,0:0:0:0:
413,289,96117,1,2,0:0:0:0:
391,306,96202,1,0,0:0:0:0:
363,308,96288,1,0,1:0:0:0:
426,116,96458,1,8,0:0:0:0:
438,201,96629,6,0,L|495:212,1,45,0|8,1:0|0:0,0:0:0:0:
413,27,96799,2,0,B|299:5|299:5|234:52,1,180,2|8,1:0|0:0,0:0:0:0:
172,134,97310,1,0,0:0:0:0:
178,141,97396,1,0,0:0:0:0:
186,148,97481,2,0,L|281:127,1,90,0|0,0:0|1:0,0:0:0:0:
361,316,97822,69,8,0:0:0:0:
357,269,97907,1,0,1:0:0:0:
329,233,97992,1,0,0:0:0:0:
291,218,98077,1,8,0:0:0:0:
248,222,98163,54,0,L|236:257,6,22.5,2|0|0|0|0|0|0,0:0|0:0|0:0|0:0|0:0|0:0|0:0,0:0:0:0:
233,349,98504,6,0,P|255:334|283:330,1,45,0|0,0:0|0:0,0:0:0:0:
377,151,98674,2,0,P|399:170|412:204,1,45,2|0,0:0|0:0,0:0:0:0:
483,335,98845,70,0,B|513:345|516:389|459:384|435:349|440:317|440:317|406:349|342:311|350:249,1,270,0|0,0:0|0:0,0:0:0:0:
344,246,99185,6,0,L|326:254,1,11.25,2|0,0:0|0:0,0:0:0:0:
259,51,99526,37,4,0:0:0:0:
