osu file format v14

[General]
AudioFilename: audio.mp3
AudioLeadIn: 0
PreviewTime: 44896
Countdown: 0
SampleSet: Normal
StackLeniency: 0.7
Mode: 1
LetterboxInBreaks: 0
WidescreenStoryboard: 1

[Editor]
Bookmarks: 55890
DistanceSpacing: 0.8
BeatDivisor: 4
GridSize: 8
TimelineZoom: 0.9000002

[Metadata]
Title:Canon (Cranky Remix)
TitleUnicode:Canon (Cranky Remix)
Artist:J. Pachelbel
ArtistUnicode:J. Pachelbel
Creator:Nao Tomori
Version:Futsuu
Source:osu!
Tags:mappers guild featured artist fa electronic classical naotoshi ascendance jbh jbhyperion ajamez jemzuu idu5t dust du5t
BeatmapID:2129034
BeatmapSetID:978674

[Difficulty]
HPDrainRate:6
CircleSize:5
OverallDifficulty:4
ApproachRate:5
SliderMultiplier:1.4
SliderTickRate:1

[Events]
//Background and Video events
0,0,"cannon.jpg",0,0
//Break Periods
//Storyboard Layer 0 (Background)
//Storyboard Layer 1 (Fail)
//Storyboard Layer 2 (Pass)
//Storyboard Layer 3 (Foreground)
//Storyboard Layer 4 (Overlay)
//Storyboard Sound Samples

[TimingPoints]
1345,340.909090909091,4,1,0,30,1,0
11572,-100,4,1,0,60,0,0
12822,-100,4,1,0,50,0,0
54185,-100,4,1,0,63,0,0
55890,-100,4,1,0,73,0,0
78049,-100,4,1,0,78,0,1
99526,-100,4,1,0,85,0,0

[HitObjects]
301,136,11571,5,12,0:0:0:0:
364,117,11912,1,0,0:0:0:0:
256,190,12254,1,12,0:0:0:0:
242,100,12822,1,0,0:0:0:0:
249,91,13504,1,0,0:0:0:0:
242,100,13617,1,0,0:0:0:0:
242,100,13958,1,0,0:0:0:0:
242,100,14299,1,8,0:0:0:0:
242,100,14981,1,0,0:0:0:0:
242,100,15549,1,0,0:0:0:0:
247,132,16231,1,0,0:0:0:0:
242,100,16345,1,0,0:0:0:0:
292,113,16685,1,0,0:0:0:0:
242,100,17026,1,8,0:0:0:0:
242,100,17708,1,0,0:0:0:0:
215,38,18276,1,0,0:0:0:0:
239,157,18958,1,0,0:0:0:0:
216,40,19072,1,0,0:0:0:0:
165,93,19754,1,8,0:0:0:0:
160,96,20095,1,0,0:0:0:0:
160,96,20435,1,0,0:0:0:0:
160,97,21004,1,0,0:0:0:0:
168,92,21799,1,8,0:0:0:0:
168,92,22140,1,0,0:0:0:0:
168,91,22481,1,12,0:0:0:0:
168,91,22822,1,0,0:0:0:0:
171,90,23163,1,12,0:0:0:0:
184,171,23845,1,8,0:0:0:0:
268,183,24413,1,0,0:0:0:0:
173,110,24526,1,0,0:0:0:0:
173,110,24867,1,0,0:0:0:0:
173,110,25208,1,8,0:0:0:0:
168,109,25890,1,0,0:0:0:0:
160,102,26572,1,8,0:0:0:0:
160,102,27254,1,0,0:0:0:0:
160,102,27595,1,0,0:0:0:0:
160,102,27935,1,8,0:0:0:0:
160,102,28276,1,8,0:0:0:0:
160,102,28617,1,0,0:0:0:0:
190,37,29185,1,0,0:0:0:0:
256,214,29299,1,0,0:0:0:0:
194,212,29867,1,0,0:0:0:0:
256,214,29981,1,0,0:0:0:0:
254,218,30322,1,0,0:0:0:0:
254,218,30663,1,8,0:0:0:0:
254,218,31345,1,0,0:0:0:0:
201,75,32026,1,0,0:0:0:0:
201,73,32367,1,8,0:0:0:0:
201,73,32708,1,0,0:0:0:0:
195,147,32935,1,0,0:0:0:0:
201,73,33049,1,0,0:0:0:0:
201,73,33390,1,8,0:0:0:0:
201,73,34072,1,12,0:0:0:0:
201,73,34754,1,8,0:0:0:0:
201,73,35095,1,8,0:0:0:0:
201,73,35435,1,0,0:0:0:0:
201,73,36117,1,8,0:0:0:0:
201,73,36458,1,0,0:0:0:0:
260,170,36799,1,8,0:0:0:0:
271,150,37140,1,8,0:0:0:0:
270,153,37481,1,0,0:0:0:0:
269,144,37822,1,0,0:0:0:0:
269,144,38163,1,8,0:0:0:0:
268,139,38845,1,8,0:0:0:0:
201,154,39072,1,8,0:0:0:0:
268,139,39185,1,8,0:0:0:0:
268,139,39526,1,0,0:0:0:0:
267,141,40208,1,0,0:0:0:0:
267,141,40549,1,8,0:0:0:0:
267,141,40890,1,0,0:0:0:0:
267,141,41231,1,0,0:0:0:0:
267,139,41572,1,8,0:0:0:0:
257,123,42254,1,8,0:0:0:0:
257,123,42595,1,0,0:0:0:0:
257,123,42935,1,8,0:0:0:0:
256,124,43617,1,0,0:0:0:0:
254,126,43958,1,0,0:0:0:0:
254,126,44299,1,8,0:0:0:0:
254,126,44640,1,0,0:0:0:0:
254,126,44981,1,4,0:0:0:0:
365,269,45663,1,8,0:0:0:0:
365,269,46345,1,8,0:0:0:0:
365,269,47026,1,8,0:0:0:0:
365,269,47367,1,8,0:0:0:0:
365,269,47708,1,0,0:0:0:0:
365,269,48390,1,8,0:0:0:0:
365,270,49072,1,0,0:0:0:0:
365,270,49754,1,0,0:0:0:0:
365,270,50095,1,0,0:0:0:0:
365,270,50435,1,8,0:0:0:0:
365,270,51117,1,8,0:0:0:0:
365,270,51799,1,8,0:0:0:0:
365,270,52140,1,0,0:0:0:0:
365,270,52481,1,8,0:0:0:0:
365,270,53163,1,0,0:0:0:0:
366,158,53845,1,0,0:0:0:0:
366,158,54185,1,0,0:0:0:0:
366,158,54526,1,0,0:0:0:0:
366,158,54697,1,8,0:0:0:0:
359,166,55038,1,0,0:0:0:0:
359,166,55208,1,8,0:0:0:0:
359,166,55379,1,8,0:0:0:0:
359,166,55549,1,0,0:0:0:0:
359,166,55890,1,12,0:0:0:0:
278,238,56231,1,0,0:0:0:0:
200,115,56401,1,0,0:0:0:0:
243,144,56572,1,8,0:0:0:0:
200,115,56913,1,0,0:0:0:0:
200,115,57254,1,8,0:0:0:0:
200,115,57424,1,0,0:0:0:0:
200,115,57595,1,8,0:0:0:0:
200,115,57935,1,8,0:0:0:0:
200,115,58106,1,8,0:0:0:0:
200,115,58276,1,0,0:0:0:0:
200,115,58447,1,8,0:0:0:0:
200,115,58617,1,0,0:0:0:0:
200,115,58958,1,0,0:0:0:0:
184,122,59129,1,0,0:0:0:0:
184,122,59299,1,8,0:0:0:0:
184,122,59640,1,8,0:0:0:0:
184,122,59981,1,0,0:0:0:0:
184,122,60322,1,8,0:0:0:0:
184,122,60492,1,0,0:0:0:0:
184,122,60663,1,8,0:0:0:0:
186,110,61345,1,0,0:0:0:0:
228,167,61685,1,8,0:0:0:0:
229,171,61856,1,8,0:0:0:0:
229,171,62026,1,0,0:0:0:0:
260,152,62197,1,0,0:0:0:0:
229,171,62367,1,8,0:0:0:0:
229,171,62708,1,8,0:0:0:0:
229,171,63049,1,0,0:0:0:0:
247,147,63220,1,8,0:0:0:0:
229,171,63390,1,0,0:0:0:0:
229,171,63731,1,8,0:0:0:0:
229,171,64072,1,0,0:0:0:0:
222,138,64413,1,8,0:0:0:0:
222,138,64583,1,0,0:0:0:0:
225,170,64754,1,8,0:0:0:0:
225,170,65095,1,8,0:0:0:0:
225,170,65265,1,8,0:0:0:0:
225,170,65435,1,0,0:0:0:0:
225,170,65776,1,8,0:0:0:0:
192,115,66117,1,0,0:0:0:0:
225,170,66288,1,8,0:0:0:0:
225,170,66458,1,0,0:0:0:0:
225,170,66629,1,0,0:0:0:0:
225,170,66799,1,12,0:0:0:0:
262,136,67481,1,8,0:0:0:0:
328,118,67822,1,0,0:0:0:0:
328,118,67992,1,8,0:0:0:0:
212,69,68163,1,0,0:0:0:0:
266,143,68504,1,8,0:0:0:0:
266,143,68845,1,8,0:0:0:0:
266,143,69015,1,0,0:0:0:0:
266,143,69185,1,0,0:0:0:0:
266,143,69356,1,8,0:0:0:0:
266,143,69526,1,0,0:0:0:0:
233,118,69867,1,0,0:0:0:0:
233,118,70038,1,0,0:0:0:0:
233,118,70208,1,8,0:0:0:0:
233,118,70549,1,0,0:0:0:0:
233,118,70720,1,8,0:0:0:0:
233,118,70890,1,0,0:0:0:0:
233,118,71231,1,8,0:0:0:0:
231,100,71572,1,0,0:0:0:0:
231,100,71742,1,8,0:0:0:0:
233,118,71913,1,0,0:0:0:0:
233,118,72083,1,8,0:0:0:0:
233,118,72254,1,0,0:0:0:0:
210,43,72595,5,8,0:0:0:0:
228,93,72765,1,8,0:0:0:0:
220,65,72935,1,0,0:0:0:0:
228,93,73276,1,8,0:0:0:0:
228,93,73617,1,0,0:0:0:0:
207,133,73788,1,0,0:0:0:0:
228,93,73958,1,8,0:0:0:0:
241,96,74299,1,8,0:0:0:0:
238,91,74640,1,0,0:0:0:0:
238,91,74810,1,8,0:0:0:0:
233,97,74981,1,0,0:0:0:0:
233,97,75322,1,8,0:0:0:0:
233,97,75663,1,0,0:0:0:0:
233,97,76004,1,8,0:0:0:0:
233,97,76174,1,8,0:0:0:0:
233,97,76345,1,0,0:0:0:0:
222,85,76515,1,0,0:0:0:0:
220,118,76685,1,8,0:0:0:0:
220,118,77026,1,8,0:0:0:0:
198,112,77197,1,0,0:0:0:0:
198,112,77367,1,0,0:0:0:0:
198,112,77538,1,8,0:0:0:0:
198,112,78049,1,4,0:0:0:0:
175,120,78560,1,0,0:0:0:0:
258,117,78731,1,8,0:0:0:0:
240,126,79072,1,0,0:0:0:0:
240,126,79242,1,0,0:0:0:0:
240,126,79413,1,8,0:0:0:0:
240,126,79754,1,8,0:0:0:0:
240,126,79924,1,0,0:0:0:0:
240,126,80095,1,8,0:0:0:0:
240,126,80265,1,8,0:0:0:0:
240,126,80435,1,0,0:0:0:0:
240,126,80776,1,8,0:0:0:0:
240,126,81117,1,0,0:0:0:0:
240,126,81288,1,0,0:0:0:0:
240,126,81458,1,8,0:0:0:0:
240,126,81629,1,0,0:0:0:0:
240,126,81799,1,0,0:0:0:0:
240,126,82140,1,8,0:0:0:0:
240,126,82310,1,8,0:0:0:0:
215,58,82481,1,0,0:0:0:0:
240,126,82651,1,0,0:0:0:0:
240,126,82822,1,8,0:0:0:0:
240,126,83163,1,0,0:0:0:0:
232,153,83845,1,0,0:0:0:0:
230,141,84185,1,8,0:0:0:0:
248,92,84356,1,0,0:0:0:0:
247,86,84526,1,0,0:0:0:0:
230,121,84697,1,0,0:0:0:0:
225,113,84867,1,8,0:0:0:0:
225,113,85208,1,0,0:0:0:0:
225,113,85549,1,0,0:0:0:0:
225,113,85720,1,8,0:0:0:0:
225,113,86060,1,8,0:0:0:0:
225,113,86231,1,0,0:0:0:0:
225,113,86572,1,0,0:0:0:0:
225,113,86742,1,0,0:0:0:0:
225,113,86913,1,8,0:0:0:0:
225,113,87083,1,8,0:0:0:0:
225,113,87254,1,0,0:0:0:0:
225,113,87595,1,8,0:0:0:0:
225,113,87935,1,8,0:0:0:0:
225,113,88106,1,0,0:0:0:0:
225,113,88276,1,0,0:0:0:0:
324,100,88447,1,0,0:0:0:0:
309,96,88617,1,12,0:0:0:0:
206,190,89299,1,8,0:0:0:0:
206,190,89470,1,8,0:0:0:0:
206,190,89640,1,0,0:0:0:0:
206,190,89810,1,0,0:0:0:0:
208,184,89981,1,0,0:0:0:0:
208,184,90322,1,8,0:0:0:0:
207,180,90663,1,8,0:0:0:0:
207,180,90833,1,0,0:0:0:0:
207,180,91004,1,8,0:0:0:0:
207,180,91345,1,0,0:0:0:0:
207,180,91515,1,0,0:0:0:0:
207,180,91685,1,8,0:0:0:0:
203,63,92026,1,8,0:0:0:0:
203,63,92367,1,8,0:0:0:0:
203,63,92538,1,0,0:0:0:0:
203,63,92708,1,0,0:0:0:0:
203,63,93049,1,8,0:0:0:0:
203,63,93390,1,0,0:0:0:0:
205,70,93560,1,8,0:0:0:0:
179,69,93731,1,8,0:0:0:0:
192,68,93901,1,8,0:0:0:0:
205,70,94072,1,0,0:0:0:0:
193,121,94413,1,8,0:0:0:0:
193,116,94754,1,0,0:0:0:0:
189,126,94924,1,0,0:0:0:0:
189,126,95095,1,8,0:0:0:0:
192,120,95435,1,0,0:0:0:0:
284,168,96117,1,0,0:0:0:0:
268,119,96458,1,8,0:0:0:0:
268,119,96629,1,8,0:0:0:0:
284,168,96799,1,0,0:0:0:0:
284,168,96970,1,0,0:0:0:0:
284,168,97140,1,8,0:0:0:0:
284,168,97822,1,0,0:0:0:0:
284,168,97992,1,8,0:0:0:0:
284,168,98163,1,0,0:0:0:0:
277,171,98504,1,8,0:0:0:0:
277,171,98845,1,8,0:0:0:0:
222,88,99015,1,8,0:0:0:0:
268,175,99185,1,0,0:0:0:0:
268,175,99526,1,12,0:0:0:0:
