osu file format v14

[General]
AudioFilename: audio.mp3
AudioLeadIn: 0
PreviewTime: 48645
Countdown: 0
SampleSet: Soft
StackLeniency: 0.7
Mode: 0
LetterboxInBreaks: 0
WidescreenStoryboard: 0

[Editor]
DistanceSpacing: 1.2
BeatDivisor: 4
GridSize: 4
TimelineZoom: 1

[Metadata]
Title:Wicked Streets (Remix)
TitleUnicode:Wicked Streets (Remix)
Artist:J. Bernardt
ArtistUnicode:J. Bernardt
Creator:Macanache
Version:Normal
Source:
Tags:trap chill jazz relaxing ReFaller
BeatmapID:1281823
BeatmapSetID:606814

[Difficulty]
HPDrainRate:3
CircleSize:3
OverallDifficulty:3
ApproachRate:5
SliderMultiplier:1.4
SliderTickRate:1

[Events]
//Background and Video events
0,0,"Dark-Alley-81.jpg",0,0
//Break Periods
//Storyboard Layer 0 (Background)
//Storyboard Layer 1 (Fail)
//Storyboard Layer 2 (Pass)
//Storyboard Layer 3 (Foreground)
//Storyboard Sound Samples

[TimingPoints]
12238,582.52427184466,4,1,0,100,1,0
21558,-100,4,2,0,10,0,0
30878,-100,4,2,0,15,0,0
48645,-100,4,2,0,40,0,0
49519,-100,4,2,0,40,0,0
49665,-100,4,2,0,25,0,0
50102,-100,4,2,0,35,0,0
50247,-100,4,2,0,25,0,0
51267,-100,4,2,0,35,0,0
51412,-100,4,2,0,25,0,0
52432,-100,4,2,0,35,0,0
52577,-100,4,2,0,25,0,0
53305,-100,4,2,0,40,0,0
54325,-100,4,2,0,25,0,0
54762,-100,4,2,0,35,0,0
54907,-100,4,2,0,25,0,0
55927,-100,4,2,0,35,0,0
56072,-100,4,2,0,25,0,0
57092,-100,4,2,0,35,0,0
57237,-100,4,2,0,25,0,0
57966,-100,4,2,0,40,0,0
58985,-100,4,2,0,25,0,0
59422,-100,4,2,0,35,0,0
59568,-100,4,2,0,25,0,0
60587,-100,4,2,0,35,0,0
60733,-100,4,2,0,25,0,0
61752,-100,4,2,0,35,0,0
61898,-100,4,2,0,25,0,0
62626,-100,4,2,0,40,0,0
63645,-100,4,2,0,25,0,0
64082,-100,4,2,0,35,0,0
64228,-100,4,2,0,25,0,0
65247,-100,4,2,0,35,0,0
65393,-100,4,2,0,25,0,0
66995,-100,4,2,0,30,0,0
67286,-100,4,2,0,35,0,0
67577,-100,4,2,0,40,0,0
67869,-100,4,2,0,45,0,0
68160,-100,4,1,0,50,0,1
86801,-100,4,2,0,35,0,0

[HitObjects]
68,76,21558,5,0,0:0:0:0:
236,76,22140,2,0,L|400:76,1,140
376,244,23305,2,0,L|220:244,1,140
236,76,24471,2,0,L|380:76,1,140
392,244,25636,5,0,0:0:0:0:
224,248,26218,1,0,0:0:0:0:
232,80,26801,6,0,P|144:56|80:72,1,140
224,172,27966,2,0,P|160:204|88:192,1,140
84,28,29131,2,0,P|180:8|212:40,2,140
416,76,31461,6,0,L|272:64,1,140
192,60,32335,2,0,P|132:128|136:184,1,140
384,196,33791,6,0,L|272:320,1,140
244,140,34956,1,0,0:0:0:0:
412,140,35538,1,0,0:0:0:0:
280,40,36121,6,0,B|128:44|-16:64,1,280
56,184,38451,1,0,0:0:0:0:
128,228,38742,1,0,0:0:0:0:
296,252,39325,2,0,L|532:196,1,210
392,76,40781,5,0,0:0:0:0:
280,68,41072,2,0,P|168:64|120:88,1,140
96,116,43111,6,0,P|156:184|204:200,1,140
296,216,43985,1,0,0:0:0:0:
388,156,44276,1,0,0:0:0:0:
424,32,44859,1,0,0:0:0:0:
296,60,45441,6,0,L|104:156,1,210
68,228,46606,1,0,0:0:0:0:
132,280,46898,2,0,P|212:320|260:296,1,140
192,48,48645,5,0,0:0:0:0:
276,48,48937,1,0,0:0:0:0:
360,48,49228,1,0,0:0:0:0:
364,132,49519,6,0,P|276:200|228:204,1,140
176,56,50684,1,0,0:0:0:0:
152,136,50975,1,0,0:0:0:0:
148,220,51267,1,0,0:0:0:0:
232,232,51558,6,0,L|304:236,1,70
412,192,53305,2,0,L|352:148,2,70
416,276,54179,5,0,0:0:0:0:
332,284,54471,2,0,L|184:296,1,140
116,256,55344,1,0,0:0:0:0:
104,164,55636,1,0,0:0:0:0:
188,164,55927,2,0,L|336:168,1,140
120,40,57966,5,0,0:0:0:0:
288,36,58548,1,0,0:0:0:0:
372,32,58839,2,0,P|392:200|308:284,1,280
76,300,60878,1,0,0:0:0:0:
80,216,61170,2,0,P|12:188|32:140,1,140
112,116,62043,1,0,0:0:0:0:
280,116,62626,5,0,0:0:0:0:
364,124,62917,1,0,0:0:0:0:
316,192,63208,1,0,0:0:0:0:
232,188,63500,2,0,L|16:192,1,210
28,276,64665,6,0,B|100:348|208:320|332:348|320:316|320:316,1,280
208,4,66995,1,0,0:0:0:0:
60,104,67577,1,0,0:0:0:0:
60,104,68160,6,0,L|196:152,1,140
268,116,69034,5,0,0:0:0:0:
348,140,69325,2,0,P|424:208|408:248,1,140
336,244,70199,5,0,0:0:0:0:
252,244,70490,2,0,P|164:240|144:200,1,140
152,120,71364,5,0,0:0:0:0:
76,80,71655,2,0,P|144:24|216:52,1,140
356,56,72820,5,0,0:0:0:0:
460,188,73403,2,0,P|416:248|352:272,1,140
272,260,74276,5,0,0:0:0:0:
200,216,74568,2,0,P|256:152|336:152,1,140
392,148,75441,5,0,0:0:0:0:
384,64,75733,2,0,P|296:44|264:92,1,140
196,120,76606,1,0,0:0:0:0:
196,120,77189,1,0,0:0:0:0:
56,216,78063,6,0,P|116:276|176:276,1,140
252,276,78937,1,0,0:0:0:0:
336,264,79228,6,0,P|408:200|376:160,1,140
316,160,80102,1,0,0:0:0:0:
244,116,80393,6,0,B|284:40|348:28|348:28|344:28,1,140
420,68,81267,2,0,L|464:124,2,70
344,104,82140,6,0,P|292:176|236:208,1,140
164,208,83014,1,0,0:0:0:0:
80,200,83305,6,0,P|56:128|100:84,1,140
180,92,84179,1,0,0:0:0:0:
264,96,84471,6,0,P|332:144|304:216,1,140
260,248,85344,1,0,0:0:0:0:
176,240,85636,6,0,B|80:216|40:188|40:188,2,140
