osu file format v14

[General]
AudioFilename: audio.mp3
AudioLeadIn: 0
PreviewTime: 48645
Countdown: 0
SampleSet: Normal
StackLeniency: 0.7
Mode: 0
LetterboxInBreaks: 0
WidescreenStoryboard: 1

[Editor]
DistanceSpacing: 1.2
BeatDivisor: 4
GridSize: 4
TimelineZoom: 1

[Metadata]
Title:Wicked Streets (Remix)
TitleUnicode:Wicked Streets (Remix)
Artist:J. Bernardt
ArtistUnicode:J. Bernardt
Creator:Macanache
Version:Easy
Source:
Tags:trap chill jazz relaxing ReFaller
BeatmapID:1281822
BeatmapSetID:606814

[Difficulty]
HPDrainRate:2
CircleSize:3
OverallDifficulty:1
ApproachRate:2
SliderMultiplier:1
SliderTickRate:1

[Events]
//Background and Video events
0,0,"Dark-Alley-81.jpg",0,0
//Break Periods
//Storyboard Layer 0 (Background)
//Storyboard Layer 1 (Fail)
//Storyboard Layer 2 (Pass)
//Storyboard Layer 3 (Foreground)
//Storyboard Sound Samples

[TimingPoints]
12238,582.52427184466,4,1,0,100,1,0
21558,-100,4,2,0,10,0,0
30878,-100,4,2,0,15,0,0
48645,-100,4,2,0,40,0,0
49519,-100,4,2,0,40,0,0
49665,-100,4,2,0,25,0,0
50102,-100,4,2,0,35,0,0
50247,-100,4,2,0,25,0,0
51267,-100,4,2,0,35,0,0
51412,-100,4,2,0,25,0,0
52432,-100,4,2,0,35,0,0
52577,-100,4,2,0,25,0,0
53305,-100,4,2,0,40,0,0
54325,-100,4,2,0,25,0,0
54762,-100,4,2,0,35,0,0
54907,-100,4,2,0,25,0,0
55927,-100,4,2,0,35,0,0
56072,-100,4,2,0,25,0,0
57092,-100,4,2,0,35,0,0
57237,-100,4,2,0,25,0,0
57966,-100,4,2,0,40,0,0
58985,-100,4,2,0,25,0,0
59422,-100,4,2,0,35,0,0
59568,-100,4,2,0,25,0,0
60587,-100,4,2,0,35,0,0
60733,-100,4,2,0,25,0,0
61752,-100,4,2,0,35,0,0
61898,-100,4,2,0,25,0,0
62626,-100,4,2,0,40,0,0
63645,-100,4,2,0,25,0,0
64082,-100,4,2,0,35,0,0
64228,-100,4,2,0,25,0,0
65247,-100,4,2,0,35,0,0
65393,-100,4,2,0,25,0,0
66995,-100,4,2,0,30,0,0
67286,-100,4,2,0,35,0,0
67577,-100,4,2,0,40,0,0
67869,-100,4,2,0,45,0,0
68160,-100,4,1,0,50,0,1
86801,-100,4,2,0,35,0,0

[HitObjects]
84,44,21558,5,0,0:0:0:0:
208,48,22140,2,0,B|328:64|388:120|420:236,1,300
324,308,24471,2,0,P|260:312|228:288,1,100
4,224,26218,5,0,0:0:0:0:
124,220,26801,2,0,L|196:144,1,100
296,88,27966,2,0,P|348:68|372:108,1,100
360,216,29131,2,0,P|308:232|276:184,1,100
40,176,30878,5,0,0:0:0:0:
140,112,31461,2,0,P|252:140|292:176,2,150
132,224,33791,1,0,0:0:0:0:
104,108,34373,1,0,0:0:0:0:
20,192,34956,2,0,P|20:268|36:312,1,100
148,300,36121,1,0,0:0:0:0:
208,300,36412,2,0,L|308:260,1,100
472,320,37869,5,0,0:0:0:0:
384,240,38451,2,0,B|312:164,3,100
204,124,40781,6,0,L|100:84,2,100
312,72,42529,1,0,0:0:0:0:
432,80,43111,2,0,P|472:224|360:308,1,300
248,308,45441,5,0,0:0:0:0:
148,244,46024,2,0,L|224:176,2,100
64,168,47771,1,0,0:0:0:0:
232,108,48645,6,0,L|268:156,3,50
144,132,50102,1,0,0:0:0:0:
52,56,50684,1,0,0:0:0:0:
56,176,51267,1,0,0:0:0:0:
176,176,51849,1,0,0:0:0:0:
468,116,53305,6,0,L|468:172,3,50
348,168,54762,1,0,0:0:0:0:
264,252,55344,1,0,0:0:0:0:
144,244,55927,1,0,0:0:0:0:
24,240,56509,1,0,0:0:0:0:
121,143,57966,6,0,L|72:140,1,50
74,80,58548,2,0,L|124:80,1,50
244,72,59422,2,0,P|324:156|288:216,1,200
176,248,61170,6,0,L|76:220,3,100
60,104,63500,1,0,0:0:0:0:
300,108,64665,1,0,0:0:0:0:
420,108,65247,1,0,0:0:0:0:
408,228,65830,2,0,L|308:220,1,100
108,104,68160,5,0,0:0:0:0:
212,48,68742,2,0,P|352:80|396:124,1,200
216,280,71072,2,0,P|140:340|40:324,1,200
56,208,72820,1,0,0:0:0:0:
128,112,73403,6,0,P|248:108|308:180,1,200
456,168,75733,2,0,B|524:216|508:300|444:336,1,200
392,228,77480,1,0,0:0:0:0:
280,184,78063,6,0,P|148:164|76:200,1,200
292,356,80393,2,0,L|464:244,1,200
476,128,82140,1,0,0:0:0:0:
368,72,82723,2,0,P|268:44|212:128,1,200
12,236,85053,2,0,P|60:324|156:324,1,200
272,324,86801,1,0,0:0:0:0:
