osu file format v14

[General]
AudioFilename: audio.mp3
AudioLeadIn: 0
PreviewTime: 17135
Countdown: 0
SampleSet: Soft
StackLeniency: 0.7
Mode: 0
LetterboxInBreaks: 0
WidescreenStoryboard: 0

[Editor]
Bookmarks: 63587,71329,86813
DistanceSpacing: 0.9
BeatDivisor: 4
GridSize: 8
TimelineZoom: 2.6

[Metadata]
Title:BREAKING DAWN (Japanese Ver.) Produced by HYDE (TV Size)
TitleUnicode:BREAKING DAWN (Japanese Ver.) Produced by HYDE (TV Size)
Artist:J-JUN
ArtistUnicode:ジェジュン
Creator:AirinCat
Version:Insane
Source:NOBLESSE -ノブレス-
Tags:kim jae joong 노블레스 キム jaejoong 김재중 jejung anime opening line webtoon rock jrock japanese crunchyroll 城戸紘志 辻村有紀 Hiroshi Kido Yuki Tsujimura PABLO Ali Taku Yoshioka
BeatmapID:2646961
BeatmapSetID:1273865

[Difficulty]
HPDrainRate:5
CircleSize:4
OverallDifficulty:7.4
ApproachRate:9
SliderMultiplier:1.7
SliderTickRate:1

[Events]
//Background and Video events
0,0,"230228.jpg",0,0
Video,0,"ramen.mp4"
//Break Periods
//Storyboard Layer 0 (Background)
//Storyboard Layer 1 (Fail)
//Storyboard Layer 2 (Pass)
//Storyboard Layer 3 (Foreground)
//Storyboard Layer 4 (Overlay)
//Storyboard Sound Samples

[TimingPoints]
1652,483.870967741935,4,2,1,40,1,0
17135,-95.2380952380952,4,2,1,50,0,0
23668,-83.3333333333333,4,2,1,50,0,0
24877,-90.9090909090909,4,2,1,50,0,0
26329,-83.3333333333333,4,2,1,50,0,0
28748,-62.5,4,2,1,60,0,0
31651,-125,4,2,1,50,0,0
32014,-125,4,2,1,5,0,0
32135,-71.4285714285714,4,2,1,50,0,0
32498,-71.4285714285714,4,2,1,5,0,0
32619,-50,4,2,1,80,0,1
48103,-90.9090909090909,4,2,1,60,0,0
54877,-142.857142857143,4,2,1,45,0,0
55240,-142.857142857143,4,2,1,5,0,0
55361,-250,4,2,1,45,0,0
55724,-250,4,2,1,5,0,0
55845,-71.4285714285714,4,2,1,65,0,0
63587,-66.6666666666667,4,2,1,70,0,0
67458,-58.8235294117647,4,2,1,70,0,0
70361,-90.9090909090909,4,2,1,60,0,0
71208,-90.9090909090909,4,2,1,5,0,0
71329,-50,4,2,1,80,0,1
86692,-100,4,2,1,70,0,0
86813,-100,4,2,1,40,0,0
88748,-100,4,2,1,10,0,0

[Colours]
Combo1 : 255,91,91
Combo2 : 192,192,192
Combo3 : 121,115,115
Combo4 : 255,176,176

[HitObjects]
15,178,1652,5,2,0:2:0:0:
44,261,3587,5,2,0:2:0:0:
10,353,5522,37,2,0:2:0:0:
445,131,9393,5,2,0:2:0:0:
497,229,11329,37,2,0:2:0:0:
449,336,13264,5,2,0:2:0:0:
26,367,17135,38,0,L|39:278,1,89.2499972763062,0|0,1:2|0:2,0:2:0:0:
39,278,17498,1,2,0:3:0:0:
39,278,17619,2,0,P|88:316|155:282,1,133.874995914459,2|0,1:2|0:2,0:2:0:0:
203,218,18103,2,0,P|195:172|183:124,1,89.2499972763062,2|0,1:2|0:2,0:2:0:0:
372,10,18587,2,0,P|319:19|318:106,1,133.874995914459,2|0,1:2|0:2,0:2:0:0:
381,154,19071,6,0,L|438:144,1,44.6249986381531,2|0,1:2|0:2,0:2:0:0:
512,204,19313,1,2,0:2:0:0:
512,204,19434,1,2,0:3:0:0:
512,204,19555,2,0,L|493:305,1,89.2499972763062,2|2,1:2|0:2,0:2:0:0:
476,368,19918,1,2,0:3:0:0:
476,368,20039,1,2,1:2:0:0:
330,281,20281,37,2,0:2:0:0:
330,281,20401,1,2,0:3:0:0:
330,281,20522,2,0,L|380:291,1,44.6249986381531,2|0,1:2|0:2,0:2:0:0:
351,366,20764,2,0,L|300:355,1,44.6249986381531,2|0,0:2|0:2,0:2:0:0:
232,252,21006,6,0,L|211:352,1,89.2499972763062,0|0,1:2|0:2,0:2:0:0:
213,339,21369,1,2,0:3:0:0:
213,339,21490,2,0,P|155:306|97:338,1,133.874995914459,2|0,1:2|0:2,0:2:0:0:
28,277,21974,2,0,P|53:241|47:198,1,89.2499972763062,2|0,1:2|0:2,0:2:0:0:
47,198,22337,1,2,0:3:0:0:
47,198,22458,2,0,P|99:225|166:173,1,133.874995914459,2|0,1:2|0:2,0:2:0:0:
196,93,22942,38,0,P|191:61|188:31,1,44.6249986381531,2|0,1:2|0:2,0:2:0:0:
113,101,23184,1,2,0:2:0:0:
113,101,23305,1,2,0:3:0:0:
113,101,23426,1,2,1:2:0:0:
383,71,23668,1,2,0:2:0:0:
383,71,23789,1,2,0:2:0:0:
325,123,23910,2,0,L|314:173,1,50.9999984436036,2|0,1:2|0:2,0:2:0:0:
379,245,24151,2,0,L|399:137,1,101.999996887207,2|2,1:2|0:2,0:2:0:0:
40,322,24756,5,2,0:3:0:0:
37,329,24877,2,0,P|85:339|134:351,1,93.5000028533936,0|0,1:2|0:2,0:2:0:0:
218,365,25240,1,2,0:3:0:0:
222,372,25361,2,0,P|251:336|244:288,1,93.5000028533936,2|0,1:2|0:2,0:2:0:0:
182,225,25724,1,2,0:3:0:0:
175,222,25845,2,0,L|206:76,1,140.25000428009,2|0,1:2|0:2,0:2:0:0:
318,15,26329,2,0,P|373:26|425:40,1,101.999996887207,2|0,1:2|0:2,0:2:0:0:
486,107,26692,1,2,0:2:0:0:
410,162,26813,38,0,P|397:213|381:272,1,101.999996887207,2|2,1:2|0:2,0:2:0:0:
440,338,27176,1,2,0:3:0:0:
440,338,27297,1,2,1:2:0:0:
205,270,27539,1,2,0:2:0:0:
205,270,27660,1,2,0:3:0:0:
205,270,27781,2,0,L|266:285,1,50.9999984436036,2|0,1:2|0:2,0:2:0:0:
235,357,28022,2,0,L|185:344,1,50.9999984436036,2|0,0:2|0:2,0:2:0:0:
82,353,28264,2,0,P|53:305|71:256,1,101.999996887207,2|0,1:2|0:2,0:2:0:0:
124,183,28627,1,2,0:3:0:0:
121,191,28748,6,0,L|101:114,1,68,0|0,1:2|0:2,0:2:0:0:
224,23,28990,2,0,L|211:95,1,68,2|0,1:2|0:2,0:2:0:0:
290,204,29232,2,0,L|367:224,1,68,2|0,1:2|0:2,0:2:0:0:
457,92,29474,2,0,L|385:105,1,68,2|0,1:2|0:2,0:2:0:0:
478,334,29716,38,0,P|492:261|516:187,1,136,2|0,1:2|1:2,0:2:0:0:
510,202,30079,1,2,0:2:0:0:
510,202,30200,2,0,L|430:177,1,68,0|0,1:2|0:2,0:2:0:0:
286,334,30442,2,0,L|330:323,3,34,0|0|0|0,1:2|1:2|1:2|1:2,0:2:0:0:
209,356,30684,5,8,0:2:0:0:
209,356,30805,1,0,1:2:0:0:
209,356,30926,2,0,L|189:283,1,68,4|0,0:3|1:2,0:2:0:0:
134,238,31168,1,4,0:3:0:0:
62,258,31289,1,0,1:2:0:0:
10,203,31410,1,8,0:2:0:0:
30,131,31531,1,4,1:2:0:0:
24,119,31651,38,0,L|140:93,1,102,2|0,0:2|0:2,0:2:0:0:
137,13,32135,6,0,B|117:54|167:97|180:66|230:93|207:154,1,178.499994552612,2|0,0:2|0:2,0:2:0:0:
198,239,32619,6,0,P|263:140|386:191,1,255,4|0,1:1|0:2,0:2:0:0:
498,176,33103,2,0,L|476:269,1,85,8|0,0:2|0:2,0:2:0:0:
391,353,33345,1,2,0:3:0:0:
391,353,33466,1,2,0:3:0:0:
391,353,33587,2,0,L|367:262,1,85,0|0,1:2|0:2,0:2:0:0:
281,219,33829,2,0,P|240:229|183:242,1,85,2|2,0:3|0:3,0:2:0:0:
346,101,34071,2,0,P|352:60|327:27,1,85,10|0,0:2|0:2,0:2:0:0:
169,73,34313,5,2,0:2:0:0:
169,73,34434,1,2,0:3:0:0:
169,73,34555,2,0,P|211:81|252:89,1,85,2|0,1:3|0:2,0:2:0:0:
357,183,34797,2,0,B|424:144|424:144|486:148|484:208,1,170,2|8,0:2|0:2,0:2:0:0:
307,374,35281,1,2,0:2:0:0:
307,374,35401,1,2,0:3:0:0:
307,374,35522,2,0,P|280:341|282:298,1,85,0|0,1:2|0:2,0:2:0:0:
207,220,35764,2,0,P|159:227|114:239,1,85,2|0,0:2|0:2,0:2:0:0:
261,137,36006,2,0,P|268:93|243:60,1,85,10|0,1:2|0:2,0:2:0:0:
70,17,36248,37,4,0:3:0:0:
104,85,36369,1,4,0:3:0:0:
162,34,36490,2,0,P|242:21|357:3,1,170,2|0,1:2|0:2,0:2:0:0:
400,67,36853,2,0,L|386:156,1,85,2|8,0:2|0:2,0:2:0:0:
181,359,37216,2,0,P|157:271|134:183,1,170,2|0,0:2|1:2,0:2:0:0:
137,194,37579,1,4,0:3:0:0:
137,194,37700,2,0,L|46:223,1,85,2|0,0:2|0:2,0:2:0:0:
142,93,37942,2,0,B|199:83|219:124|200:135|223:176|279:164,1,170,10|0,0:2|0:2,0:2:0:0:
360,103,38305,1,2,0:3:0:0:
423,178,38426,6,0,L|403:260,1,85,0|0,1:2|0:2,0:2:0:0:
320,366,38668,1,4,0:3:0:0:
320,366,38789,1,4,0:3:0:0:
320,366,38910,2,0,L|300:284,1,85,8|0,0:2|0:2,0:2:0:0:
508,270,39151,2,0,L|489:359,1,85,2|0,1:2|0:2,0:2:0:0:
402,260,39393,1,10,0:2:0:0:
402,260,39514,1,0,1:2:0:0:
418,14,39756,37,0,1:2:0:0:
374,76,39877,1,10,0:2:0:0:
423,134,39998,1,8,0:2:0:0:
496,111,40119,1,8,0:2:0:0:
496,34,40240,1,8,0:2:0:0:
418,14,40361,6,0,P|291:30|167:57,1,255,6|0,1:2|0:2,0:2:0:0:
62,125,40845,2,0,P|36:91|49:48,1,85,8|0,0:2|0:2,0:2:0:0:
173,156,41087,1,2,0:3:0:0:
173,156,41208,1,2,0:3:0:0:
173,156,41329,2,0,L|151:246,1,85,0|0,1:2|0:2,0:2:0:0:
135,352,41571,2,0,P|93:346|70:310,1,85,2|2,0:3|0:3,0:2:0:0:
233,307,41813,2,0,L|320:337,1,85,10|0,0:2|0:2,0:2:0:0:
464,332,42055,37,2,0:2:0:0:
464,332,42176,1,2,0:3:0:0:
464,332,42297,2,0,P|476:285|494:241,1,85,2|0,1:3|0:2,0:2:0:0:
429,138,42539,2,0,P|348:125|315:202,1,170,2|8,0:2|0:2,0:2:0:0:
161,384,43022,1,2,0:2:0:0:
161,384,43143,1,2,0:3:0:0:
161,384,43264,2,0,P|185:350|179:305,1,85,0|0,1:2|0:2,0:2:0:0:
108,242,43506,2,0,P|61:252|-5:259,1,85,2|0,0:2|0:2,0:2:0:0:
157,152,43748,2,0,P|142:103|136:67,1,85,10|0,0:2|0:2,0:2:0:0:
206,2,43990,5,4,0:3:0:0:
261,54,44111,1,4,0:3:0:0:
323,10,44232,2,0,B|371:16|388:61|358:65|372:121|426:123,1,170,2|0,1:2|0:2,0:2:0:0:
510,65,44595,2,0,B|502:23|502:23|461:42,1,85,2|8,0:2|0:2,0:2:0:0:
349,368,44958,1,2,0:2:0:0:
349,368,45079,1,2,0:3:0:0:
349,368,45200,2,0,P|396:288|345:220,1,170,0|0,1:2|0:2,0:2:0:0:
361,228,45563,1,4,0:3:0:0:
361,228,45684,2,0,P|393:198|436:214,1,85,10|0,0:2|0:2,0:2:0:0:
274,287,45926,2,0,P|233:276|174:265,1,85,2|0,0:2|0:2,0:2:0:0:
73,150,46168,38,0,B|52:91|52:91|69:17|139:37,1,170,2|0,1:2|0:2,0:2:0:0:
220,61,46531,2,0,P|209:102|201:143,1,85,2|8,0:2|0:2,0:2:0:0:
40,382,46893,2,0,P|20:296|-1:216,1,170,2|0,0:2|1:2,0:2:0:0:
0,216,47256,1,2,0:3:0:0:
0,216,47377,6,0,B|31:186|31:186|74:209,1,85,8|8,0:2|0:2,0:2:0:0:
214,275,47619,1,8,0:2:0:0:
267,217,47740,1,8,0:2:0:0:
236,145,47861,1,8,0:2:0:0:
156,134,47982,1,8,0:2:0:0:
149,138,48103,6,0,L|168:44,1,93.5000028533936,4|8,1:2|0:3,0:2:0:0:
50,82,48587,1,4,0:3:0:0:
50,82,48829,1,0,1:2:0:0:
267,34,49071,2,0,B|307:39|307:39|312:47|312:47|361:57,1,93.5000028533936,14|4,0:2|0:3,0:2:0:0:
354,55,49434,1,2,1:2:0:0:
354,55,49555,1,0,1:2:0:0:
402,253,49797,1,8,0:3:0:0:
411,238,49918,1,8,0:3:0:0:
421,222,50039,5,2,1:2:0:0:
208,174,50281,1,8,0:3:0:0:
208,174,50522,1,4,0:3:0:0:
303,364,50764,1,0,1:2:0:0:
303,364,50885,1,0,1:2:0:0:
303,364,51006,2,0,B|331:322|331:322|307:280,1,93.5000028533936,14|0,0:2|1:2,0:2:0:0:
88,202,51490,2,0,L|44:217,1,46.7500014266968,8|0,0:2|0:2,0:2:0:0:
133,107,51732,2,0,L|118:62,1,46.7500014266968,8|0,0:2|0:2,0:2:0:0:
226,154,51974,38,0,P|274:137|337:118,1,93.5000028533936,2|8,1:2|0:3,0:2:0:0:
201,272,52458,1,4,0:3:0:0:
201,272,52700,1,0,1:2:0:0:
430,174,52942,2,0,B|419:139|419:139|423:127|423:127|409:82,1,93.5000028533936,14|4,0:2|0:3,0:2:0:0:
409,84,53305,1,2,1:2:0:0:
409,84,53426,1,0,1:2:0:0:
350,306,53668,1,8,0:3:0:0:
333,289,53789,1,8,0:3:0:0:
320,274,53910,5,2,1:2:0:0:
512,231,54151,1,8,0:3:0:0:
512,231,54393,1,4,0:3:0:0:
232,47,54635,1,0,1:2:0:0:
215,159,54877,38,0,P|258:151|303:144,1,89.2499972763062,2|0,0:3|0:2,0:2:0:0:
303,145,55361,6,0,B|322:122|322:122|296:104,1,51,2|0,0:2|0:2,0:2:0:0:
94,96,55845,6,0,L|115:222,1,118.999996368408,6|0,1:2|0:2,0:2:0:0:
67,291,56208,1,2,0:3:0:0:
63,285,56329,2,0,L|4:299,1,59.4999981842042,2|0,1:2|0:2,0:2:0:0:
113,368,56571,1,2,0:3:0:0:
113,368,56692,1,2,0:3:0:0:
113,368,56813,2,0,P|173:352|244:335,1,118.999996368408,2|0,1:2|0:2,0:2:0:0:
406,384,57297,2,0,P|355:357|359:298,1,118.999996368408,2|0,1:2|0:2,0:2:0:0:
421,226,57660,1,2,0:3:0:0:
415,234,57781,22,0,L|482:250,1,59.4999981842042,2|0,1:2|0:2,0:2:0:0:
498,164,58022,2,0,L|440:150,1,59.4999981842042,2|0,0:2|0:2,0:2:0:0:
376,83,58264,2,0,L|392:16,1,59.4999981842042,2|0,1:2|0:2,0:2:0:0:
306,0,58506,2,0,L|292:57,1,59.4999981842042,2|0,0:2|0:2,0:2:0:0:
207,99,58748,2,0,L|140:83,1,59.4999981842042,2|0,1:2|0:2,0:2:0:0:
124,169,58990,1,2,0:2:0:0:
124,169,59111,1,2,0:3:0:0:
124,169,59232,2,0,L|181:182,1,59.4999981842042,2|0,1:2|0:2,0:2:0:0:
275,171,59474,21,2,0:3:0:0:
275,171,59595,1,2,0:3:0:0:
275,171,59716,2,0,L|245:304,1,118.999996368408,0|0,1:2|0:2,0:2:0:0:
183,357,60079,1,2,0:3:0:0:
185,365,60200,2,0,P|147:321|87:338,1,118.999996368408,2|2,1:2|0:3,0:2:0:0:
0,362,60563,1,2,0:3:0:0:
5,371,60684,2,0,L|27:250,1,118.999996368408,2|0,1:2|0:2,0:2:0:0:
112,6,61168,2,0,P|153:45|142:101,1,118.999996368408,2|0,1:2|0:2,0:2:0:0:
64,145,61531,1,2,0:3:0:0:
65,153,61651,22,0,L|8:137,1,59.4999981842042,2|0,1:2|0:2,0:2:0:0:
112,237,61893,1,2,0:2:0:0:
112,237,62014,1,2,0:3:0:0:
112,237,62135,2,0,L|92:307,1,59.4999981842042,2|0,1:2|0:2,0:2:0:0:
189,189,62377,1,2,0:2:0:0:
189,189,62498,1,2,0:2:0:0:
249,239,62619,2,0,L|313:249,1,59.4999981842042,2|0,1:2|0:2,0:2:0:0:
388,205,62861,2,0,L|397:139,1,59.4999981842042,10|0,0:2|0:2,0:2:0:0:
263,323,63103,2,0,L|255:387,1,59.4999981842042,10|0,0:2|1:2,0:2:0:0:
83,372,63466,21,0,1:0:0:0:
83,372,63587,1,6,1:2:0:0:
13,262,63829,1,2,1:3:0:0:
129,191,64071,1,2,1:3:0:0:
199,301,64313,1,2,1:3:0:0:
17,157,64555,21,2,1:3:0:0:
17,157,64797,1,2,1:3:0:0:
343,182,65039,2,0,P|289:196|212:226,1,127.500004863739,2|2,1:3|1:3,0:2:0:0:
141,186,65401,1,2,0:3:0:0:
141,186,65522,22,0,P|106:135|134:81,1,127.500004863739,2|2,1:3|1:3,0:2:0:0:
286,0,66006,1,2,1:3:0:0:
134,81,66248,1,2,1:3:0:0:
227,228,66490,1,2,1:3:0:0:
227,228,66732,1,2,1:3:0:0:
375,147,66974,1,2,1:3:0:0:
375,147,67216,2,0,L|305:124,1,63.7500024318696,2|0,1:3|0:2,0:2:0:0:
512,208,67458,21,0,1:2:0:0:
512,208,67579,1,0,1:2:0:0:
512,208,67700,2,0,P|504:172|497:137,1,72.2500013780594,2|0,1:3|1:2,0:2:0:0:
451,321,67942,2,0,L|364:344,1,72.2500013780594,2|0,1:3|1:2,0:2:0:0:
252,211,68184,2,0,L|332:229,1,72.2500013780594,2|0,1:3|1:2,0:2:0:0:
242,360,68426,21,2,1:3:0:0:
165,368,68547,1,0,1:2:0:0:
129,297,68668,2,0,L|152:216,1,72.2500013780594,0|0,1:2|1:2,0:2:0:0:
132,109,68910,1,0,1:2:0:0:
54,91,69031,1,0,1:2:0:0:
10,156,69151,2,0,L|26:230,1,72.2500013780594,8|0,1:2|1:2,0:2:0:0:
222,128,69393,22,0,L|206:54,1,72.2500013780594,8|0,0:2|1:2,0:2:0:0:
300,31,69635,1,4,0:3:0:0:
300,31,69756,1,0,1:2:0:0:
300,31,69877,2,0,L|318:107,1,72.2500013780594,4|0,0:3|1:2,0:2:0:0:
387,140,70119,1,10,0:2:0:0:
449,91,70240,1,4,1:2:0:0:
495,167,70361,6,0,P|485:212|477:272,1,93.5000028533936,2|0,0:2|0:2,0:2:0:0:
478,258,70664,2,0,L|520:266,2,23.3750007133484,0|0|0,1:2|1:2|1:2,0:2:0:0:
478,258,70845,2,0,P|413:249|382:307,1,140.25000428009,2|0,1:2|0:2,0:2:0:0:
248,363,71329,6,0,P|176:339|176:249,1,170,4|0,1:1|0:2,0:2:0:0:
224,151,71692,1,2,0:3:0:0:
230,158,71813,2,0,P|247:120|234:80,1,85,10|0,0:2|0:2,0:2:0:0:
47,24,72055,1,2,0:3:0:0:
47,24,72176,1,2,0:3:0:0:
47,24,72297,2,0,P|63:103|141:117,1,170,2|0,1:2|0:2,0:2:0:0:
471,44,72781,2,0,B|419:2|419:2|348:6|341:63,1,170,10|0,0:2|0:2,0:2:0:0:
264,128,73143,1,2,0:3:0:0:
259,138,73264,6,0,L|235:52,1,85,2|0,1:2|0:2,0:2:0:0:
372,179,73506,2,0,P|415:167|461:161,1,85,2|0,0:2|0:2,0:2:0:0:
303,274,73748,2,0,P|311:309|318:357,1,85,10|0,0:2|0:2,0:2:0:0:
196,229,73990,2,0,P|155:238|112:244,1,85,2|0,0:2|0:2,0:2:0:0:
38,320,74232,2,0,P|-8:253|28:181,1,170,2|2,1:2|0:2,0:2:0:0:
323,54,74716,2,0,L|303:157,1,85,10|0,0:2|0:2,0:2:0:0:
196,229,74958,37,4,0:3:0:0:
145,168,75079,1,4,0:3:0:0:
218,138,75200,2,0,B|275:125|303:170|269:183|319:223|362:208,1,170,2|0,1:2|0:2,0:2:0:0:
424,274,75563,1,4,0:3:0:0:
492,221,75684,2,0,P|480:132|469:39,1,170,10|0,0:2|0:2,0:2:0:0:
388,2,76047,1,4,0:3:0:0:
316,64,76168,2,0,B|233:88|233:88|188:72|194:20,1,170,2|0,1:2|0:2,0:2:0:0:
3,174,76651,2,0,P|81:187|98:265,1,170,10|0,0:2|0:2,0:2:0:0:
104,370,77014,1,4,0:3:0:0:
109,360,77135,6,0,L|24:342,1,85,2|0,1:2|0:2,0:2:0:0:
198,209,77377,1,0,1:2:0:0:
198,209,77498,1,0,1:2:0:0:
198,209,77619,2,0,L|185:294,1,85,10|0,0:2|0:2,0:2:0:0:
333,384,77861,1,2,1:2:0:0:
398,344,77982,1,2,1:2:0:0:
365,274,78103,2,0,P|324:264|280:257,1,85,10|0,0:2|1:2,0:2:0:0:
429,213,78345,2,0,P|437:167|446:122,1,85,2|0,0:2|1:2,0:2:0:0:
359,2,78587,37,10,0:2:0:0:
327,71,78708,1,8,0:2:0:0:
251,83,78829,1,8,0:2:0:0:
196,29,78950,1,8,0:2:0:0:
247,93,79071,6,0,P|236:173|221:274,1,170,6|0,1:2|0:2,0:2:0:0:
135,334,79434,1,2,0:3:0:0:
136,342,79555,2,0,L|53:327,1,85,10|0,0:2|0:2,0:2:0:0:
4,151,79797,1,2,0:3:0:0:
4,151,79918,1,2,0:3:0:0:
4,151,80039,2,0,P|48:219|126:201,1,170,0|0,1:2|0:2,0:2:0:0:
366,14,80522,2,0,B|311:76|311:76|358:154,1,170,8|0,0:2|0:2,0:2:0:0:
424,220,80885,1,2,0:2:0:0:
512,166,81006,38,0,L|500:79,1,85,2|0,1:2|0:2,0:2:0:0:
424,220,81248,2,0,L|436:307,1,85,2|0,0:2|0:2,0:2:0:0:
325,373,81490,2,0,P|285:359|231:347,1,85,10|0,0:2|0:2,0:2:0:0:
150,233,81732,2,0,P|191:222|231:209,1,85,2|0,0:2|0:2,0:2:0:0:
105,346,81974,2,0,P|30:290|55:202,1,170,2|0,1:2|0:2,0:2:0:0:
255,6,82458,2,0,P|246:44|238:102,1,85,10|0,0:2|0:2,0:2:0:0:
135,130,82700,5,4,0:3:0:0:
71,73,82821,1,4,0:3:0:0:
18,139,82942,2,0,P|27:176|39:226,1,85,2|0,1:2|0:2,0:2:0:0:
29,339,83184,2,0,P|70:344|103:319,1,85,2|0,0:2|0:2,0:2:0:0:
245,231,83426,2,0,P|204:222|163:212,1,85,10|0,0:2|0:2,0:2:0:0:
302,354,83668,37,4,0:3:0:0:
302,354,83789,1,4,0:3:0:0:
303,354,83910,2,0,P|370:307|353:213,1,170,2|0,1:2|0:2,0:2:0:0:
183,21,84393,2,0,L|285:-6,1,85,8|0,0:2|0:2,0:2:0:0:
307,107,84635,5,2,0:3:0:0:
307,107,84756,1,2,0:3:0:0:
307,107,84877,2,0,L|211:131,1,85,2|0,1:2|0:2,0:2:0:0:
108,197,85119,1,4,0:3:0:0:
108,197,85240,1,4,0:3:0:0:
108,197,85361,2,0,B|75:165|75:165|92:129,1,85,10|0,0:2|0:2,0:2:0:0:
232,253,85603,2,0,P|223:289|214:348,1,85,2|0,0:2|0:2,0:2:0:0:
351,218,85845,37,2,1:2:0:0:
117,15,86087,2,0,L|30:34,1,85,8|8,0:2|0:2,0:2:0:0:
178,99,86329,1,8,0:2:0:0:
220,35,86450,1,8,0:2:0:0:
296,27,86571,1,8,0:2:0:0:
355,78,86692,1,8,0:2:0:0:
351,96,86813,5,2,0:2:0:0:
256,192,86934,12,0,88748,0:2:0:0:
