osu file format v14

[General]
AudioFilename: audio.mp3
AudioLeadIn: 0
PreviewTime: 17135
Countdown: 0
SampleSet: Soft
StackLeniency: 0.7
Mode: 0
LetterboxInBreaks: 0
WidescreenStoryboard: 1

[Editor]
Bookmarks: 63587,71329,86813
DistanceSpacing: 0.9
BeatDivisor: 4
GridSize: 8
TimelineZoom: 1.6

[Metadata]
Title:BREAKING DAWN (Japanese Ver.) Produced by HYDE (TV Size)
TitleUnicode:BREAKING DAWN (Japanese Ver.) Produced by HYDE (TV Size)
Artist:J-JUN
ArtistUnicode:ジェジュン
Creator:AirinCat
Version:Hard
Source:NOBLESSE -ノブレス-
Tags:kim jae joong 노블레스 キム jaejoong 김재중 jejung anime opening line webtoon rock jrock japanese crunchyroll 城戸紘志 辻村有紀 Hiroshi Kido Yuki Tsujimura PABLO Ali Taku Yoshioka
BeatmapID:2646960
BeatmapSetID:1273865

[Difficulty]
HPDrainRate:4
CircleSize:3.8
OverallDifficulty:6
ApproachRate:7.6
SliderMultiplier:1.4
SliderTickRate:1

[Events]
//Background and Video events
0,0,"230228.jpg",0,0
Video,0,"ramen.mp4"
//Break Periods
//Storyboard Layer 0 (Background)
//Storyboard Layer 1 (Fail)
//Storyboard Layer 2 (Pass)
//Storyboard Layer 3 (Foreground)
//Storyboard Layer 4 (Overlay)
//Storyboard Sound Samples

[TimingPoints]
1652,483.870967741935,4,2,1,40,1,0
17135,-95.2380952380952,4,2,1,50,0,0
23668,-83.3333333333333,4,2,1,50,0,0
24877,-90.9090909090909,4,2,1,50,0,0
26329,-83.3333333333333,4,2,1,50,0,0
28748,-62.5,4,2,1,60,0,0
31651,-125,4,2,1,50,0,0
32014,-125,4,2,1,5,0,0
32135,-83.3333333333333,4,2,1,50,0,0
32498,-83.3333333333333,4,2,1,5,0,0
32619,-62.5,4,2,1,80,0,1
48103,-83.3333333333333,4,2,1,60,0,0
54877,-142.857142857143,4,2,1,45,0,0
55361,-250,4,2,1,45,0,0
55845,-71.4285714285714,4,2,1,65,0,0
63587,-66.6666666666667,4,2,1,70,0,0
67458,-58.8235294117647,4,2,1,70,0,0
70361,-90.9090909090909,4,2,1,60,0,0
71208,-90.9090909090909,4,2,1,5,0,0
71329,-62.5,4,2,1,80,0,1
86692,-100,4,2,1,70,0,0
86813,-100,4,2,1,40,0,0
88748,-100,4,2,1,10,0,0

[Colours]
Combo1 : 255,91,91
Combo2 : 192,192,192
Combo3 : 121,115,115
Combo4 : 255,176,176

[HitObjects]
20,218,1652,5,2,0:2:0:0:
58,286,3587,5,2,0:2:0:0:
21,361,5522,37,2,0:2:0:0:
447,149,9393,5,2,0:2:0:0:
396,243,11329,37,2,0:2:0:0:
460,342,13264,5,2,0:2:0:0:
19,329,17135,38,0,P|13:292|5:256,1,73.4999977569581,0|0,1:2|0:2,0:0:0:0:
40,164,17619,2,0,P|88:135|137:157,1,110.249996635437,2|0,1:2|0:2,0:0:0:0:
134,154,18103,2,0,P|169:143|205:137,1,73.4999977569581,2|0,1:2|0:2,0:0:0:0:
281,206,18587,2,0,P|267:259|259:314,1,110.249996635437,2|0,1:2|0:2,0:0:0:0:
259,314,19071,5,2,1:2:0:0:
336,378,19313,1,2,0:2:0:0:
432,332,19555,1,2,1:2:0:0:
361,271,19797,1,2,0:2:0:0:
431,200,20039,2,0,L|445:122,1,73.4999977569581,2|2,1:2|0:2,0:0:0:0:
443,127,20401,1,2,0:3:0:0:
443,127,20522,1,2,1:2:0:0:
363,64,20764,37,2,0:2:0:0:
363,64,20885,1,2,0:3:0:0:
363,64,21006,2,0,L|266:46,1,73.4999977569581,0|0,1:2|0:2,0:0:0:0:
203,80,21490,2,0,P|170:122|186:172,1,110.249996635437,2|0,1:2|0:2,0:0:0:0:
186,172,21974,2,0,L|170:258,1,73.4999977569581,2|0,1:2|0:2,0:0:0:0:
84,302,22458,2,0,P|32:287|17:235,1,110.249996635437,2|0,1:2|0:2,0:0:0:0:
17,237,22942,5,2,1:2:0:0:
77,145,23184,2,0,P|95:147|119:151,2,36.749998878479,2|2|2,0:2|0:3|1:2,0:2:0:0:
25,64,23668,1,2,0:2:0:0:
25,64,23789,1,2,0:2:0:0:
25,64,23910,1,2,1:2:0:0:
106,17,24151,2,0,L|196:30,1,83.9999974365235,2|2,1:2|0:2,0:0:0:0:
285,178,24877,38,0,L|271:253,1,77.0000023498536,0|0,1:2|0:2,0:0:0:0:
347,331,25361,2,0,P|401:319|476:309,1,115.50000352478,2|0,1:2|0:3,0:0:0:0:
460,310,25845,2,0,L|445:221,1,77.0000023498536,2|0,1:2|0:0,0:0:0:0:
485,140,26329,2,0,B|503:100|503:100|475:71,1,83.9999974365235,2|0,1:2|0:2,0:0:0:0:
475,71,26692,1,2,0:2:0:0:
475,71,26813,5,2,1:2:0:0:
384,117,27055,1,2,0:2:0:0:
332,27,27297,1,2,1:2:0:0:
241,68,27539,1,2,0:2:0:0:
287,155,27781,1,2,1:2:0:0:
196,205,28022,1,2,0:2:0:0:
196,205,28143,1,2,0:3:0:0:
196,205,28264,2,0,P|193:264|186:345,1,125.999996154785,2|2,1:2|0:3,0:0:0:0:
187,330,28748,37,0,1:2:0:0:
306,273,28990,1,2,1:2:0:0:
385,373,29232,1,2,1:2:0:0:
496,310,29474,1,2,1:2:0:0:
496,310,29595,1,2,0:3:0:0:
496,310,29716,2,0,P|485:245|471:182,1,112,2|0,1:2|1:2,0:0:0:0:
509,72,30200,1,0,1:2:0:0:
377,23,30442,2,0,L|312:37,1,56,0|0,1:2|1:2,0:0:0:0:
262,97,30684,6,0,L|273:160,3,56,8|0|4|0,0:2|1:2|0:3|1:2,0:0:0:0:
337,201,31168,2,0,L|401:186,2,56,4|0|8,0:3|1:2|0:2,0:0:0:0:
292,268,31531,37,4,1:2:0:0:
292,268,31651,2,0,L|187:290,1,84,2|0,0:2|0:2,0:0:0:0:
156,343,32135,6,0,P|87:330|75:266,1,125.999996154785,2|0,0:2|0:2,0:0:0:0:
0,248,32619,6,0,P|67:221|60:142,1,168,4|0,1:1|0:2,0:0:0:0:
9,72,33103,1,8,0:2:0:0:
169,153,33345,1,2,0:3:0:0:
169,153,33466,1,2,0:3:0:0:
169,153,33587,2,0,P|230:142|310:131,1,112,0|2,1:2|0:3,0:0:0:0:
370,35,34071,1,10,0:2:0:0:
481,131,34313,6,0,P|515:88|503:36,1,112,2|2,0:2|1:3,0:0:0:0:
377,129,34797,2,0,L|394:243,1,112,2|8,0:2|0:2,0:0:0:0:
383,366,35281,1,2,0:2:0:0:
383,366,35401,1,2,0:3:0:0:
384,365,35522,2,0,P|437:369|473:328,1,112,0|2,1:2|0:2,0:0:0:0:
303,274,36006,2,0,P|250:283|192:294,1,112,10|4,1:2|0:3,0:0:0:0:
130,357,36369,1,4,0:3:0:0:
130,357,36490,38,0,P|95:314|115:254,1,112,2|0,1:2|0:2,0:0:0:0:
155,191,36853,2,0,L|142:131,1,56,2|8,0:2|0:2,0:0:0:0:
297,60,37216,2,0,P|290:112|281:181,1,112,2|0,0:2|1:2,0:0:0:0:
396,293,37700,1,2,0:2:0:0:
396,293,37821,1,2,0:3:0:0:
396,293,37942,2,0,P|450:298|488:260,1,112,10|0,0:2|0:2,0:0:0:0:
308,381,38426,6,0,P|247:370|190:360,1,112,0|4,1:2|0:3,0:0:0:0:
116,341,38789,1,4,0:3:0:0:
116,341,38910,1,8,0:2:0:0:
142,202,39151,1,2,1:2:0:0:
10,158,39393,2,0,L|23:217,1,56,10|0,0:2|1:2,0:0:0:0:
74,68,39756,37,0,1:2:0:0:
74,68,39877,2,0,L|129:77,1,56,10|8,0:2|0:2,0:0:0:0:
201,42,40119,2,0,L|256:51,1,56,8|8,0:2|0:2,0:0:0:0:
319,2,40361,6,0,P|307:80|374:124,1,168,6|0,1:2|0:2,0:0:0:0:
456,111,40845,1,8,0:2:0:0:
367,248,41087,1,2,0:3:0:0:
367,248,41208,1,2,0:3:0:0:
367,247,41329,2,0,P|416:224|470:253,1,112,0|2,1:2|0:3,0:0:0:0:
409,368,41813,1,10,0:2:0:0:
283,321,42055,38,0,P|232:311|167:303,1,112,2|2,0:2|1:3,0:0:0:0:
52,376,42539,2,0,P|21:331|35:279,1,112,2|8,0:2|0:2,0:0:0:0:
145,160,43022,1,2,0:2:0:0:
145,160,43143,1,2,0:3:0:0:
145,160,43264,2,0,P|188:191|252:169,1,112,0|2,1:2|0:2,0:0:0:0:
330,66,43748,2,0,P|390:83|453:103,1,112,10|4,0:2|0:3,0:0:0:0:
499,152,44111,1,4,0:3:0:0:
498,152,44232,6,0,P|452:181|449:235,1,112,2|0,1:2|0:2,0:0:0:0:
495,305,44595,2,0,L|478:372,1,56,2|8,0:2|0:2,0:0:0:0:
308,362,44958,1,2,0:2:0:0:
308,362,45079,1,2,0:3:0:0:
308,362,45200,2,0,L|332:252,1,112,0|0,1:2|0:2,0:0:0:0:
259,147,45684,1,10,0:2:0:0:
145,221,45926,2,0,L|78:207,1,56,2|0,0:2|0:2,0:0:0:0:
24,152,46168,38,0,B|9:98|9:98|60:61,1,112,2|0,1:2|0:2,0:0:0:0:
128,38,46531,2,0,L|195:55,1,56,2|8,0:2|0:2,0:0:0:0:
333,0,46893,2,0,L|301:124,1,112,2|0,0:2|1:2,0:0:0:0:
392,235,47377,1,8,0:2:0:0:
392,235,47498,1,8,0:2:0:0:
392,235,47619,2,0,L|458:219,1,56,8|8,0:2|0:2,0:0:0:0:
470,301,47861,2,0,L|404:317,1,56,8|8,0:2|0:2,0:0:0:0:
335,301,48103,22,0,L|244:320,1,83.9999974365235,4|8,1:2|0:3,0:0:0:0:
160,376,48587,1,4,0:3:0:0:
160,376,48829,1,0,1:2:0:0:
61,344,49071,2,0,B|32:317|32:317|44:274,1,83.9999974365235,14|4,0:2|0:3,0:0:0:0:
44,274,49434,1,2,1:2:0:0:
44,274,49555,1,0,1:2:0:0:
9,173,49797,5,8,0:3:0:0:
9,173,49918,1,8,0:3:0:0:
9,173,50039,2,0,L|91:188,1,83.9999974365235,2|8,1:2|0:3,0:0:0:0:
161,110,50522,1,4,0:3:0:0:
256,166,50764,1,0,1:2:0:0:
256,166,50885,1,0,1:2:0:0:
256,166,51006,2,0,L|245:273,1,83.9999974365235,14|0,0:2|1:2,0:0:0:0:
345,333,51490,1,8,0:2:0:0:
235,384,51732,1,8,0:2:0:0:
345,333,51974,38,0,L|444:354,1,83.9999974365235,2|8,1:2|0:3,0:0:0:0:
512,286,52458,1,4,0:3:0:0:
512,286,52700,1,0,1:2:0:0:
454,197,52942,2,0,B|435:158|435:158|466:129,1,83.9999974365235,14|4,0:2|0:3,0:0:0:0:
465,129,53305,1,2,1:2:0:0:
465,129,53426,1,0,1:2:0:0:
417,28,53668,5,8,0:3:0:0:
417,28,53789,1,8,0:3:0:0:
417,28,53910,2,0,L|316:40,1,83.9999974365235,2|8,1:2|0:3,0:0:0:0:
241,3,54393,1,4,0:3:0:0:
174,77,54635,1,0,1:2:0:0:
174,77,54877,38,0,B|186:113|186:113|173:136|173:136|185:187,1,97.9999970092774,2|2,0:3|0:2,0:0:0:0:
344,343,55845,22,0,L|440:328,1,97.9999970092774,6|0,1:2|0:2,0:0:0:0:
511,244,56329,2,0,P|502:190|496:142,1,97.9999970092774,2|2,1:2|0:3,0:0:0:0:
496,147,56692,1,2,0:3:0:0:
496,147,56813,2,0,L|380:164,1,97.9999970092774,2|0,1:2|0:2,0:0:0:0:
306,242,57297,2,0,P|260:188|283:122,1,146.999995513916,2|2,1:2|0:3,0:0:0:0:
283,122,57781,21,2,1:2:0:0:
216,54,58022,1,2,0:2:0:0:
126,115,58264,1,2,1:2:0:0:
41,53,58506,1,2,0:2:0:0:
41,53,58748,2,0,P|37:93|30:158,1,97.9999970092774,2|2,1:2|0:2,0:0:0:0:
117,220,59232,2,0,P|110:262|108:329,1,97.9999970092774,2|2,1:2|0:3,0:0:0:0:
107,317,59595,1,2,0:3:0:0:
107,317,59716,22,0,L|213:329,1,97.9999970092774,0|0,1:2|0:2,0:0:0:0:
303,295,60200,2,0,P|324:248|294:206,1,97.9999970092774,2|2,1:2|0:3,0:0:0:0:
302,210,60563,1,2,0:3:0:0:
302,210,60684,2,0,L|409:188,1,97.9999970092774,2|0,1:2|0:2,0:0:0:0:
477,269,61168,2,0,P|522:213|495:146,1,146.999995513916,2|2,1:2|0:3,0:0:0:0:
497,148,61651,21,2,1:2:0:0:
445,60,61893,2,0,L|496:42,2,48.9999985046387,2|2|2,0:0|0:3|1:2,0:0:0:0:
341,50,62377,1,2,0:2:0:0:
341,50,62498,1,2,0:2:0:0:
341,50,62619,1,2,1:2:0:0:
377,140,62861,1,10,0:2:0:0:
278,160,63103,2,0,L|210:146,2,48.9999985046387,10|0|0,0:2|1:2|0:0,0:0:0:0:
420,231,63587,21,6,1:2:0:0:
420,231,63829,1,2,1:3:0:0:
390,356,64071,1,2,1:3:0:0:
390,356,64313,1,2,1:3:0:0:
261,325,64555,2,0,P|213:335|151:354,1,105.000004005432,2|2,1:3|1:3,0:0:0:0:
34,323,65039,2,0,P|0:280|24:225,1,105.000004005432,2|2,1:3|1:3,0:0:0:0:
64,175,65401,1,2,0:3:0:0:
64,175,65522,22,0,L|185:194,1,105.000004005432,2|2,1:3|1:3,0:0:0:0:
275,98,66006,1,2,1:3:0:0:
373,177,66248,1,2,1:3:0:0:
291,271,66490,1,2,1:3:0:0:
291,271,66732,1,2,1:3:0:0:
391,354,66974,1,2,1:3:0:0:
391,354,67216,1,2,1:3:0:0:
478,263,67458,21,0,1:2:0:0:
478,263,67579,1,0,1:2:0:0:
478,263,67700,2,0,L|458:190,1,59.5000011348725,2|0,1:3|1:2,0:0:0:0:
402,154,67942,2,0,L|334:167,3,59.5000011348725,2|0|2|0,1:3|1:2|1:3|1:2,0:0:0:0:
277,205,68426,22,0,B|260:182|260:182|269:152,3,59.5000011348725,2|0|0|0,1:3|1:2|1:2|1:2,0:0:0:0:
195,124,68910,1,0,1:2:0:0:
195,124,69031,1,0,1:2:0:0:
195,124,69151,1,10,1:2:0:0:
80,221,69393,6,0,L|22:229,3,59.5000011348725,8|0|4|0,0:2|1:2|0:3|1:2,0:0:0:0:
35,316,69877,1,4,0:3:0:0:
35,316,69998,1,0,1:0:0:0:
35,316,70119,2,0,L|94:309,1,59.5000011348725,8|4,0:2|1:2,0:0:0:0:
157,362,70361,38,0,P|215:352|287:349,1,115.50000352478,2|0,0:2|1:2,0:0:0:0:
349,345,70845,2,0,P|383:300|364:242,1,115.50000352478,2|0,1:2|0:2,0:0:0:0:
384,170,71329,22,0,P|327:231|255:193,1,168,4|2,1:1|0:3,0:0:0:0:
205,143,71813,1,10,0:2:0:0:
34,210,72055,1,2,0:3:0:0:
34,210,72176,1,2,0:3:0:0:
34,209,72297,2,0,P|66:164|52:112,1,112,2|0,1:2|0:2,0:0:0:0:
93,297,72781,2,0,B|138:270|180:298|154:311|207:348|247:320,1,168,10|2,0:2|0:3,0:0:0:0:
297,255,73264,5,2,1:2:0:0:
393,347,73506,1,2,0:2:0:0:
495,262,73748,1,10,0:2:0:0:
399,170,73990,1,2,0:2:0:0:
399,169,74232,2,0,P|434:127|427:73,1,112,2|2,1:2|0:2,0:0:0:0:
297,33,74716,2,0,P|261:74|268:128,1,112,10|4,0:2|0:3,0:0:0:0:
308,204,75079,1,4,0:3:0:0:
308,204,75200,38,0,P|251:209|173:223,1,112,2|0,1:2|0:2,0:0:0:0:
96,317,75684,2,0,P|38:251|72:174,1,168,10|4,0:2|0:3,0:0:0:0:
118,126,76168,2,0,P|99:68|84:10,1,112,2|0,1:2|0:2,0:0:0:0:
228,117,76651,2,0,P|291:92|400:68,1,168,10|4,0:2|0:3,0:0:0:0:
467,53,77135,5,2,1:2:0:0:
400,177,77377,1,0,1:2:0:0:
400,177,77498,1,0,1:2:0:0:
400,177,77619,1,10,0:2:0:0:
502,263,77861,1,2,1:2:0:0:
502,263,77982,1,2,1:2:0:0:
502,263,78103,2,0,P|489:313|478:379,1,112,10|2,0:2|0:2,0:0:0:0:
335,358,78587,38,0,L|347:297,1,56,10|8,0:2|0:2,0:0:0:0:
263,282,78829,2,0,L|251:343,1,56,8|8,0:2|0:2,0:0:0:0:
167,368,79071,6,0,P|96:353|93:248,1,168,6|2,1:2|0:3,0:0:0:0:
122,190,79555,2,0,P|60:174|12:159,1,112,10|2,0:2|0:3,0:0:0:0:
57,26,80039,2,0,P|111:41|176:53,1,112,0|0,1:2|0:2,0:0:0:0:
314,18,80522,2,0,B|271:58|271:58|290:107,1,112,8|0,0:2|0:2,0:0:0:0:
345,177,80885,1,2,0:2:0:0:
345,177,81006,37,2,1:2:0:0:
227,224,81248,1,2,0:2:0:0:
277,346,81490,1,10,0:2:0:0:
395,299,81732,1,2,0:2:0:0:
277,346,81974,2,0,P|203:326|145:308,1,112,2|0,1:2|0:2,0:0:0:0:
49,366,82458,2,0,P|23:315|46:262,1,112,10|4,0:2|0:3,0:0:0:0:
99,212,82821,1,4,0:3:0:0:
99,212,82942,5,2,1:2:0:0:
16,112,83184,1,2,0:2:0:0:
132,28,83426,2,0,P|196:40|262:49,1,112,10|4,0:2|0:3,0:0:0:0:
310,0,83789,1,4,0:3:0:0:
310,0,83910,2,0,P|333:48|309:97,1,112,2|0,1:2|0:2,0:0:0:0:
196,166,84393,2,0,P|203:221|210:287,1,112,8|2,0:2|0:3,0:0:0:0:
323,353,84877,38,0,P|372:342|442:333,1,112,2|4,1:2|0:3,0:0:0:0:
496,279,85240,1,4,0:3:0:0:
496,279,85361,1,10,0:2:0:0:
396,190,85603,1,2,0:2:0:0:
489,97,85845,1,2,1:2:0:0:
377,18,86087,1,8,0:2:0:0:
377,18,86208,1,8,0:2:0:0:
377,18,86329,2,0,L|299:29,1,56,8|8,0:2|0:2,0:0:0:0:
241,37,86571,2,0,L|163:48,1,56,8|8,0:2|0:2,0:0:0:0:
256,192,86813,12,0,88748,0:2:0:0:
