osu file format v14

[General]
AudioFilename: audio.mp3
AudioLeadIn: 0
PreviewTime: 17135
Countdown: 0
SampleSet: Soft
StackLeniency: 0.7
Mode: 0
LetterboxInBreaks: 0
WidescreenStoryboard: 1

[Editor]
Bookmarks: 63587,71329,86813
DistanceSpacing: 1
BeatDivisor: 4
GridSize: 16
TimelineZoom: 1.6

[Metadata]
Title:BREAKING DAWN (Japanese Ver.) Produced by HYDE (TV Size)
TitleUnicode:BREAKING DAWN (Japanese Ver.) Produced by HYDE (TV Size)
Artist:J-JUN
ArtistUnicode:ジェジュン
Creator:AirinCat
Version:Easy
Source:NOBLESSE -ノブレス-
Tags:kim jae joong 노블레스 キム jaejoong 김재중 jejung anime opening line webtoon rock jrock japanese crunchyroll 城戸紘志 辻村有紀 Hiroshi Kido Yuki Tsujimura PABLO Ali Taku Yoshioka
BeatmapID:2649276
BeatmapSetID:1273865

[Difficulty]
HPDrainRate:2
CircleSize:3
OverallDifficulty:2
ApproachRate:4
SliderMultiplier:1
SliderTickRate:1

[Events]
//Background and Video events
0,0,"230228.jpg",0,0
Video,0,"ramen.mp4"
//Break Periods
//Storyboard Layer 0 (Background)
//Storyboard Layer 1 (Fail)
//Storyboard Layer 2 (Pass)
//Storyboard Layer 3 (Foreground)
//Storyboard Layer 4 (Overlay)
//Storyboard Sound Samples

[TimingPoints]
1652,483.870967741935,4,2,1,40,1,0
17135,-105.263157894737,4,2,1,50,0,0
23668,-105.263157894737,4,2,1,50,0,0
24877,-105.263157894737,4,2,1,50,0,0
26329,-105.263157894737,4,2,1,50,0,0
28748,-105.263157894737,4,2,1,60,0,0
31651,-105.263157894737,4,2,1,50,0,0
32135,-105.263157894737,4,2,1,50,0,0
32619,-105.263157894737,4,2,1,80,0,1
48103,-105.263157894737,4,2,1,60,0,0
54877,-105.263157894737,4,2,1,45,0,0
55361,-105.263157894737,4,2,1,45,0,0
55845,-105.263157894737,4,2,1,65,0,0
63587,-105.263157894737,4,2,1,70,0,0
67458,-105.263157894737,4,2,1,70,0,0
70361,-105.263157894737,4,2,1,60,0,0
71329,-105.263157894737,4,2,1,80,0,1
86692,-105.263157894737,4,2,1,70,0,0
86813,-105.263157894737,4,2,1,40,0,0
88748,-105.263157894737,4,2,1,10,0,0

[Colours]
Combo1 : 255,91,91
Combo2 : 192,192,192
Combo3 : 121,115,115
Combo4 : 255,176,176

[HitObjects]
9,113,17135,5,0,1:2:0:0:
75,181,17619,2,0,L|52:285,1,94.9999974632264,2|2,1:2|1:2,0:0:0:0:
109,350,18587,1,2,1:2:0:0:
200,326,19071,2,0,L|300:345,2,94.9999974632264,2|2|2,1:2|1:2|1:2,0:0:0:0:
153,243,20522,1,2,1:2:0:0:
221,177,21006,5,0,1:2:0:0:
291,240,21490,2,0,P|341:249|390:260,1,94.9999974632264,2|2,1:2|1:2,0:0:0:0:
472,224,22458,2,0,P|498:186|486:142,1,94.9999974632264,2|2,1:2|1:2,0:0:0:0:
415,78,23426,1,2,1:2:0:0:
329,119,23910,2,0,L|269:111,1,47.4999987316132,2|2,1:2|1:2,0:0:0:0:
163,33,24877,37,0,1:2:0:0:
76,71,25361,2,0,L|62:164,1,94.9999974632264,2|2,1:2|1:2,0:0:0:0:
113,244,26329,1,2,1:2:0:0:
199,204,26813,2,0,L|213:103,1,94.9999974632264,2|2,1:2|1:2,0:0:0:0:
296,65,27781,2,0,L|302:4,2,47.4999987316132,2|2|2,1:2|0:2|1:2,0:0:0:0:
362,132,28748,5,0,1:2:0:0:
451,100,29232,1,2,1:2:0:0:
510,174,29716,2,0,P|502:219|494:280,1,94.9999974632264,2|0,1:2|1:2,0:0:0:0:
422,328,30684,2,0,B|373:330|350:282|350:282|290:266|267:316,1,189.999994926453,8|2,0:2|0:2,0:0:0:0:
80,282,32619,6,0,P|15:221|55:134,1,189.999994926453,4|0,1:1|1:2,0:0:0:0:
114,69,34071,2,0,P|182:80|264:89,1,142.49999619484,10|2,0:2|0:2,0:0:0:0:
342,51,35281,2,0,P|408:26|460:71,1,142.49999619484,2|10,0:2|1:2,0:0:0:0:
506,149,36490,6,0,P|496:192|488:248,1,94.9999974632264,2|8,1:2|0:2,0:0:0:0:
409,295,37458,1,0,1:2:0:0:
331,239,37942,2,0,P|283:234|228:225,1,94.9999974632264,10|0,0:2|1:2,0:0:0:0:
161,168,38910,1,8,0:2:0:0:
70,196,39393,1,10,0:2:0:0:
72,290,39877,1,10,0:2:0:0:
162,317,40361,38,0,B|213:281|261:319|237:336|291:368|338:336,1,189.999994926453,6|0,1:2|1:2,0:0:0:0:
428,356,41813,2,0,P|483:318|474:250,1,142.49999619484,10|2,0:2|0:2,0:0:0:0:
413,178,43022,1,2,0:2:0:0:
454,41,43748,1,10,0:2:0:0:
367,0,44232,6,0,L|268:12,1,94.9999974632264,2|8,1:2|0:2,0:0:0:0:
207,80,45200,1,0,1:2:0:0:
279,141,45684,1,10,0:2:0:0:
222,217,46168,2,0,P|228:260|238:323,1,94.9999974632264,2|8,1:2|0:2,0:0:0:0:
158,365,47135,2,0,P|111:371|50:380,1,94.9999974632264,0|8,1:2|0:2,0:0:0:0:
1,306,48103,1,4,1:2:0:0:
136,172,49071,6,0,L|109:73,1,94.9999974632264,14|0,0:2|1:2,0:0:0:0:
33,24,50039,1,2,1:2:0:0:
209,94,51006,1,14,0:2:0:0:
275,26,51490,2,0,L|327:7,2,47.4999987316132,8|8|2,0:2|0:2|1:2,0:0:0:0:
85,46,52942,6,0,L|114:149,1,94.9999974632264,14|0,0:2|1:2,0:0:0:0:
62,219,53910,1,2,1:2:0:0:
225,316,54877,2,0,B|257:281|257:281|300:299,1,94.9999974632264,2|2,0:3|0:2,0:0:0:0:
389,334,55845,5,6,1:2:0:0:
476,297,56329,2,0,P|485:248|494:198,1,94.9999974632264,2|2,1:2|1:2,0:0:0:0:
410,155,57297,1,2,1:2:0:0:
327,107,57781,2,0,P|336:58|345:8,2,94.9999974632264,2|2|2,1:2|1:2|1:2,0:0:0:0:
239,144,59232,1,2,1:2:0:0:
172,76,59716,21,0,1:2:0:0:
95,132,60200,2,0,P|51:115|9:133,1,94.9999974632264,2|2,1:2|1:2,0:0:0:0:
7,228,61168,2,0,P|50:244|92:226,1,94.9999974632264,2|2,1:2|1:2,0:0:0:0:
177,182,62135,1,2,1:2:0:0:
239,253,62619,2,0,L|230:306,2,47.4999987316132,2|10|10,1:2|0:2|0:2,0:0:0:0:
324,211,63587,21,6,1:2:0:0:
273,130,64071,2,0,B|254:86|254:86|290:56,1,94.9999974632264,2|2,1:3|1:3,0:0:0:0:
374,12,65039,1,2,1:3:0:0:
466,34,65522,1,2,1:3:0:0:
476,128,66006,1,2,1:3:0:0:
405,191,66490,2,0,P|401:231|395:289,1,94.9999974632264,2|2,1:3|1:3,0:0:0:0:
442,368,67458,1,0,1:2:0:0:
256,192,67700,12,8,69393,0:2:0:0:
56,283,71329,6,0,P|28:246|34:200,2,94.9999974632264,4|10|2,1:1|0:2|1:2,0:0:0:0:
141,325,72781,2,0,P|186:319|256:310,1,94.9999974632264,10|2,0:2|1:2,0:0:0:0:
309,253,73748,1,10,0:2:0:0:
388,305,74232,1,2,1:2:0:0:
459,242,74716,2,0,L|515:255,2,47.4999987316132,10|4|2,0:2|0:3|1:2,0:0:0:0:
417,156,75684,38,0,P|443:118|434:73,1,94.9999974632264,10|2,0:2|1:2,0:0:0:0:
365,6,76651,1,10,0:2:0:0:
279,48,77135,2,0,P|237:38|179:29,1,94.9999974632264,2|10,1:2|0:2,0:0:0:0:
95,61,78103,1,10,0:2:0:0:
112,154,78587,1,10,0:2:0:0:
47,223,79071,6,0,P|27:260|41:310,2,94.9999974632264,6|10|0,1:2|0:2|1:2,0:0:0:0:
112,154,80522,2,0,P|157:161|223:176,1,94.9999974632264,8|2,0:2|1:2,0:0:0:0:
289,217,81490,1,10,0:2:0:0:
372,172,81974,1,2,1:2:0:0:
345,80,82458,2,0,L|355:28,2,47.4999987316132,10|4|2,0:2|0:3|1:2,0:0:0:0:
249,85,83426,37,10,0:2:0:0:
166,37,83910,2,0,P|121:49|68:60,1,94.9999974632264,2|8,1:2|0:2,0:0:0:0:
10,130,84877,1,2,1:2:0:0:
78,195,85361,1,10,0:2:0:0:
21,271,85845,1,2,1:2:0:0:
90,336,86329,2,0,P|141:343|190:351,1,94.9999974632264,8|2,0:2|0:2,0:0:0:0:
