osu file format v14

[General]
AudioFilename: audio.mp3
AudioLeadIn: 0
PreviewTime: 235258
Countdown: 0
SampleSet: Soft
StackLeniency: 0.4
Mode: 0
LetterboxInBreaks: 0
WidescreenStoryboard: 1

[Editor]
Bookmarks: 487,11458,22429,41629,44201,59544,60058,110201,236372,241172,241858
DistanceSpacing: 1.1
BeatDivisor: 4
GridSize: 8
TimelineZoom: 2.1

[Metadata]
Title:Bluefield (J-core remix)
TitleUnicode:Bluefield (J-core remix)
Artist:J-Core
ArtistUnicode:J-Core
Creator:Listle
Version:dkblaze's Extra
Source:
Tags:remix
BeatmapID:1876775
BeatmapSetID:893794

[Difficulty]
HPDrainRate:4.2
CircleSize:4
OverallDifficulty:8
ApproachRate:9.3
SliderMultiplier:1.9
SliderTickRate:1

[Events]
//Background and Video events
0,0,"BGDKB.png",0,0
//Break Periods
2,66515,76733
2,152914,164504
2,198173,208390
//Storyboard Layer 0 (Background)
//Storyboard Layer 1 (Fail)
//Storyboard Layer 2 (Pass)
//Storyboard Layer 3 (Foreground)
//Storyboard Sound Samples

[TimingPoints]
487,342.857142857143,4,2,1,60,1,0
487,-200,4,2,1,60,0,0
5287,-200,4,2,1,70,0,0
5972,-200,4,2,1,50,0,0
6658,-200,4,2,1,30,0,0
7344,-200,4,2,1,20,0,0
8715,-200,4,2,1,60,0,0
10087,-500,4,2,1,60,0,0
10772,-200,4,2,1,40,0,0
10944,-200,4,2,1,50,0,0
11115,-200,4,2,1,60,0,0
11201,-200,4,2,1,70,0,0
11287,-200,4,2,1,80,0,0
11458,-125,4,2,1,60,0,0
16087,-125,4,2,1,5,0,0
16172,-125,4,2,1,60,0,0
19687,-125,4,2,1,60,0,0
20029,-125,4,2,1,70,0,0
20372,-125,4,2,1,80,0,0
20715,-125,4,2,1,90,0,0
21058,-125,4,2,1,90,0,0
21144,-125,4,2,1,70,0,0
22087,-125,4,2,1,85,0,0
22429,-125,4,2,1,70,0,0
25172,-125,4,2,1,40,0,0
26544,-125,4,2,1,70,0,0
27229,-125,4,2,1,55,0,0
27401,-125,4,2,1,60,0,0
27572,-125,4,2,1,65,0,0
27744,-125,4,2,1,70,0,0
27915,-125,4,2,1,70,0,0
38201,-125,4,2,1,55,0,0
38372,-125,4,2,1,60,0,0
38544,-125,4,2,1,65,0,0
38715,-125,4,2,1,70,0,0
38887,-125,4,2,1,70,0,0
40258,-125,4,2,1,90,0,0
41629,-125,4,2,1,90,0,0
44201,-125,4,2,1,60,0,0
44372,-125,4,2,1,60,0,0
52001,-125,4,2,1,5,0,0
52087,-125,4,2,1,60,0,0
55344,-166.666666666667,4,2,1,50,0,0
59544,-166.666666666667,4,2,1,80,0,0
60058,-166.666666666667,4,2,1,80,0,0
60829,-125,4,2,1,60,0,0
64944,-333.333333333334,4,2,1,60,0,0
65201,-333.333333333334,4,2,1,5,0,0
65287,-166.666666666667,4,2,1,60,0,0
65629,-125,4,2,1,60,0,0
66315,-200,4,2,1,50,0,0
77287,-200,4,2,1,50,0,0
85515,-200,4,2,1,50,0,0
87229,-200,4,2,1,5,0,0
87315,-200,4,2,1,50,0,0
87572,-142.857142857143,4,2,1,50,0,0
88258,-166.666666666667,4,2,1,50,0,0
89544,-166.666666666667,4,2,1,5,0,0
89629,-166.666666666667,4,2,1,50,0,0
92287,-166.666666666667,4,2,1,5,0,0
92372,-166.666666666667,4,2,1,50,0,0
95029,-166.666666666667,4,2,1,5,0,0
95115,-166.666666666667,4,2,1,50,0,0
97772,-166.666666666667,4,2,1,5,0,0
97858,-166.666666666667,4,2,1,50,0,0
101287,-500.000000000003,4,2,1,50,0,0
101972,-166.666666666667,4,2,1,50,0,0
102572,-166.666666666667,4,2,1,5,0,0
102658,-500.000000000003,4,2,1,50,0,0
103344,-166.666666666667,4,2,1,50,0,0
104715,-111.111111111111,4,2,1,60,0,0
105229,-250.000000000001,4,2,1,60,0,0
105744,-111.111111111111,4,2,1,60,0,0
106001,-111.111111111111,4,2,1,5,0,0
106087,-111.111111111111,4,2,1,60,0,0
106601,-250.000000000001,4,2,1,60,0,0
107115,-111.111111111111,4,2,1,60,0,0
109515,-111.111111111111,4,2,1,60,0,0
110201,-83.3333333333333,4,2,1,85,0,1
112429,-83.3333333333333,4,2,1,85,0,1
112601,-71.4285714285714,4,2,1,85,0,1
112772,-62.5,4,2,1,85,0,1
112944,-83.3333333333333,4,2,1,85,0,1
113801,-83.3333333333333,4,2,1,85,0,1
114315,-83.3333333333333,4,2,1,85,0,1
118087,-71.4285714285714,4,2,1,85,0,1
118258,-62.5,4,2,1,85,0,1
118429,-83.3333333333333,4,2,1,85,0,1
121172,-71.4285714285714,4,2,1,85,0,1
121429,-83.3333333333333,4,2,1,85,0,1
123572,-71.4285714285714,4,2,1,85,0,1
123744,-62.5,4,2,1,85,0,1
123915,-83.3333333333333,4,2,1,85,0,1
126658,-83.3333333333333,4,2,1,85,0,1
129401,-83.3333333333333,4,2,1,90,0,1
130772,-100,4,2,1,90,0,1
130858,-100,4,2,1,85,0,1
132144,-83.3333333333333,4,2,1,85,0,1
134972,-83.3333333333333,4,2,1,5,0,1
135058,-83.3333333333333,4,2,1,85,0,1
135229,-83.3333333333333,4,2,1,5,0,1
135315,-83.3333333333333,4,2,1,85,0,1
135487,-83.3333333333333,4,2,1,5,0,1
135572,-83.3333333333333,4,2,1,85,0,1
143115,-71.4285714285714,4,2,1,85,0,1
143458,-76.9230769230769,4,2,1,85,0,1
143801,-83.3333333333333,4,2,1,85,0,1
151344,-71.4285714285714,4,2,1,85,0,1
152715,-100,4,2,1,85,0,0
165058,-100,4,2,1,85,0,0
176029,-125,4,2,1,60,0,0
182458,-125,4,2,1,5,0,0
182544,-125,4,2,1,60,0,0
183658,-125,4,2,1,5,0,0
183744,-125,4,2,1,60,0,0
187001,-500,4,2,1,40,0,0
187258,-500,4,2,1,5,0,0
187344,-90.9090909090909,4,2,1,80,0,0
187601,-90.9090909090909,4,2,1,5,0,0
187687,-100,4,2,1,60,0,0
196944,-142.857142857143,4,2,1,60,0,0
197201,-142.857142857143,4,2,1,5,0,0
197287,-111.111111111111,4,2,1,60,0,0
208944,-200,4,2,1,60,0,0
219058,-200,4,2,1,5,0,0
219144,-200,4,2,1,60,0,0
219915,-100,4,2,1,60,0,0
221287,-83.3333333333333,4,2,1,60,0,0
221458,-83.3333333333333,4,2,1,5,0,0
221544,-125,4,2,1,60,0,0
221715,-125,4,2,1,5,0,0
221801,-250,4,2,1,60,0,0
222144,-100,4,2,1,60,0,0
222658,-250,4,2,1,60,0,0
223344,-142.857142857143,4,2,1,60,0,0
224287,-142.857142857143,4,2,1,5,0,0
224372,-125,4,2,1,60,0,0
224629,-125,4,2,1,5,0,0
224715,-100,4,2,1,60,0,0
224972,-100,4,2,1,5,0,0
225058,-76.9230769230769,4,2,1,60,0,0
225401,-100,4,2,1,60,0,0
228144,-333.333333333333,4,2,1,60,0,0
229515,-166.666666666667,4,2,1,60,0,0
229772,-166.666666666667,4,2,1,5,0,0
229858,-111.111111111111,4,2,1,60,0,0
230115,-111.111111111111,4,2,1,5,0,0
230201,-83.3333333333333,4,2,1,60,0,0
230458,-83.3333333333333,4,2,1,5,0,0
230544,-33.3333333333333,4,2,1,5,0,0
230801,-71.4285714285714,4,2,1,5,0,0
230887,-90.9090909090909,4,2,1,60,0,0
233115,-76.9230769230769,4,2,1,60,0,0
234487,-66.6666666666667,4,2,1,60,0,0
236372,-83.3333333333333,4,2,1,60,0,0
237058,-76.9230769230769,4,2,1,60,0,0
237744,-71.4285714285714,4,2,1,60,0,0
238429,-66.6666666666667,4,2,1,60,0,0
241172,-83.3333333333333,4,2,1,60,0,0
241858,-71.4285714285714,4,2,1,60,0,1
252829,-62.5,4,2,1,60,0,1
263715,-62.5,4,2,1,5,0,1
263801,-71.4285714285714,4,2,1,60,0,1
265944,-71.4285714285714,4,2,1,5,0,1
266029,-71.4285714285714,4,2,1,60,0,1
266629,-71.4285714285714,4,2,1,5,0,1
266715,-71.4285714285714,4,2,1,60,0,1
271772,-71.4285714285714,4,2,1,5,0,1
271858,-71.4285714285714,4,2,1,60,0,1
274001,-71.4285714285714,4,2,1,5,0,1
274087,-71.4285714285714,4,2,1,60,0,1
274344,-71.4285714285714,4,2,1,5,0,1
274429,-71.4285714285714,4,2,1,60,0,1
274687,-71.4285714285714,4,2,1,5,0,1
274772,-71.4285714285714,4,2,1,80,0,1
276915,-71.4285714285714,4,2,1,5,0,1
277001,-71.4285714285714,4,2,1,80,0,1
280515,-71.4285714285714,4,2,1,5,0,1
280601,-71.4285714285714,4,2,1,80,0,1
284372,-71.4285714285714,4,2,1,80,0,0

[HitObjects]
118,160,487,6,0,L|112:100,1,47.5
154,0,829,2,0,L|158:47,1,47.5
118,160,1172,5,0,0:0:0:0:
113,113,1344,1,0,0:0:0:0:
159,48,1515,1,0,0:0:0:0:
154,1,1687,1,0,0:0:0:0:
394,160,1858,6,0,L|400:100,1,47.5
358,0,2200,2,0,L|353:47,1,47.5
394,160,2543,5,0,0:0:0:0:
399,113,2715,1,0,0:0:0:0:
353,48,2886,1,0,0:0:0:0:
358,1,3058,1,0,0:0:0:0:
349,232,3229,6,0,L|356:274,2,23.75
408,335,3572,2,0,L|415:377,2,23.75
433,261,3915,2,0,L|475:254,2,23.75
304,332,4258,2,0,L|327:328,2,23.75
200,272,4601,6,0,L|176:268,2,23.75
301,209,4944,2,0,L|324:205,2,23.75
199,47,5287,5,0,0:0:0:0:
72,111,5458,1,0,0:0:0:0:
136,238,5629,1,0,0:0:0:0:
263,174,5801,1,0,0:0:0:0:
192,66,5972,5,0,0:0:0:0:
91,117,6143,1,0,0:0:0:0:
142,218,6314,1,0,0:0:0:0:
243,167,6486,1,0,0:0:0:0:
187,81,6658,5,0,0:0:0:0:
106,122,6829,1,0,0:0:0:0:
147,203,7000,1,0,0:0:0:0:
228,162,7172,1,0,0:0:0:0:
292,226,7344,5,0,0:0:0:0:
251,305,7515,1,0,0:0:0:0:
313,368,7687,1,0,0:0:0:0:
392,328,7858,1,0,0:0:0:0:
378,240,8029,5,0,0:0:0:0:
289,226,8201,1,0,0:0:0:0:
251,305,8372,1,0,0:0:0:0:
164,293,8544,1,0,0:0:0:0:
126,372,8715,6,0,L|62:362,1,47.5
37,268,9058,2,0,L|101:258,1,47.5
132,167,9401,2,0,L|68:157,1,47.5
43,63,9744,2,0,L|107:53,1,47.5
192,35,10087,6,0,L|202:95,1,57
411,0,10772,5,0,0:0:0:0:
409,23,10857,1,0,0:0:0:0:
407,47,10943,1,0,0:0:0:0:
406,71,11029,1,0,0:0:0:0:
404,94,11114,1,0,0:0:0:0:
402,118,11200,1,0,0:0:0:0:
401,142,11286,1,0,0:0:0:0:
399,165,11372,1,0,0:0:0:0:
397,189,11458,6,0,L|317:197,1,76
223,292,11801,2,0,B|263:291|263:291|299:269,1,76
180,150,12144,2,0,B|159:185|159:185|160:227,1,76
321,196,12487,2,0,L|313:116,1,76
440,15,12829,6,0,L|432:95,1,76
321,196,13172,2,0,B|361:195|361:195|397:173,1,76
278,50,13515,2,0,B|257:85|257:85|258:127,1,76
433,91,13858,2,0,L|513:99,1,76
391,176,14201,5,0,0:0:0:0:
256,192,14287,12,0,16087,0:0:0:0:
274,142,16258,5,0,0:0:0:0:
203,201,16429,1,0,0:0:0:0:
290,232,16601,1,0,0:0:0:0:
283,116,16772,1,0,0:0:0:0:
181,165,16944,5,0,0:0:0:0:
321,314,17115,1,0,0:0:0:0:
283,116,17287,5,0,0:0:0:0:
132,326,17458,1,0,0:0:0:0:
273,79,17629,5,0,0:0:0:0:
339,355,17801,1,0,0:0:0:0:
353,113,17972,5,0,0:0:0:0:
275,327,18144,1,0,0:0:0:0:
440,137,18315,5,0,0:0:0:0:
440,137,18487,1,0,0:0:0:0:
465,315,18658,1,0,0:0:0:0:
465,315,18829,1,0,0:0:0:0:
353,113,19001,5,0,0:0:0:0:
353,113,19173,1,0,0:0:0:0:
304,321,19344,1,0,0:0:0:0:
304,321,19515,1,0,0:0:0:0:
76,177,19687,5,0,0:0:0:0:
110,154,19772,1,0,0:0:0:0:
151,152,19858,1,0,0:0:0:0:
188,171,19944,1,0,0:0:0:0:
206,207,20029,1,0,0:0:0:0:
237,234,20115,1,0,0:0:0:0:
288,248,20201,1,0,0:0:0:0:
318,240,20287,1,0,0:0:0:0:
358,206,20372,5,0,0:0:0:0:
374,155,20458,1,0,0:0:0:0:
361,103,20544,1,0,0:0:0:0:
327,62,20629,1,0,0:0:0:0:
294,104,20715,1,0,0:0:0:0:
280,155,20801,1,0,0:0:0:0:
299,204,20887,1,0,0:0:0:0:
342,233,20972,1,0,0:0:0:0:
371,270,21058,6,0,B|392:304|377:336|377:336|299:386|219:325,1,228
90,165,21744,1,0,0:0:0:0:
61,384,21915,1,0,0:0:0:0:
226,229,22087,1,0,0:0:0:0:
226,229,22172,1,0,0:0:0:0:
226,229,22258,1,0,0:0:0:0:
326,362,22429,6,0,L|408:356,1,76
497,280,22772,2,0,L|415:274,1,76
250,367,23115,2,0,L|332:361,1,76
421,274,23458,1,0,0:0:0:0:
326,171,23629,1,0,0:0:0:0:
155,251,23801,6,0,L|149:169,1,76
73,80,24144,2,0,L|67:162,1,76
160,326,24487,2,0,L|154:244,1,76
67,155,24829,1,0,0:0:0:0:
54,309,25001,1,0,0:0:0:0:
241,289,25172,6,0,L|290:303,2,38
170,180,25515,2,0,L|121:194,2,38
290,227,25858,2,0,L|304:178,2,38
360,335,26201,2,0,L|349:371,2,38
485,141,26544,6,0,P|446:128|405:142,1,76
352,22,26887,2,0,P|327:54|326:97,1,76
198,117,27229,5,0,0:0:0:0:
190,162,27315,1,0,0:0:0:0:
214,200,27401,1,0,0:0:0:0:
258,211,27487,1,0,0:0:0:0:
300,194,27572,1,0,0:0:0:0:
345,188,27658,1,0,0:0:0:0:
385,209,27744,1,0,0:0:0:0:
402,250,27829,1,0,0:0:0:0:
394,295,27915,6,0,L|451:279,3,38
307,361,28258,6,0,L|364:377,3,38
215,304,28601,6,0,L|272:288,3,38
116,347,28944,6,0,L|173:363,3,38
33,253,29287,6,0,P|68:234|106:242,1,76
251,293,29629,2,0,L|243:197,1,76
233,56,29972,1,0,0:0:0:0:
201,155,30144,1,0,0:0:0:0:
218,161,30229,1,0,0:0:0:0:
237,160,30315,2,0,P|276:155|310:130,1,76
471,41,30658,6,0,L|461:132,1,76
443,255,31001,2,0,P|411:234|370:239,1,76
194,308,31344,1,0,0:0:0:0:
321,290,31515,1,0,0:0:0:0:
304,279,31601,1,0,0:0:0:0:
287,268,31687,2,0,L|280:184,1,76
156,37,32029,6,0,L|161:112,1,76
57,224,32372,2,0,L|132:218,1,76
318,200,32715,5,0,0:0:0:0:
132,133,32887,1,0,0:0:0:0:
66,318,33058,1,0,0:0:0:0:
251,384,33229,1,0,0:0:0:0:
318,200,33401,6,0,L|236:207,1,76
357,306,33744,2,0,L|439:313,1,76
354,139,34087,2,0,P|323:166|318:206,1,76
491,201,34429,2,0,P|482:161|450:136,1,76
317,199,34772,6,0,L|327:277,1,76
212,375,35115,2,0,L|222:297,1,76
54,192,35458,2,0,P|94:188|126:215,1,76
252,129,35801,2,0,P|212:125|180:152,1,76
157,279,36144,6,0,L|152:332,2,38
255,166,36487,2,0,L|250:113,2,38
110,212,36829,2,0,L|57:207,2,38
49,72,37172,2,0,L|-4:67,2,38
256,15,37515,6,0,P|261:55|239:86,1,76
123,202,37858,2,0,P|144:167|180:157,1,76
348,153,38201,5,0,0:0:0:0:
380,171,38286,1,0,0:0:0:0:
395,205,38372,1,0,0:0:0:0:
388,242,38458,1,0,0:0:0:0:
361,267,38543,1,0,0:0:0:0:
324,271,38629,1,0,0:0:0:0:
291,253,38715,1,0,0:0:0:0:
355,5,38886,5,0,0:0:0:0:
473,242,39058,1,0,0:0:0:0:
500,22,39229,5,0,0:0:0:0:
272,156,39401,1,0,0:0:0:0:
505,232,39572,5,0,0:0:0:0:
366,18,39744,1,0,0:0:0:0:
168,194,39915,5,0,0:0:0:0:
414,156,40087,1,0,0:0:0:0:
183,102,40258,5,0,0:0:0:0:
401,208,40430,1,0,0:0:0:0:
252,56,40601,5,0,0:0:0:0:
94,251,40773,1,0,0:0:0:0:
338,203,40944,5,0,0:0:0:0:
75,139,41116,1,0,0:0:0:0:
256,15,41287,5,0,0:0:0:0:
203,247,41458,1,0,0:0:0:0:
123,17,41629,5,0,0:0:0:0:
148,54,41715,1,0,0:0:0:0:
151,99,41801,1,0,0:0:0:0:
129,139,41887,1,0,0:0:0:0:
89,160,41972,1,0,0:0:0:0:
62,197,42058,1,0,0:0:0:0:
61,242,42144,1,0,0:0:0:0:
83,281,42229,1,0,0:0:0:0:
122,304,42315,5,0,0:0:0:0:
173,291,42401,1,0,0:0:0:0:
203,247,42487,1,0,0:0:0:0:
192,195,42572,1,0,0:0:0:0:
220,149,42658,1,0,0:0:0:0:
272,138,42744,1,0,0:0:0:0:
315,167,42829,1,0,0:0:0:0:
322,219,42915,1,0,0:0:0:0:
293,264,43001,5,0,0:0:0:0:
371,99,44201,5,0,0:0:0:0:
371,99,44372,2,0,B|348:196|405:162|387:254,1,152
363,373,44887,1,0,0:0:0:0:
363,373,45058,2,0,B|327:343|327:343|212:357,1,152
126,377,45572,1,0,0:0:0:0:
71,245,45744,6,0,P|64:286|64:327,1,76
124,169,46087,1,0,0:0:0:0:
225,218,46258,2,0,B|246:176|193:133|130:165|128:243|185:299,1,228
303,255,46944,5,0,0:0:0:0:
303,255,47115,2,0,B|371:256|371:256|392:272|392:272|473:273,1,152
372,168,47629,1,0,0:0:0:0:
372,168,47801,2,0,B|414:128|405:69|405:69|426:117,1,152
466,209,48315,1,0,0:0:0:0:
337,261,48487,6,0,P|376:276|417:259,1,76
331,162,48829,1,0,0:0:0:0:
244,258,49001,2,0,B|194:291|130:269|130:269|121:199|169:152,1,228
226,97,49687,5,0,0:0:0:0:
110,39,49858,2,0,P|149:22|182:31,1,76
110,39,50372,1,0,0:0:0:0:
38,147,50544,2,0,L|46:227,1,76
122,126,50887,1,0,0:0:0:0:
122,126,51058,1,0,0:0:0:0:
45,222,51229,6,0,B|84:248|84:248|210:216,1,152
311,186,51744,2,0,L|297:309,1,114
291,348,52087,1,0,0:0:0:0:
395,260,52258,1,0,0:0:0:0:
501,312,52429,1,0,0:0:0:0:
384,239,52601,6,0,P|371:199|386:159,1,76
472,110,52944,1,0,0:0:0:0:
459,249,53115,1,0,0:0:0:0:
459,249,53287,2,0,L|371:237,1,76
263,172,53630,2,0,L|351:160,1,76
175,254,53972,5,0,0:0:0:0:
315,16,54315,2,0,P|329:53|312:90,1,76
125,65,54658,2,0,L|162:71,3,38
211,146,55001,1,0,0:0:0:0:
222,166,55087,1,0,0:0:0:0:
223,188,55172,1,0,0:0:0:0:
215,209,55258,1,0,0:0:0:0:
205,222,55344,6,0,P|149:291|176:371,1,170.999994781494
260,315,56029,2,0,B|336:318|336:318|357:337|357:337|433:339,1,170.999994781494,0|0,0:0|0:0,3:0:0:0:
471,265,56715,6,0,B|488:226|488:226|471:186,2,85.4999973907472
423,339,57401,2,0,P|339:321|235:317,1,170.999994781494
165,271,58087,6,0,B|133:179|198:210|164:88,1,170.999994781494
225,40,58772,2,0,B|263:21|263:21|343:39,1,113.999996520996
416,56,59287,5,0,0:0:0:0:
467,173,59544,5,0,0:0:0:0:
371,257,59801,5,0,0:0:0:0:
261,191,60058,5,0,0:0:0:0:
151,257,60315,5,0,0:0:0:0:
55,173,60572,5,0,0:0:0:0:
105,56,60829,6,0,B|147:52|147:52|185:72,1,76
208,199,61172,2,0,B|208:156|208:156|232:121,1,76
319,29,61515,2,0,P|361:32|401:40,1,76
498,111,61858,2,0,P|456:114|416:122,1,76
288,150,62201,6,0,L|283:245,1,76
196,169,62544,1,0,0:0:0:0:
226,80,62715,1,0,0:0:0:0:
212,249,62887,2,0,P|174:251|138:226,1,76
43,138,63229,2,0,P|81:136|117:161,1,76
12,290,63572,5,0,0:0:0:0:
105,82,63744,1,0,0:0:0:0:
179,298,63915,1,0,0:0:0:0:
43,138,64087,1,0,0:0:0:0:
249,100,64258,5,0,0:0:0:0:
112,259,64429,1,0,0:0:0:0:
250,70,64601,1,0,0:0:0:0:
320,297,64772,1,0,0:0:0:0:
452,110,64944,5,0,0:0:0:0:
262,351,65287,5,0,0:0:0:0:
121,62,65629,5,0,0:0:0:0:
115,91,65715,1,0,0:0:0:0:
111,122,65801,1,0,0:0:0:0:
107,153,65887,1,0,0:0:0:0:
73,181,65972,1,0,0:0:0:0:
67,225,66058,1,0,0:0:0:0:
61,269,66144,1,0,0:0:0:0:
55,314,66230,1,0,0:0:0:0:
49,359,66315,1,0,0:0:0:0:
89,153,77287,6,0,B|73:155|73:155|33:161|16:205|46:240|85:234|85:234|220:213,1,285
167,141,78487,6,0,B|205:94|195:33|195:33|240:303,1,380
370,354,80029,6,0,B|385:351|385:351|425:345|442:301|412:266|373:272|373:272|238:293,1,285
105,314,81229,6,0,B|68:333|64:371|64:371|-10:282|66:202|66:202|116:248|181:223,1,380
146,96,82772,6,0,B|169:89|169:89|199:80|229:97|238:127|238:127|267:228|267:228|349:208,1,285
420,71,83972,6,0,B|504:79|535:153|528:217|485:265|423:273|392:266|392:266|418:236|412:193,1,380
256,192,85515,12,0,87229,0:0:0:0:
178,140,87572,6,0,L|232:150,3,33.2499989852906
89,88,87915,6,0,L|143:78,3,33.2499989852906
33,150,88258,6,0,B|13:191|13:191|43:314,1,170.999994781494
241,333,88944,2,0,B|279:328|300:355|300:355|272:317|221:307|180:338,1,199.499993911743
181,336,89629,2,0,L|172:232,2,85.4999973907472
360,246,90315,2,0,P|325:193|248:251,1,170.999994781494
406,360,91001,6,0,B|433:383|433:383|450:229,1,170.999994781494
465,50,91687,2,0,P|365:42|277:93,1,199.499993911743
280,88,92372,2,0,L|297:184,2,85.4999973907472
174,258,93058,2,0,B|245:229|248:310|351:270,1,170.999994781494
451,146,93744,6,0,P|424:86|330:102,1,170.999994781494
268,299,94429,2,0,L|83:218,1,199.499993911743
85,218,95115,2,0,P|115:190|106:136,2,85.4999973907472
166,384,95801,2,0,P|141:306|212:253,1,170.999994781494
259,92,96487,6,0,P|279:174|286:266,1,170.999994781494
150,134,97172,2,0,P|130:216|121:337,1,199.499993911743
120,330,97858,2,0,B|161:342|161:342|200:323,2,85.4999973907472
60,130,98544,2,0,P|91:58|181:47,1,170.999994781494
305,70,99229,6,0,B|299:115|345:128|345:128|350:167|350:167|406:195|403:261,1,227.999993041992
426,249,100258,2,0,B|428:187|372:159|372:159|367:120|367:120|321:107|327:62,1,227.999993041992
256,256,101287,2,0,L|312:248,1,57
153,121,101972,6,0,B|129:116|129:116|98:110|69:129|63:160|63:160|43:266,1,199.499993911743
46,246,102658,2,0,L|102:238,1,57
257,215,103344,6,0,L|242:110,2,85.4999973907472
161,344,104029,2,0,L|217:336,1,57
323,278,104372,1,0,0:0:0:0:
323,278,104544,1,0,0:0:0:0:
244,130,104715,6,0,P|282:97|367:110,1,128.249996086121
398,131,105058,1,0,0:0:0:0:
323,278,105229,2,0,L|337:352,1,76
64,195,105744,2,0,P|110:164|192:181,1,128.249996086121
221,202,106087,6,0,L|213:333,1,128.249996086121
209,380,106429,1,0,0:0:0:0:
387,310,106601,2,0,P|357:284|311:279,1,76
87,358,107115,2,0,L|105:246,1,85.4999973907472
186,103,107458,5,0,0:0:0:0:
399,157,107629,1,0,0:0:0:0:
186,180,107801,5,0,0:0:0:0:
368,83,107972,1,0,0:0:0:0:
119,141,108144,5,0,0:0:0:0:
448,221,108315,1,0,0:0:0:0:
83,268,108487,1,0,0:0:0:0:
83,268,108572,1,0,0:0:0:0:
83,268,108658,1,0,0:0:0:0:
83,268,108744,1,0,0:0:0:0:
83,268,108829,1,0,0:0:0:0:
122,252,109515,6,0,L|70:272,3,42.7499986953736
41,166,109858,2,0,L|-11:146,3,42.7499986953736
117,82,110201,6,0,P|176:84|245:106,1,113.999996520996
338,149,110458,2,0,B|356:206|356:206|336:272,1,113.999996520996
294,351,110715,2,0,B|268:373|268:373|163:354,1,113.999996520996
187,109,111058,6,0,P|197:139|185:172,1,56.9999982604981
88,212,111229,2,0,L|26:219,1,56.9999982604981
0,102,111401,2,0,L|56:108,1,56.9999982604981
145,338,111572,6,0,P|168:282|156:214,1,113.999996520996
127,80,111829,2,0,B|197:61|191:109|261:88,1,113.999996520996
371,90,112087,2,0,L|395:226,1,113.999996520996
421,384,112429,5,0,0:0:0:0:
106,331,112601,2,0,P|136:314|183:315,1,66.4999979705811
421,384,112772,2,0,L|424:283,1,76
427,96,112944,6,0,P|379:120|310:104,1,113.999996520996
201,34,113201,2,0,P|151:15|97:37,1,113.999996520996
0,143,113458,2,0,L|121:128,1,113.999996520996
321,110,113801,6,0,P|300:163|329:214,2,113.999996520996
443,203,114315,6,0,L|461:331,1,113.999996520996
346,384,114572,2,0,P|302:346|246:352,1,113.999996520996
96,384,114829,2,0,L|85:295,1,56.9999982604981
144,97,115001,6,0,L|129:211,1,113.999996520996
62,78,115258,2,0,P|86:37|156:20,1,113.999996520996
268,136,115515,2,0,L|195:141,1,56.9999982604981
315,27,115687,6,0,B|306:90|358:71|348:161,1,113.999996520996
263,228,115944,2,0,P|250:283|293:332,1,113.999996520996
451,368,116201,2,0,L|464:247,1,113.999996520996
467,74,116544,6,0,L|397:79,1,56.9999982604981
337,179,116715,2,0,L|413:190,1,56.9999982604981
268,65,116887,2,0,P|253:92|255:131,1,56.9999982604981
274,371,117058,6,0,L|249:237,1,113.999996520996
102,288,117315,2,0,L|127:154,1,113.999996520996
28,80,117572,2,0,P|71:44|128:43,1,113.999996520996
325,111,117915,5,0,0:0:0:0:
122,175,118087,2,0,P|126:139|152:113,1,66.4999979705811
411,76,118258,2,0,P|422:110|410:151,1,76
323,287,118429,6,0,B|282:301|282:301|183:288,1,113.999996520996
73,265,118687,2,0,P|119:224|113:156,1,113.999996520996
39,13,118944,2,0,L|28:138,1,113.999996520996
282,160,119287,6,0,P|279:128|252:100,1,56.9999982604981
134,119,119458,2,0,L|117:194,1,56.9999982604981
201,257,119629,2,0,L|276:245,1,56.9999982604981
371,168,119801,6,0,P|393:117|369:56,1,113.999996520996
264,108,120058,2,0,P|207:106|139:118,1,113.999996520996
56,21,120315,2,0,L|74:101,1,56.9999982604981
1,217,120487,6,0,L|61:161,1,56.9999982604981
150,114,120658,1,0,0:0:0:0:
171,154,120744,1,0,0:0:0:0:
174,199,120829,1,0,0:0:0:0:
160,242,120915,1,0,0:0:0:0:
131,277,121001,1,0,0:0:0:0:
92,301,121087,1,0,0:0:0:0:
47,310,121172,6,0,B|112:295|101:356|198:340,1,132.999995941162
330,326,121429,2,0,P|282:299|259:230,1,113.999996520996
410,219,121687,2,0,B|418:164|418:164|383:107,1,113.999996520996
163,161,122029,6,0,P|159:195|174:226,1,56.9999982604981
280,114,122201,2,0,P|252:93|218:91,1,56.9999982604981
258,246,122372,2,0,P|289:232|308:203,1,56.9999982604981
163,161,122544,6,0,P|102:163|37:184,1,113.999996520996
77,349,122801,2,0,P|66:298|108:246,1,113.999996520996
223,333,123058,2,0,P|283:324|345:296,1,113.999996520996
468,219,123401,5,0,0:0:0:0:
259,182,123572,2,0,L|265:255,1,66.4999979705811
512,358,123744,2,0,P|520:318|504:280,1,76
355,228,123915,6,0,P|343:173|387:125,1,113.999996520996
512,160,124172,2,0,P|514:105|462:66,1,113.999996520996
288,4,124429,2,0,B|266:36|266:36|289:122,1,113.999996520996
369,354,124772,6,0,P|403:354|426:337,1,56.9999982604981
351,220,124944,2,0,L|337:280,1,56.9999982604981
236,369,125115,2,0,L|298:336,1,56.9999982604981
380,197,125287,6,0,L|242:179,1,113.999996520996
120,53,125544,2,0,B|104:111|104:111|130:167,1,113.999996520996
42,273,125801,2,0,L|117:255,1,56.9999982604981
268,217,125972,6,0,L|292:343,1,113.999996520996
424,371,126229,2,0,L|446:259,1,113.999996520996
469,124,126487,2,0,P|437:124|412:142,1,56.9999982604981
268,217,126658,6,0,L|245:105,1,113.999996520996
27,214,127001,2,0,B|76:238|72:178|156:202,1,113.999996520996
59,8,127344,6,0,L|37:140,1,113.999996520996
207,365,127687,2,0,P|218:313|168:250,1,113.999996520996
18,345,128029,5,0,0:0:0:0:
289,274,128201,1,0,0:0:0:0:
0,206,128372,5,0,0:0:0:0:
274,261,128544,1,0,0:0:0:0:
154,17,128715,6,0,L|195:68,1,56.9999982604981
187,247,128887,2,0,L|211:185,1,56.9999982604981
181,26,129058,2,0,L|222:77,1,56.9999982604981
208,233,129229,2,0,L|232:171,1,56.9999982604981
370,28,129401,5,0,0:0:0:0:
415,20,129487,1,0,0:0:0:0:
455,40,129572,1,0,0:0:0:0:
468,83,129658,1,0,0:0:0:0:
451,125,129744,1,0,0:0:0:0:
423,160,129829,1,0,0:0:0:0:
431,204,129915,1,0,0:0:0:0:
468,230,130001,1,0,0:0:0:0:
512,218,130087,5,0,0:0:0:0:
476,182,130172,1,0,0:0:0:0:
424,181,130258,1,0,0:0:0:0:
380,208,130344,1,0,0:0:0:0:
357,253,130429,1,0,0:0:0:0:
313,280,130515,1,0,0:0:0:0:
261,284,130601,1,0,0:0:0:0:
214,262,130687,1,0,0:0:0:0:
187,218,130772,6,0,B|169:179|189:141|189:141|146:128|67:170|63:265|120:320|189:348|262:300|277:243|266:200|266:200|256:167|278:131|316:130,1,570
298,133,132144,6,0,L|288:258,1,113.999996520996
280,367,132487,1,0,0:0:0:0:
174,356,132658,1,0,0:0:0:0:
67,342,132829,2,0,P|62:288|113:240,1,113.999996520996
219,107,133172,2,0,L|196:237,1,113.999996520996
194,247,133429,1,0,0:0:0:0:
188,275,133515,6,0,P|236:238|291:249,1,113.999996520996
390,162,133858,1,0,0:0:0:0:
483,271,134029,2,0,P|428:279|366:274,1,113.999996520996
468,187,134372,1,0,0:0:0:0:
426,334,134544,1,0,0:0:0:0:
285,245,134715,2,0,P|274:166|334:100,1,170.999994781494
396,87,135058,6,0,P|341:104|282:54,1,113.999996520996
260,9,135315,2,0,P|218:51|224:113,1,113.999996520996
244,186,135572,2,0,B|207:174|179:205|179:205|116:210|92:152,2,170.999994781494
141,91,136258,5,0,0:0:0:0:
46,234,136429,1,0,0:0:0:0:
141,91,136601,1,0,0:0:0:0:
5,157,136772,2,0,B|63:136|107:180|107:180|150:226|221:204,1,227.999993041992
303,111,137287,1,0,0:0:0:0:
471,179,137458,1,0,0:0:0:0:
474,151,137544,1,0,0:0:0:0:
478,123,137629,6,0,P|417:117|376:155,1,113.999996520996
409,312,137972,2,0,P|356:323|307:293,1,113.999996520996
224,82,138315,2,0,P|198:198|195:316,1,227.999993041992
408,234,138829,6,0,P|354:238|284:214,1,113.999996520996
54,161,139172,2,0,P|116:159|176:134,1,113.999996520996
380,43,139515,2,0,P|398:97|369:158,1,113.999996520996
211,221,139858,1,0,0:0:0:0:
354,271,140029,1,0,0:0:0:0:
263,155,140201,2,0,P|239:138|205:135,1,56.9999982604981
114,144,140372,6,0,L|126:280,1,113.999996520996
274,280,140715,1,0,0:0:0:0:
135,337,140887,1,0,0:0:0:0:
135,337,141058,2,0,P|77:327|47:275,1,113.999996520996
114,144,141401,1,0,0:0:0:0:
124,257,141572,1,0,0:0:0:0:
36,115,141744,6,0,P|73:70|130:65,1,113.999996520996
270,141,142087,2,0,P|288:195|267:253,1,113.999996520996
114,144,142429,6,0,L|188:157,1,56.9999982604981
326,131,142601,2,0,L|252:144,1,56.9999982604981
115,227,142772,1,0,0:0:0:0:
93,246,142858,1,0,0:0:0:0:
80,271,142944,1,0,0:0:0:0:
76,299,143029,1,0,0:0:0:0:
81,331,143115,6,0,P|140:302|213:308,1,132.999995941162
418,384,143458,2,0,L|329:284,1,123.499994346619
307,112,143801,2,0,P|275:159|288:221,1,113.999996520996
399,154,144144,1,0,0:0:0:0:
433,281,144315,1,0,0:0:0:0:
282,212,144487,5,0,0:0:0:0:
399,154,144658,1,0,0:0:0:0:
335,291,144829,1,0,0:0:0:0:
228,143,145001,2,0,P|169:142|102:159,1,113.999996520996
203,223,145344,1,0,0:0:0:0:
188,53,145515,1,0,0:0:0:0:
48,116,145687,1,0,0:0:0:0:
41,131,145772,1,0,0:0:0:0:
39,148,145858,6,0,P|46:191|117:229,1,113.999996520996
218,384,146201,2,0,P|213:328|259:285,1,113.999996520996
326,127,146544,1,0,0:0:0:0:
429,261,146715,1,0,0:0:0:0:
250,288,146887,1,0,0:0:0:0:
408,128,147058,2,0,L|416:184,1,56.9999982604981
440,341,147229,6,0,P|385:329|353:282,1,113.999996520996
326,127,147572,2,0,B|345:71|345:71|398:49,1,113.999996520996
475,240,147915,1,0,0:0:0:0:
337,204,148087,1,0,0:0:0:0:
476,65,148258,2,0,P|511:108|506:175,1,113.999996520996
149,142,148601,6,0,P|152:84|192:48,1,113.999996520996
432,136,148944,5,0,0:0:0:0:
171,234,149115,1,0,0:0:0:0:
444,213,149287,5,0,0:0:0:0:
149,142,149458,1,0,0:0:0:0:
401,284,149629,5,0,0:0:0:0:
313,30,149801,1,0,0:0:0:0:
92,220,149972,6,0,P|98:281|152:312,1,113.999996520996
351,129,150315,5,0,0:0:0:0:
92,220,150487,1,0,0:0:0:0:
362,209,150658,5,0,0:0:0:0:
58,146,150829,1,0,0:0:0:0:
322,277,151001,5,0,0:0:0:0:
273,12,151172,1,0,0:0:0:0:
58,146,151344,5,0,0:0:0:0:
58,146,151429,1,0,0:0:0:0:
58,146,151515,2,0,L|51:223,1,66.4999979705811
182,69,151687,5,0,0:0:0:0:
182,69,151772,1,0,0:0:0:0:
182,69,151858,2,0,L|189:146,1,66.4999979705811
222,359,152029,5,0,0:0:0:0:
215,310,152114,1,0,0:0:0:0:
228,262,152200,1,0,0:0:0:0:
257,224,152286,1,0,0:0:0:0:
299,200,152371,1,0,0:0:0:0:
348,193,152457,1,0,0:0:0:0:
394,205,152543,1,0,0:0:0:0:
434,234,152629,1,0,0:0:0:0:
459,275,152714,1,0,0:0:0:0:
144,299,165058,6,0,L|100:389,1,95
102,213,165401,2,0,L|146:303,1,95
143,127,165744,2,0,L|99:217,1,95
81,22,166087,1,0,0:0:0:0:
211,78,166258,1,0,0:0:0:0:
311,12,166429,6,0,L|424:30,1,95
496,136,166772,2,0,L|383:154,1,95
295,0,167115,2,0,L|408:18,1,95
480,124,167458,2,0,L|367:142,1,95
248,99,167801,6,0,L|259:153,2,47.5
345,203,168144,2,0,L|334:257,2,47.5
222,276,168487,2,0,L|168:287,2,47.5
351,335,168829,2,0,L|405:346,2,47.5
473,261,169172,6,0,L|459:168,1,95
378,48,169515,2,0,L|364:141,1,95
285,261,169858,5,0,0:0:0:0:
259,274,169944,1,0,0:0:0:0:
232,284,170029,1,0,0:0:0:0:
203,288,170115,1,0,0:0:0:0:
165,281,170201,1,0,0:0:0:0:
131,261,170287,1,0,0:0:0:0:
106,226,170372,1,0,0:0:0:0:
94,184,170458,1,0,0:0:0:0:
104,137,170544,5,0,0:0:0:0:
237,204,170715,1,0,0:0:0:0:
266,31,170887,5,0,0:0:0:0:
123,117,171058,1,0,0:0:0:0:
310,173,171229,5,0,0:0:0:0:
253,49,171401,1,0,0:0:0:0:
120,232,171572,5,0,0:0:0:0:
297,193,171744,1,0,0:0:0:0:
46,138,171915,5,0,0:0:0:0:
274,268,172087,1,0,0:0:0:0:
165,42,172258,5,0,0:0:0:0:
108,317,172429,1,0,0:0:0:0:
258,46,172601,5,0,0:0:0:0:
328,327,172772,1,0,0:0:0:0:
356,50,172944,5,0,0:0:0:0:
215,325,173115,1,0,0:0:0:0:
455,227,173287,5,0,0:0:0:0:
405,211,173372,1,0,0:0:0:0:
355,195,173458,1,0,0:0:0:0:
305,179,173544,1,0,0:0:0:0:
255,163,173630,5,0,0:0:0:0:
286,134,173715,1,0,0:0:0:0:
309,110,173801,1,0,0:0:0:0:
333,86,173887,1,0,0:0:0:0:
356,62,173973,5,0,0:0:0:0:
360,113,174058,1,0,0:0:0:0:
363,158,174144,1,0,0:0:0:0:
365,198,174229,1,0,0:0:0:0:
367,234,174315,5,0,0:0:0:0:
386,206,174401,1,0,0:0:0:0:
405,178,174487,1,0,0:0:0:0:
424,150,174572,1,0,0:0:0:0:
443,122,174658,1,0,0:0:0:0:
443,122,175344,5,0,0:0:0:0:
332,109,175515,1,0,0:0:0:0:
285,209,175687,1,0,0:0:0:0:
366,285,175858,1,0,0:0:0:0:
463,231,176029,6,0,B|442:122|442:122|429:165,1,152
285,209,176544,1,0,0:0:0:0:
285,209,176715,2,0,P|251:224|212:220,1,76
124,148,177058,1,0,0:0:0:0:
124,148,177229,1,0,0:0:0:0:
52,237,177401,5,0,0:0:0:0:
52,237,177572,1,0,0:0:0:0:
166,254,177744,1,0,0:0:0:0:
166,254,177915,2,0,P|221:213|237:128,1,152
171,41,178429,2,0,L|166:88,3,38
194,28,178772,6,0,B|240:25|240:25|302:63|302:63|353:60,1,152
456,14,179287,1,0,0:0:0:0:
456,14,179458,2,0,P|468:56|456:95,1,76
350,154,179801,1,0,0:0:0:0:
350,154,179972,1,0,0:0:0:0:
379,280,180144,5,0,0:0:0:0:
379,280,180315,1,0,0:0:0:0:
507,291,180487,1,0,0:0:0:0:
507,291,180658,1,0,0:0:0:0:
502,162,180829,2,0,L|422:175,1,76
311,234,181172,2,0,L|391:247,1,76
305,144,181515,6,0,P|240:173|229:269,1,152
113,303,182029,1,0,0:0:0:0:
113,303,182201,2,0,B|142:299|142:299|203:325|203:325|243:320,1,114
292,273,182544,2,0,P|256:256|239:220,1,76
390,183,182887,6,0,P|390:226|367:258,1,76
239,225,183229,1,0,0:0:0:0:
239,225,183401,2,0,P|205:207|126:224,1,114
132,218,183744,2,0,B|101:220|101:220|59:188,2,76
363,336,184429,5,0,0:0:0:0:
363,336,184601,2,0,L|278:317,1,76
230,203,184944,2,0,L|145:222,1,76
53,298,185287,2,0,P|79:329|121:340,1,76
297,136,185629,5,0,0:0:0:0:
2,66,185972,2,0,P|-9:99|4:144,1,76
145,90,186315,6,0,L|91:100,3,38
245,34,186658,2,0,L|198:8,3,38
295,127,187001,6,0,L|290:161,1,28.5
280,207,187344,2,0,P|346:192|373:114,1,156.750004783631
394,84,187687,2,0,B|406:115|407:150|395:181,1,95
480,340,188029,2,0,P|482:292|455:248,1,95
298,192,188372,2,0,L|191:205,1,95
74,128,188715,6,0,L|168:116,1,95
247,268,189058,2,0,P|220:308|170:325,1,95
160,195,189401,1,0,0:0:0:0:
298,192,189572,1,0,0:0:0:0:
226,301,189744,6,0,L|117:277,1,95
0,175,190087,2,0,L|109:151,1,95
231,127,190429,1,0,0:0:0:0:
83,60,190601,2,0,L|95:176,1,95
111,329,190944,5,0,0:0:0:0:
242,355,191201,5,0,0:0:0:0:
307,237,191458,5,0,0:0:0:0:
215,138,191715,5,0,0:0:0:0:
176,268,191972,5,0,0:0:0:0:
269,366,192229,5,0,0:0:0:0:
306,359,192315,1,0,0:0:0:0:
343,352,192401,1,0,0:0:0:0:
380,345,192487,6,0,L|388:242,1,95
470,101,192829,2,0,L|462:195,1,95
308,120,193172,2,0,L|209:82,1,95
133,234,193515,2,0,P|183:230|217:199,1,95
168,36,193858,5,0,0:0:0:0:
59,167,194029,1,0,0:0:0:0:
231,199,194201,2,0,P|205:157|161:136,1,95
39,249,194544,2,0,L|156:230,1,95
293,319,194887,2,0,L|176:300,1,95
275,117,195229,5,0,0:0:0:0:
365,284,195401,1,0,0:0:0:0:
225,188,195572,5,0,0:0:0:0:
455,129,195744,1,0,0:0:0:0:
268,277,195915,5,0,0:0:0:0:
325,50,196087,1,0,0:0:0:0:
448,346,196258,5,0,0:0:0:0:
225,188,196429,1,0,0:0:0:0:
512,113,196601,1,0,0:0:0:0:
512,113,196944,6,0,B|453:104|474:141|399:128,1,99.7499969558717
343,116,197287,2,0,L|291:102,3,42.7499986953736
455,222,197630,2,0,L|403:236,3,42.7499986953736
382,357,197973,1,0,0:0:0:0:
256,93,208944,5,0,0:0:0:0:
313,271,210144,5,0,0:0:0:0:
162,161,211687,5,0,0:0:0:0:
349,161,212887,5,0,0:0:0:0:
198,271,214429,5,0,0:0:0:0:
256,93,215629,5,0,0:0:0:0:
256,290,217172,5,0,0:0:0:0:
256,192,217258,12,0,219058,0:0:0:0:
205,230,219229,6,0,L|197:270,3,23.75
311,275,219572,2,0,L|319:315,3,23.75
200,335,219915,6,0,B|173:338|141:319|129:293|129:293|95:288|69:313,2,142.5
200,335,220772,6,0,L|185:273,1,47.5
90,217,220944,2,0,L|105:155,3,47.5
172,105,221287,6,0,L|296:79,1,113.999996520996
263,51,221544,6,0,L|158:72,1,76
203,31,221801,6,0,L|254:20,1,38
408,121,222144,1,0,0:0:0:0:
296,213,222315,2,0,L|303:264,1,47.5
441,384,222487,2,0,L|434:336,1,47.5
425,251,222658,6,0,P|461:255|489:274,2,57
415,185,223515,2,0,L|424:250,2,66.4999979705811
297,104,224029,6,0,P|275:128|194:118,1,99.7499969558717
136,167,224372,6,0,P|107:214|123:278,1,114
191,315,224715,6,0,B|296:289|296:289|250:270,1,142.5
192,229,225058,6,0,B|147:216|107:243|107:243|63:273|6:254,1,185.249991519928
6,176,225401,6,0,P|46:134|25:42,2,142.5
6,176,226258,5,0,0:0:0:0:
6,176,226344,1,0,0:0:0:0:
6,176,226429,2,0,L|15:232,3,47.5
23,269,226772,6,0,B|124:251|124:251|170:275,2,142.5
23,269,227629,2,0,L|90:256,1,47.5
128,183,227801,2,0,L|192:205,1,47.5
262,166,227972,2,0,L|306:217,1,47.5
386,218,228144,6,0,L|396:270,2,42.7499986953736
458,323,229001,6,0,L|444:361,2,28.4999991302491
358,298,229515,6,0,L|385:217,1,85.4999973907472
414,148,229858,6,0,P|353:145|309:199,1,128.249996086121
282,266,230201,6,0,B|159:291|159:291|116:270,1,170.999994781494
56,223,230544,2,0,L|46:257,12,35.625001358986
64,196,230887,6,0,B|115:185|115:185|169:213|169:213|220:203,2,156.750004783631
159,45,231744,5,0,0:0:0:0:
159,45,231829,1,0,0:0:0:0:
159,45,231915,2,0,L|167:106,1,52.2500015945435
234,153,232086,2,0,L|242:214,1,52.2500015945435
309,261,232258,6,0,P|263:289|171:252,2,156.750004783631
471,91,233115,5,0,0:0:0:0:
471,91,233201,1,0,0:0:0:0:
471,91,233287,2,0,L|395:109,1,61.7499971733095
338,181,233458,2,0,L|414:199,1,61.7499971733095
502,185,233629,6,0,B|512:237|469:272|469:272|456:324|498:367,2,185.249991519928
327,347,234487,5,0,0:0:0:0:
327,347,234572,1,0,0:0:0:0:
327,347,234658,2,0,L|256:330,1,71.2500027179719
209,219,234829,2,0,L|138:235,1,71.2500027179719
37,303,235001,6,0,B|161:286|112:359|246:343,2,213.750008153916
130,62,235858,6,0,L|118:138,1,71.2500027179719
106,208,236029,2,0,L|33:226,3,71.2500027179719
105,292,236372,5,0,0:0:0:0:
245,156,236544,1,0,0:0:0:0:
130,62,236715,2,0,L|114:205,1,113.999996520996
243,317,237058,5,0,0:0:0:0:
306,91,237230,1,0,0:0:0:0:
130,62,237401,2,0,L|199:220,1,123.499994346619
406,273,237744,5,0,0:0:0:0:
335,0,237916,1,0,0:0:0:0:
129,62,238087,2,0,L|267:163,1,132.999995941162
512,143,238429,5,0,0:0:0:0:
242,21,238601,1,0,0:0:0:0:
94,264,238772,2,0,L|251:218,1,142.500005435944
479,32,239115,6,0,L|500:179,1,142.500005435944
364,348,239458,2,0,L|343:204,1,142.500005435944
473,0,239801,5,0,0:0:0:0:
510,233,239972,1,0,0:0:0:0:
368,63,240144,1,0,0:0:0:0:
360,111,240229,1,0,0:0:0:0:
352,159,240315,1,0,0:0:0:0:
344,207,240401,1,0,0:0:0:0:
336,255,240487,1,0,0:0:0:0:
336,255,241172,6,0,L|349:310,3,56.9999982604981
235,329,241515,2,0,L|222:384,3,56.9999982604981
117,327,241858,6,0,P|137:267|108:187,1,132.999995941162
40,93,242115,2,0,L|185:126,1,132.999995941162
274,40,242372,2,0,B|245:82|245:82|268:180,1,132.999995941162
497,290,242715,5,0,0:0:0:0:
458,252,242801,1,0,0:0:0:0:
404,250,242887,2,0,L|307:273,1,66.4999979705811
241,356,243058,2,0,L|305:340,1,66.4999979705811
404,250,243229,6,0,P|388:194|440:123,1,132.999995941162
494,17,243487,2,0,B|465:51|465:51|357:69,1,132.999995941162
253,17,243744,2,0,P|286:82|266:163,1,132.999995941162
38,255,244087,5,0,0:0:0:0:
135,80,244258,2,0,L|220:97,1,66.4999979705811
243,219,244429,2,0,L|177:205,1,66.4999979705811
55,149,244601,6,0,P|31:101|61:15,1,132.999995941162
181,8,244858,2,0,B|217:52|217:52|207:154,1,132.999995941162
110,216,245115,2,0,P|76:264|96:353,1,132.999995941162
285,161,245458,2,0,B|332:148|332:148|436:209,2,132.999995941162
83,334,245972,6,0,L|215:296,1,132.999995941162
285,161,246229,2,0,P|309:216|403:228,1,132.999995941162
497,292,246487,2,0,L|473:212,1,66.4999979705811
368,152,246658,6,0,B|384:56|384:56|395:97,1,132.999995941162
471,198,246915,2,0,P|420:231|410:314,1,132.999995941162
301,214,247172,1,0,0:0:0:0:
248,223,247258,1,0,0:0:0:0:
198,202,247344,6,0,P|164:158|174:78,1,132.999995941162
285,16,247601,2,0,B|315:54|315:54|429:74,1,132.999995941162
479,174,247858,2,0,P|417:191|388:278,1,132.999995941162
129,321,248201,5,0,0:0:0:0:
94,280,248287,1,0,0:0:0:0:
85,227,248372,2,0,L|103:137,1,66.4999979705811
190,63,248544,2,0,L|176:128,1,66.4999979705811
187,261,248715,6,0,P|222:312|315:312,1,132.999995941162
377,224,248972,2,0,B|350:185|350:185|231:165,1,132.999995941162
139,126,249229,2,0,P|104:162|115:258,1,132.999995941162
323,89,249572,5,0,0:0:0:0:
63,26,249744,2,0,P|50:55|66:110,1,66.4999979705811
129,188,249915,2,0,P|142:159|126:104,1,66.4999979705811
6,149,250087,6,0,L|22:285,1,132.999995941162
133,353,250344,2,0,P|201:341|252:270,1,132.999995941162
231,163,250601,2,0,B|218:113|218:113|269:19,1,132.999995941162
485,178,250944,2,0,L|504:321,2,132.999995941162
232,263,251458,6,0,L|368:289,1,132.999995941162
386,156,251715,2,0,L|234:186,1,132.999995941162
168,80,251972,2,0,P|201:92|252:81,1,66.4999979705811
364,68,252144,5,0,0:0:0:0:
326,87,252229,1,0,0:0:0:0:
301,125,252315,2,0,P|296:166|316:214,1,66.4999979705811
392,346,252487,1,0,0:0:0:0:
423,335,252572,1,0,0:0:0:0:
428,302,252658,1,0,0:0:0:0:
407,275,252744,1,0,0:0:0:0:
375,263,252829,6,0,B|343:257|312:285|312:285|280:312|222:301,1,152
102,195,253087,2,0,L|266:222,1,152
95,280,253344,2,0,P|26:237|57:122,1,152
276,50,253687,5,0,0:0:0:0:
246,93,253772,1,0,0:0:0:0:
235,145,253858,2,0,L|257:243,1,76
375,263,254029,2,0,L|358:188,1,76
246,93,254201,6,0,B|209:65|209:65|96:91,1,152
18,213,254458,2,0,P|78:197|149:278,1,152
251,357,254715,2,0,P|223:296|286:207,1,152
512,173,255058,5,0,0:0:0:0:
332,269,255229,2,0,L|341:191,1,76
440,49,255400,2,0,L|431:124,1,76
332,269,255572,6,0,L|172:293,1,152
45,223,255829,2,0,L|195:200,1,152
312,99,256087,2,0,L|161:121,1,152
92,307,256429,5,0,0:0:0:0:
344,343,256601,2,0,L|328:249,1,76
234,150,256772,2,0,L|246:224,1,76
344,343,256944,6,0,B|390:322|390:322|419:197,1,152
491,92,257201,2,0,B|452:130|452:130|339:137,1,152
221,61,257458,2,0,L|330:54,1,76
403,166,257629,6,0,L|205:177,1,152
123,88,257887,2,0,P|168:146|142:246,1,152
76,356,258144,1,0,0:0:0:0:
59,305,258229,1,0,0:0:0:0:
80,255,258315,6,0,L|234:248,1,152
407,83,258658,1,0,0:0:0:0:
509,310,258829,1,0,0:0:0:0:
479,35,259001,5,0,0:0:0:0:
377,262,259172,1,0,0:0:0:0:
344,23,259344,5,0,0:0:0:0:
241,280,259515,1,0,0:0:0:0:
127,77,259687,6,0,P|193:57|283:81,1,152
79,223,260029,1,0,0:0:0:0:
341,186,260201,1,0,0:0:0:0:
62,138,260372,5,0,0:0:0:0:
319,263,260544,1,0,0:0:0:0:
0,195,260715,5,0,0:0:0:0:
306,111,260887,1,0,0:0:0:0:
85,319,261058,5,0,0:0:0:0:
85,319,261144,1,0,0:0:0:0:
85,319,261229,2,0,L|101:234,1,76
232,68,261401,5,0,0:0:0:0:
232,68,261487,1,0,0:0:0:0:
232,68,261572,2,0,P|193:75|154:108,1,76
23,253,261744,5,0,0:0:0:0:
71,231,261829,1,0,0:0:0:0:
123,238,261915,1,0,0:0:0:0:
160,276,262001,1,0,0:0:0:0:
215,302,262087,1,0,0:0:0:0:
275,296,262172,1,0,0:0:0:0:
333,259,262258,1,0,0:0:0:0:
353,193,262344,1,0,0:0:0:0:
321,133,262429,5,0,0:0:0:0:
155,354,262601,1,0,0:0:0:0:
155,354,262687,1,0,0:0:0:0:
155,354,262772,2,0,L|165:185,1,152
398,7,263115,6,0,L|410:89,1,76
496,149,263287,2,0,L|413:199,1,76
348,159,263458,2,0,L|381:388,1,228
451,355,263801,6,0,P|396:311|321:336,1,132.999995941162
125,338,264144,2,0,B|184:372|184:372|248:356,1,132.999995941162
131,176,264487,1,0,0:0:0:0:
44,293,264658,1,0,0:0:0:0:
247,273,264829,2,0,P|213:224|238:135,1,132.999995941162
398,33,265172,6,0,P|419:102|424:181,2,132.999995941162
153,52,265687,2,0,P|219:58|337:121,1,199.499993911743
396,205,266029,2,0,B|360:240|360:240|258:220,1,132.999995941162
94,115,266372,2,0,B|117:176|117:176|91:241|91:241|124:319,1,199.499993911743
187,379,266715,6,0,L|323:345,1,132.999995941162
384,232,266972,2,0,L|254:264,1,132.999995941162
136,202,267229,2,0,L|265:169,1,132.999995941162
345,61,267487,2,0,L|215:93,1,132.999995941162
134,45,267744,5,0,0:0:0:0:
93,231,267915,1,0,0:0:0:0:
215,93,268087,1,0,0:0:0:0:
19,144,268258,1,0,0:0:0:0:
178,292,268429,2,0,B|209:211|155:156|155:156|106:104|139:32,1,265.999991882324
281,182,268944,5,0,0:0:0:0:
460,103,269115,2,0,B|383:125|383:125|293:71|293:71|205:95,1,265.999991882324
499,374,269801,5,0,0:0:0:0:
370,222,269972,2,0,B|299:217|245:268|245:268|276:300|307:309,1,199.499993911743
377,329,270315,1,0,0:0:0:0:
478,188,270487,6,0,P|446:127|371:108,1,132.999995941162
245,231,270829,2,0,B|313:249|313:249|383:215,1,132.999995941162
180,155,271172,2,0,P|144:206|159:286,1,132.999995941162
270,153,271515,2,0,P|243:86|109:91,1,199.499993911743
28,89,271858,6,0,B|68:121|68:121|90:342,1,265.999991882324
269,253,272372,2,0,P|237:207|152:205,1,132.999995941162
17,346,272715,1,0,0:0:0:0:
192,272,272887,1,0,0:0:0:0:
379,341,273058,2,0,P|374:275|359:203,1,132.999995941162
235,18,273401,2,0,P|240:84|255:156,1,132.999995941162
474,198,273744,6,0,B|430:185|430:185|342:237|342:237|266:216,1,199.499993911743
207,180,274087,6,0,B|207:121|244:71|244:71|279:120|283:150,1,199.499993911743
292,223,274429,6,0,P|220:269|116:189,1,199.499993911743
59,146,274772,6,0,P|110:105|185:98,1,132.999995941162
36,238,275115,1,0,0:0:0:0:
102,74,275287,1,0,0:0:0:0:
218,227,275458,1,0,0:0:0:0:
59,146,275629,1,0,0:0:0:0:
218,13,275801,2,0,P|267:63|263:131,1,132.999995941162
382,293,276144,5,0,0:0:0:0:
489,154,276315,1,0,0:0:0:0:
300,196,276487,1,0,0:0:0:0:
489,312,276658,2,0,B|478:256|478:256|409:205|409:205|395:139,1,199.499993911743
382,50,277001,2,0,P|314:59|261:99,1,132.999995941162
149,261,277344,2,0,P|217:252|270:212,1,132.999995941162
116,95,277687,6,0,B|140:138|115:176|115:176|47:209|60:281,2,199.499993911743
276,140,278372,2,0,P|278:251|143:255,1,265.999991882324
221,73,278887,5,0,0:0:0:0:
392,169,279058,1,0,0:0:0:0:
209,196,279229,1,0,0:0:0:0:
355,48,279401,2,0,P|392:105|382:190,1,132.999995941162
227,294,279744,1,0,0:0:0:0:
301,132,279915,1,0,0:0:0:0:
439,295,280087,2,0,B|374:291|374:291|275:201|275:201|127:188,1,332.499989852906
41,184,280601,6,0,P|32:254|76:308,1,132.999995941162
301,132,280944,5,0,0:0:0:0:
87,101,281115,1,0,0:0:0:0:
337,212,281287,5,0,0:0:0:0:
187,35,281458,1,0,0:0:0:0:
134,235,281629,6,0,P|205:237|261:195,1,132.999995941162
436,20,281972,1,0,0:0:0:0:
498,246,282144,1,0,0:0:0:0:
216,132,282315,5,0,0:0:0:0:
502,92,282487,1,0,0:0:0:0:
254,203,282658,5,0,0:0:0:0:
462,319,282829,1,0,0:0:0:0:
292,63,283001,5,0,0:0:0:0:
292,63,283087,1,0,0:0:0:0:
292,63,283172,2,0,L|310:149,1,66.4999979705811
416,253,283344,5,0,0:0:0:0:
367,287,283429,1,0,0:0:0:0:
307,294,283515,1,0,0:0:0:0:
256,261,283601,1,0,0:0:0:0:
198,227,283687,1,0,0:0:0:0:
132,222,283772,1,0,0:0:0:0:
72,252,283858,1,0,0:0:0:0:
34,306,283944,1,0,0:0:0:0:
32,371,284029,5,0,0:0:0:0:
90,326,284115,1,0,0:0:0:0:
107,253,284201,1,0,0:0:0:0:
90,181,284287,1,0,0:0:0:0:
35,132,284372,1,0,0:0:0:0:
