osu file format v14

[General]
AudioFilename: audio.mp3
AudioLeadIn: 0
PreviewTime: -1
Countdown: 1
SampleSet: None
StackLeniency: 0.7
Mode: 0
LetterboxInBreaks: 0
WidescreenStoryboard: 0

[Editor]
DistanceSpacing: 1.3
BeatDivisor: 4
GridSize: 4
TimelineZoom: 1

[Metadata]
Title:Mi Gente
TitleUnicode:Mi Gente
Artist:J Balvin, Willy William
ArtistUnicode:J Balvin, Willy William
Creator:DominicsHase
Version:Can It Get Even Worse?
Source:
Tags:
BeatmapID:1912997
BeatmapSetID:915957

[Difficulty]
HPDrainRate:5
CircleSize:4
OverallDifficulty:5
ApproachRate:9.5
SliderMultiplier:2.8
SliderTickRate:1

[Events]
//Background and Video events
0,0,"Mi Gente.jpg",0,0
//Break Periods
//Storyboard Layer 0 (Background)
//Storyboard Layer 1 (Fail)
//Storyboard Layer 2 (Pass)
//Storyboard Layer 3 (Foreground)
//Storyboard Sound Samples

[TimingPoints]
5428.93319529057,285.714285714286,4,1,0,100,1,0
32857,-1000,4,1,0,100,0,0
34000,468.75,4,1,0,100,1,0
34000,-133.333333333333,4,1,0,100,0,0
41031,-66.6666666666667,4,1,0,100,0,0
43375,-100,4,1,0,100,0,0
43843,-60.6060606060606,4,1,0,100,0,0
44312,-48.780487804878,4,1,0,100,0,0
56031,-133.333333333333,4,1,0,100,0,0
58140,-285.714285714284,4,1,0,100,0,0

[HitObjects]
125,47,7714,6,0,P|101:151|111:335,1,280
224,199,8286,1,0,0:0:0:0:
28,179,8571,5,0,0:0:0:0:
286,152,8857,2,0,P|346:127|416:71,1,140
254,80,9286,5,0,0:0:0:0:
347,28,9428,1,0,0:0:0:0:
256,301,10000,5,8,0:0:0:0:
255,43,10428,1,8,0:0:0:0:
376,166,10714,1,8,0:0:0:0:
349,206,10786,1,8,0:0:0:0:
306,209,10857,1,8,0:0:0:0:
337,35,11143,5,8,0:0:0:0:
171,248,11428,1,8,0:0:0:0:
333,230,11571,1,8,0:0:0:0:
86,98,12000,5,8,0:0:0:0:
256,192,12286,12,0,13428,0:0:0:0:
254,189,14571,5,0,0:0:0:0:
362,75,15714,5,12,0:0:0:0:
60,62,18000,5,0,0:0:0:0:
155,83,18143,1,0,0:0:0:0:
121,178,18286,1,0,0:0:0:0:
236,164,18428,1,0,0:0:0:0:
213,58,18571,1,0,0:0:0:0:
147,171,18714,1,0,0:0:0:0:
217,285,18857,1,0,0:0:0:0:
299,160,19000,1,0,0:0:0:0:
94,114,19143,5,0,0:0:0:0:
431,210,19714,1,0,0:0:0:0:
97,173,20286,6,0,B|72:22|72:22|191:89,1,280
281,174,20714,1,0,0:0:0:0:
115,257,20857,2,0,B|46:255|46:255|65:31,1,280
218,54,21286,1,0,0:0:0:0:
267,190,21428,6,0,P|338:157|413:79,1,140
142,233,21714,2,0,P|76:256|16:304,1,140
246,126,22000,1,0,0:0:0:0:
164,253,22143,1,0,0:0:0:0:
179,97,22286,1,0,0:0:0:0:
250,260,22428,1,0,0:0:0:0:
127,127,22571,6,0,B|70:104|89:57|24:32,1,140
210,217,22857,2,0,B|267:240|248:287|313:312,1,140
142,78,23143,1,0,0:0:0:0:
115,243,23286,1,0,0:0:0:0:
39,146,23428,1,0,0:0:0:0:
216,147,23571,1,0,0:0:0:0:
60,222,23714,6,0,B|84:372|84:372|175:310|349:340,1,420
438,316,24286,1,0,0:0:0:0:
188,70,24571,1,0,0:0:0:0:
204,326,24857,6,0,B|394:317|394:317|312:259,1,280
216,229,25286,1,0,0:0:0:0:
22,321,25428,1,0,0:0:0:0:
190,167,25571,1,0,0:0:0:0:
75,356,25714,1,0,0:0:0:0:
134,137,25857,1,0,0:0:0:0:
142,378,26000,6,0,B|316:251|56:152|347:64,1,420
78,152,26571,1,0,0:0:0:0:
193,301,26714,1,0,0:0:0:0:
27,228,26857,1,0,0:0:0:0:
258,189,27000,1,0,0:0:0:0:
31,66,27143,5,0,0:0:0:0:
291,146,27571,6,0,P|370:107|424:51,1,140
182,111,27857,1,0,0:0:0:0:
344,194,28000,2,0,B|392:221|392:221|393:252|393:252|449:292,1,140
120,83,28286,1,0,0:0:0:0:
389,139,29428,6,0,B|368:344|368:344|258:236|148:308,1,420
321,182,30000,1,0,0:0:0:0:
120,148,30143,1,0,0:0:0:0:
356,98,30286,1,0,0:0:0:0:
76,67,30428,1,0,0:0:0:0:
341,73,30571,6,0,P|413:210|198:195,1,420
316,67,31143,1,0,0:0:0:0:
255,298,31286,1,0,0:0:0:0:
109,55,31428,1,0,0:0:0:0:
178,309,31571,1,0,0:0:0:0:
286,38,31714,6,0,B|391:62|452:116|404:155|404:155|459:262|398:308|282:284,1,420
230,26,32286,1,0,0:0:0:0:
436,105,32428,1,0,0:0:0:0:
81,137,32571,1,0,0:0:0:0:
396,55,32857,6,0,L|410:154,1,98
432,285,34000,5,0,0:0:0:0:
183,172,34234,1,0,0:0:0:0:
376,93,34468,1,0,0:0:0:0:
271,321,34703,1,0,0:0:0:0:
239,46,34937,1,0,0:0:0:0:
372,327,35171,1,0,0:0:0:0:
239,46,35406,1,0,0:0:0:0:
271,321,35640,1,0,0:0:0:0:
151,127,35875,6,0,P|68:87|40:68,1,105.000004005432
237,248,36343,2,0,P|311:258|371:244,1,105.000004005432
84,68,36812,1,0,0:0:0:0:
334,92,37046,1,0,0:0:0:0:
36,161,37281,1,0,0:0:0:0:
376,190,37515,1,0,0:0:0:0:
65,102,37750,5,0,0:0:0:0:
141,118,37984,1,0,0:0:0:0:
67,320,38218,1,0,0:0:0:0:
50,49,38453,1,0,0:0:0:0:
264,91,38687,2,0,P|346:110|381:102,1,105.000004005432
160,177,39156,2,0,P|79:187|14:172,1,105.000004005432
352,56,39625,5,0,0:0:0:0:
391,118,39859,1,0,0:0:0:0:
247,243,40093,1,0,0:0:0:0:
244,69,40328,1,0,0:0:0:0:
377,169,40562,1,0,0:0:0:0:
53,172,40796,1,0,0:0:0:0:
332,91,41031,2,0,P|423:116|270:226,1,420.000016021729
117,115,43375,6,0,P|112:53|209:96,1,210
182,251,43843,2,0,P|63:290|129:161,1,346.500003304482
281,126,44312,2,0,P|426:199|240:161,1,574.000008758545
332,242,45015,1,0,0:0:0:0:
61,66,45250,5,0,0:0:0:0:
440,111,45718,1,0,0:0:0:0:
93,189,45953,1,0,0:0:0:0:
393,48,46187,2,0,P|432:138|297:106,1,287.000004379273
337,86,46539,1,0,0:0:0:0:
374,133,46656,1,0,0:0:0:0:
115,190,46890,1,0,0:0:0:0:
393,84,47125,5,0,0:0:0:0:
357,122,47242,1,0,0:0:0:0:
316,162,47359,1,0,0:0:0:0:
124,64,47593,1,0,0:0:0:0:
420,147,47828,1,0,0:0:0:0:
76,176,48062,2,0,P|233:132|121:217,1,430.500006568909
139,165,48531,1,0,0:0:0:0:
233,182,48648,1,0,0:0:0:0:
196,280,48765,1,0,0:0:0:0:
301,236,48882,1,0,0:0:0:0:
339,340,49000,6,0,P|465:246|298:69,1,430.500006568909
238,132,49468,2,0,P|403:161|390:124,1,287.000004379273
98,48,49937,1,0,0:0:0:0:
377,174,50406,5,0,0:0:0:0:
306,106,50523,1,0,0:0:0:0:
252,195,50640,1,0,0:0:0:0:
196,110,50757,1,0,0:0:0:0:
141,269,50875,5,0,0:0:0:0:
361,84,51109,1,0,0:0:0:0:
101,214,51343,2,0,P|287:268|390:219,1,287.000004379273
108,113,51812,2,0,P|179:306|239:266,2,287.000004379273
174,140,52398,1,0,0:0:0:0:
230,199,52515,1,0,0:0:0:0:
276,311,52632,1,0,0:0:0:0:
323,132,52750,6,0,P|296:87|210:57,1,143.500002189636
277,199,52984,2,0,P|350:271|444:258,1,143.500002189636
226,112,53218,2,0,P|67:57|19:78,1,143.500002189636
278,257,53453,2,0,P|353:297|471:281,1,143.500002189636
110,66,53687,2,0,P|63:246|79:310,1,143.500002189636
378,310,53921,2,0,P|444:166|435:108,1,143.500002189636
123,76,54156,5,0,0:0:0:0:
211,267,54390,1,0,0:0:0:0:
169,31,54625,5,0,0:0:0:0:
476,135,54859,1,0,0:0:0:0:
82,332,55093,5,0,0:0:0:0:
174,15,55328,1,0,0:0:0:0:
473,143,55562,5,0,0:0:0:0:
206,341,55796,1,0,0:0:0:0:
354,73,56031,6,0,P|395:28|358:86,1,210.000008010865
119,77,58375,5,0,0:0:0:0:
384,272,58609,1,0,0:0:0:0:
205,221,58843,5,0,0:0:0:0:
426,69,59078,1,0,0:0:0:0:
118,122,59312,6,0,P|71:173|58:178,1,73.4999977569581
206,65,59781,2,0,P|242:39|273:38,1,73.4999977569581
147,190,60250,5,0,0:0:0:0:
97,131,60367,1,0,0:0:0:0:
199,125,60484,1,0,0:0:0:0:
255,190,60601,1,0,0:0:0:0:
254,274,60718,5,0,0:0:0:0:
205,22,60953,1,0,0:0:0:0:
337,188,61187,6,0,P|331:233|307:218,1,73.4999977569581
181,155,61656,2,0,P|158:172|183:209,1,73.4999977569581
256,177,62125,5,0,0:0:0:0:
11,151,62359,1,0,0:0:0:0:
305,242,62593,5,0,0:0:0:0:
6,69,62828,1,0,0:0:0:0:
292,35,63062,6,0,L|213:27,1,73.4999977569581
272,282,63531,2,0,L|351:297,1,73.4999977569581
17,132,64000,5,0,0:0:0:0:
375,138,64234,1,0,0:0:0:0:
28,288,64468,1,0,0:0:0:0:
342,29,64703,1,0,0:0:0:0:
175,351,64937,1,0,0:0:0:0:
229,6,65171,1,0,0:0:0:0:
333,371,65406,1,0,0:0:0:0:
23,145,65640,1,0,0:0:0:0:
440,198,65875,5,4,0:0:0:0:
