osu file format v14

[General]
AudioFilename: audio.mp3
AudioLeadIn: 0
PreviewTime: 9593
Countdown: 1
SampleSet: Normal
StackLeniency: 0.7
Mode: 1
LetterboxInBreaks: 0
WidescreenStoryboard: 1

[Editor]
Bookmarks: 1635,9635,25635,41635,57635,73635,89635,105635
DistanceSpacing: 2
BeatDivisor: 4
GridSize: 32
TimelineZoom: 1.8

[Metadata]
Title:Te no hira wo Taiyou ni
TitleUnicode:手のひらを太陽に
Artist:Izumi Taku
ArtistUnicode:いずみたく
Creator:KyouRekii87
Version:Team Taiwan Collab
Source:
Tags:doyo douyou children kids song
BeatmapID:2045801
BeatmapSetID:977217

[Difficulty]
HPDrainRate:0
CircleSize:5
OverallDifficulty:0
ApproachRate:5
SliderMultiplier:1.4
SliderTickRate:1

[Events]
//Background and Video events
0,0,"girl-looks-at-the-sun-through-her-hand-slow-motion_eozslr_0e__F0002.png",0,0
//Break Periods
//Storyboard Layer 0 (Background)
//Storyboard Layer 1 (Fail)
//Storyboard Layer 2 (Pass)
//Storyboard Layer 3 (Foreground)
Sprite,Foreground,Centre,"10a11e0c261053e1b484d2fb7e55d377.png",320,240 M,0,1385,,341.6455,371.5383 S,0,1385,,0.6087152 F,0,1385,1635,0,1 F,0,1635,9135,1 F,0,9135,9385,1,0 F,0,9385,57385,0 F,0,57385,57635,0,1 F,0,57635,73135,1 F,0,73135,73385,1,0
Sprite,Foreground,Centre,"ef6d4b4bfc4474406cd6d5161ebc158e.png",320,240 M,0,9385,,320,349.0602 S,0,9385,,0.4338861 F,0,9385,9635,0,1 F,0,9635,25135,1 F,0,25135,25385,1,0 F,0,25385,73385,0 F,0,73385,73635,0,1 F,0,73635,89135,1 F,0,89135,89385,1,0
Sprite,Foreground,Centre,"318708d550a17260048cca6b8a6e3f8b.png",320,240 M,0,25385,,326.6602,343.2325 S,0,25385,,0.6003903 F,0,25385,25635,0,1 F,0,25635,41135,1 F,0,41135,41385,1,0 F,0,41385,89385,0 F,0,89385,89635,0,1 F,0,89635,105135,1 F,0,105135,105385,1,0
Sprite,Foreground,Centre,"f0cb42ad126852e7f550e9ce5ef6df1e.png",320,240 M,0,41385,,318.335,353.2228 S,0,41385,,0.7918695 F,0,41385,41635,0,1 F,0,41635,57135,1 F,0,57135,57385,1,0 F,0,57385,105385,0 F,0,105385,105635,0,1 F,0,105635,113135,1 F,0,113135,113385,1,0
//Storyboard Sound Samples

[TimingPoints]
1635,500,4,1,0,60,1,0
25635,-100,4,1,0,60,0,1
40635,-100,4,1,0,60,0,0
73635,-100,4,1,0,60,0,1
88635,-100,4,1,0,60,0,0

[HitObjects]
191,189,1635,5,4,0:0:0:0:
191,189,2010,1,8,0:0:0:0:
191,189,2135,1,8,0:0:0:0:
191,189,2385,1,8,0:0:0:0:
191,189,2635,1,4,0:0:0:0:
191,189,3010,1,8,0:0:0:0:
191,189,3135,1,8,0:0:0:0:
191,189,3385,1,8,0:0:0:0:
254,195,3635,1,4,0:0:0:0:
254,195,4010,1,8,0:0:0:0:
254,195,4135,1,8,0:0:0:0:
254,195,4385,1,0,0:0:0:0:
254,195,4635,1,12,0:0:0:0:
254,195,4885,1,12,0:0:0:0:
254,195,5135,1,12,0:0:0:0:
191,189,5635,1,4,0:0:0:0:
191,189,6010,1,0,0:0:0:0:
191,189,6135,1,8,0:0:0:0:
191,189,6385,1,8,0:0:0:0:
191,189,6635,1,4,0:0:0:0:
191,189,7010,1,0,0:0:0:0:
191,189,7135,1,8,0:0:0:0:
191,189,7385,1,0,0:0:0:0:
242,121,7635,1,12,0:0:0:0:
242,121,7885,1,12,0:0:0:0:
242,121,8135,1,4,0:0:0:0:
242,121,8385,1,12,0:0:0:0:
242,121,8635,1,4,0:0:0:0:
242,121,9135,1,12,0:0:0:0:
440,190,9635,5,0,0:0:0:0:
256,192,10135,1,8,0:0:0:0:
256,192,10385,1,8,0:0:0:0:
256,192,10635,1,0,0:0:0:0:
256,192,11135,1,8,0:0:0:0:
256,192,11635,1,0,0:0:0:0:
256,192,11885,1,0,0:0:0:0:
256,192,12135,1,8,0:0:0:0:
256,192,12385,1,8,0:0:0:0:
256,192,12635,1,0,0:0:0:0:
256,192,12885,1,8,0:0:0:0:
256,192,13135,1,8,0:0:0:0:
256,192,13635,1,0,0:0:0:0:
256,192,14135,1,8,0:0:0:0:
256,192,14385,1,8,0:0:0:0:
256,192,14635,1,0,0:0:0:0:
256,192,14885,1,0,0:0:0:0:
256,192,15135,1,8,0:0:0:0:
256,192,15635,1,4,0:0:0:0:
256,192,16135,1,4,0:0:0:0:
256,192,16635,1,4,0:0:0:0:
256,192,16885,1,8,0:0:0:0:
256,192,17135,1,8,0:0:0:0:
256,192,17635,1,0,0:0:0:0:
256,192,18135,1,8,0:0:0:0:
256,192,18385,1,8,0:0:0:0:
256,192,18635,1,0,0:0:0:0:
256,192,19135,1,8,0:0:0:0:
256,192,19635,1,0,0:0:0:0:
256,192,19885,1,8,0:0:0:0:
256,192,20135,1,8,0:0:0:0:
256,192,20385,1,8,0:0:0:0:
256,192,20635,1,0,0:0:0:0:
256,192,20885,1,0,0:0:0:0:
256,192,21135,1,8,0:0:0:0:
256,192,21635,1,0,0:0:0:0:
256,192,22135,1,8,0:0:0:0:
256,192,22385,1,8,0:0:0:0:
256,192,22635,1,0,0:0:0:0:
256,192,22885,1,0,0:0:0:0:
256,192,23135,1,8,0:0:0:0:
256,192,23635,1,4,0:0:0:0:
256,192,24135,1,4,0:0:0:0:
256,192,24635,5,4,0:0:0:0:
256,192,24885,1,8,0:0:0:0:
256,192,25135,1,8,0:0:0:0:
256,192,25385,1,8,0:0:0:0:
428,195,25635,5,0,0:0:0:0:
440,190,25885,5,8,0:0:0:0:
428,195,26385,1,8,0:0:0:0:
423,170,26635,1,0,0:0:0:0:
470,192,26760,1,0,0:0:0:0:
423,170,26885,1,8,0:0:0:0:
423,170,27135,1,0,0:0:0:0:
423,170,27635,1,0,0:0:0:0:
426,180,27885,1,8,0:0:0:0:
423,170,28135,1,0,0:0:0:0:
476,198,28260,1,0,0:0:0:0:
476,198,28385,1,8,0:0:0:0:
423,170,28635,1,0,0:0:0:0:
426,171,28885,1,8,0:0:0:0:
427,171,29010,1,8,0:0:0:0:
427,171,29135,1,8,0:0:0:0:
427,171,29385,1,8,0:0:0:0:
435,171,29635,1,0,0:0:0:0:
441,178,29885,1,8,0:0:0:0:
307,197,30010,1,8,0:0:0:0:
441,178,30135,1,0,0:0:0:0:
444,178,30385,1,8,0:0:0:0:
444,178,30635,1,4,0:0:0:0:
307,197,31135,1,12,0:0:0:0:
283,193,31635,1,4,0:0:0:0:
285,204,31885,1,0,0:0:0:0:
285,204,32010,1,0,0:0:0:0:
285,204,32135,1,8,0:0:0:0:
288,204,32385,1,0,0:0:0:0:
293,203,32635,1,0,0:0:0:0:
277,192,32885,1,8,0:0:0:0:
278,192,33010,1,8,0:0:0:0:
278,192,33135,1,8,0:0:0:0:
280,193,33385,1,8,0:0:0:0:
280,193,33635,1,0,0:0:0:0:
266,191,33885,1,8,0:0:0:0:
266,191,34385,1,8,0:0:0:0:
266,191,34635,1,0,0:0:0:0:
291,224,34760,1,0,0:0:0:0:
266,191,34885,1,8,0:0:0:0:
266,191,35135,1,0,0:0:0:0:
306,201,35635,1,0,0:0:0:0:
306,201,35760,1,0,0:0:0:0:
331,216,35885,1,8,0:0:0:0:
298,214,36010,1,8,0:0:0:0:
331,216,36135,1,0,0:0:0:0:
331,216,36385,1,8,0:0:0:0:
331,216,36635,1,0,0:0:0:0:
332,222,36885,1,8,0:0:0:0:
332,222,37010,1,8,0:0:0:0:
334,222,37135,1,8,0:0:0:0:
423,258,37385,1,8,0:0:0:0:
423,258,37635,1,0,0:0:0:0:
302,183,37885,1,8,0:0:0:0:
302,183,38010,1,8,0:0:0:0:
302,183,38135,1,0,0:0:0:0:
302,183,38385,1,8,0:0:0:0:
302,183,38635,1,4,0:0:0:0:
494,231,39135,1,12,0:0:0:0:
454,211,39635,1,4,0:0:0:0:
256,192,39666,12,0,40385,0:0:0:0:
442,191,40635,5,0,0:0:0:0:
440,190,41635,5,0,0:0:0:0:
447,146,41885,1,2,0:0:0:0:
447,146,42010,1,2,0:0:0:0:
386,147,42135,1,0,0:0:0:0:
447,146,42385,1,2,0:0:0:0:
462,138,42635,1,0,0:0:0:0:
467,119,42760,1,0,0:0:0:0:
467,119,42885,1,2,0:0:0:0:
220,108,43135,1,2,0:0:0:0:
439,154,43385,1,0,0:0:0:0:
440,190,43635,5,0,0:0:0:0:
447,146,43885,1,2,0:0:0:0:
447,146,44010,1,2,0:0:0:0:
386,147,44135,1,0,0:0:0:0:
447,146,44385,1,2,0:0:0:0:
462,138,44635,1,0,0:0:0:0:
467,119,44760,1,0,0:0:0:0:
467,119,44885,1,2,0:0:0:0:
220,108,45135,1,2,0:0:0:0:
439,154,45385,1,2,0:0:0:0:
405,185,45635,1,0,0:0:0:0:
488,126,45885,1,2,0:0:0:0:
423,151,46135,1,0,0:0:0:0:
443,138,46385,1,2,0:0:0:0:
446,145,46635,1,0,0:0:0:0:
473,139,46885,1,2,0:0:0:0:
473,139,47010,1,2,0:0:0:0:
466,139,47135,1,0,0:0:0:0:
407,159,47385,1,2,0:0:0:0:
435,155,47635,1,0,0:0:0:0:
446,134,47885,1,2,0:0:0:0:
445,135,48010,1,2,0:0:0:0:
368,142,48135,1,0,0:0:0:0:
423,148,48385,1,2,0:0:0:0:
462,149,48635,1,0,0:0:0:0:
500,121,48885,1,2,0:0:0:0:
500,121,49010,1,2,0:0:0:0:
374,133,49135,1,0,0:0:0:0:
443,146,49385,1,2,0:0:0:0:
439,191,49635,1,4,0:0:0:0:
404,175,50385,1,2,0:0:0:0:
379,218,50635,1,4,0:0:0:0:
457,196,51135,1,2,0:0:0:0:
448,159,51635,1,4,0:0:0:0:
456,159,51885,1,2,0:0:0:0:
456,159,52135,1,2,0:0:0:0:
456,159,52385,1,2,0:0:0:0:
472,179,52635,1,4,0:0:0:0:
376,162,52885,1,2,0:0:0:0:
376,162,53385,1,2,0:0:0:0:
304,227,53635,1,0,0:0:0:0:
421,169,53885,1,2,0:0:0:0:
429,153,54135,1,0,0:0:0:0:
404,166,54385,1,2,0:0:0:0:
361,143,54635,1,0,0:0:0:0:
374,143,54885,1,2,0:0:0:0:
376,143,55010,1,2,0:0:0:0:
403,140,55135,1,0,0:0:0:0:
459,172,55385,1,2,0:0:0:0:
416,151,55635,1,0,0:0:0:0:
445,149,55885,1,2,0:0:0:0:
429,150,56135,1,2,0:0:0:0:
429,150,56385,1,2,0:0:0:0:
428,164,56635,1,0,0:0:0:0:
373,192,57135,1,4,0:0:0:0:
278,174,57635,5,0,0:0:0:0:
278,174,58010,1,0,0:0:0:0:
278,174,58135,1,8,0:0:0:0:
278,174,58385,1,0,0:0:0:0:
278,174,58635,1,8,0:0:0:0:
278,174,58760,1,8,0:0:0:0:
278,174,58885,1,0,0:0:0:0:
278,174,59135,1,8,0:0:0:0:
342,104,59635,1,8,0:0:0:0:
342,104,59760,1,0,0:0:0:0:
342,104,59885,1,0,0:0:0:0:
342,104,60010,1,8,0:0:0:0:
342,104,60135,1,8,0:0:0:0:
342,104,60385,1,0,0:0:0:0:
342,104,60635,1,8,0:0:0:0:
342,104,60885,1,0,0:0:0:0:
342,104,61135,1,8,0:0:0:0:
342,104,61385,1,8,0:0:0:0:
342,104,61635,1,8,0:0:0:0:
342,104,61885,1,0,0:0:0:0:
342,104,62010,1,0,0:0:0:0:
342,104,62135,1,0,0:0:0:0:
342,104,62385,1,8,0:0:0:0:
342,104,62635,1,8,0:0:0:0:
342,104,62760,1,8,0:0:0:0:
342,104,62885,1,0,0:0:0:0:
342,104,63010,1,0,0:0:0:0:
342,104,63135,1,8,0:0:0:0:
342,104,63385,1,8,0:0:0:0:
195,73,63635,1,0,0:0:0:0:
195,73,63760,1,0,0:0:0:0:
195,73,64010,1,8,0:0:0:0:
195,73,64135,1,0,0:0:0:0:
195,73,64385,1,8,0:0:0:0:
195,73,64635,1,0,0:0:0:0:
195,73,64885,1,8,0:0:0:0:
195,73,65010,1,8,0:0:0:0:
195,73,65135,1,0,0:0:0:0:
195,73,65260,1,0,0:0:0:0:
195,73,65385,1,8,0:0:0:0:
195,73,65510,1,8,0:0:0:0:
195,73,65635,1,0,0:0:0:0:
197,73,66010,1,0,0:0:0:0:
197,73,66135,1,8,0:0:0:0:
197,73,66385,1,0,0:0:0:0:
197,73,66635,1,8,0:0:0:0:
197,73,66760,1,8,0:0:0:0:
197,73,66885,1,0,0:0:0:0:
197,73,67135,1,8,0:0:0:0:
197,73,67635,1,8,0:0:0:0:
197,73,67760,1,0,0:0:0:0:
197,73,67885,1,0,0:0:0:0:
197,73,68010,1,8,0:0:0:0:
197,73,68135,1,8,0:0:0:0:
197,73,68385,1,0,0:0:0:0:
197,73,68635,1,8,0:0:0:0:
197,73,68885,1,8,0:0:0:0:
197,73,69135,1,8,0:0:0:0:
197,73,69385,1,0,0:0:0:0:
197,73,69635,1,8,0:0:0:0:
197,73,69885,1,0,0:0:0:0:
197,73,70010,1,0,0:0:0:0:
197,73,70135,1,0,0:0:0:0:
197,73,70385,1,8,0:0:0:0:
197,73,70635,1,8,0:0:0:0:
197,73,70760,1,8,0:0:0:0:
197,73,70885,1,0,0:0:0:0:
197,73,71010,1,0,0:0:0:0:
197,73,71135,1,8,0:0:0:0:
197,73,71385,1,8,0:0:0:0:
197,73,71635,1,0,0:0:0:0:
197,73,71760,1,0,0:0:0:0:
197,73,71885,1,8,0:0:0:0:
197,73,72010,1,8,0:0:0:0:
197,73,72135,1,0,0:0:0:0:
197,73,72385,1,8,0:0:0:0:
197,73,72635,5,0,0:0:0:0:
197,73,72885,1,8,0:0:0:0:
197,73,73135,1,8,0:0:0:0:
197,73,73385,1,8,0:0:0:0:
234,206,73635,5,0,0:0:0:0:
256,192,73885,1,8,0:0:0:0:
256,192,74385,1,0,0:0:0:0:
256,192,74635,1,0,0:0:0:0:
256,192,74885,1,8,0:0:0:0:
256,192,75135,1,0,0:0:0:0:
256,192,75635,1,0,0:0:0:0:
256,192,75885,5,8,0:0:0:0:
256,192,76010,1,8,0:0:0:0:
256,192,76135,1,0,0:0:0:0:
256,192,76385,1,8,0:0:0:0:
256,192,76635,1,0,0:0:0:0:
256,192,77135,1,8,0:0:0:0:
256,192,77385,1,8,0:0:0:0:
256,192,77635,1,0,0:0:0:0:
256,192,77885,1,8,0:0:0:0:
256,192,78010,1,8,0:0:0:0:
256,192,78135,1,0,0:0:0:0:
256,192,78385,1,8,0:0:0:0:
256,192,78635,1,0,0:0:0:0:
256,192,79135,1,0,0:0:0:0:
256,192,79385,1,8,0:0:0:0:
256,192,79635,1,0,0:0:0:0:
256,192,79885,1,8,0:0:0:0:
256,192,80010,1,0,0:0:0:0:
256,192,80135,1,8,0:0:0:0:
256,192,80385,1,0,0:0:0:0:
256,192,80635,1,8,0:0:0:0:
256,192,80885,1,0,0:0:0:0:
256,192,81135,1,8,0:0:0:0:
256,192,81385,1,0,0:0:0:0:
256,192,81635,1,0,0:0:0:0:
256,192,82135,1,8,0:0:0:0:
256,192,82385,1,0,0:0:0:0:
256,192,82635,1,0,0:0:0:0:
256,192,83135,1,8,0:0:0:0:
256,192,83385,1,0,0:0:0:0:
256,192,83635,1,0,0:0:0:0:
256,192,83885,1,8,0:0:0:0:
256,192,84385,1,8,0:0:0:0:
256,192,84635,1,0,0:0:0:0:
256,192,84885,1,8,0:0:0:0:
256,192,85010,1,8,0:0:0:0:
256,192,85135,1,8,0:0:0:0:
256,192,85385,1,8,0:0:0:0:
256,192,85635,1,0,0:0:0:0:
256,192,85885,1,8,0:0:0:0:
256,192,86010,1,8,0:0:0:0:
256,192,86135,1,0,0:0:0:0:
256,192,86385,1,8,0:0:0:0:
256,192,86635,1,0,0:0:0:0:
256,192,87135,1,0,0:0:0:0:
256,192,87635,2,0,L|-32:192,1,280
256,192,89135,5,0,0:0:0:0:
234,181,89635,5,0,0:0:0:0:
273,188,89885,1,8,0:0:0:0:
291,192,90010,1,0,0:0:0:0:
291,192,90135,1,8,0:0:0:0:
316,187,90385,1,0,0:0:0:0:
326,216,90635,1,8,0:0:0:0:
326,216,90760,1,0,0:0:0:0:
320,232,90885,1,8,0:0:0:0:
406,196,91135,1,0,0:0:0:0:
406,196,91260,1,0,0:0:0:0:
406,196,91385,1,8,0:0:0:0:
406,196,91510,1,8,0:0:0:0:
406,196,91635,1,0,0:0:0:0:
413,204,91885,1,8,0:0:0:0:
413,204,92010,1,0,0:0:0:0:
413,204,92135,1,8,0:0:0:0:
431,207,92385,1,0,0:0:0:0:
431,207,92635,1,8,0:0:0:0:
431,207,92760,1,0,0:0:0:0:
431,207,92885,1,8,0:0:0:0:
433,174,93135,1,8,0:0:0:0:
452,171,93385,1,0,0:0:0:0:
458,182,93635,1,0,0:0:0:0:
458,182,93885,1,8,0:0:0:0:
457,182,94010,1,8,0:0:0:0:
457,182,94135,1,0,0:0:0:0:
509,180,94385,1,8,0:0:0:0:
511,164,94635,1,0,0:0:0:0:
491,158,94760,1,0,0:0:0:0:
495,158,94885,1,8,0:0:0:0:
496,158,95010,1,8,0:0:0:0:
497,158,95135,1,8,0:0:0:0:
500,158,95385,1,8,0:0:0:0:
323,146,95635,2,0,L|376:150,12,35
380,129,97385,1,0,0:0:0:0:
361,163,97635,1,4,0:0:0:0:
336,154,97885,1,8,0:0:0:0:
336,154,98385,1,8,0:0:0:0:
336,154,98635,1,4,0:0:0:0:
336,154,99135,1,8,0:0:0:0:
336,154,99635,1,4,0:0:0:0:
336,154,99885,1,8,0:0:0:0:
322,142,100135,1,8,0:0:0:0:
336,154,100385,1,8,0:0:0:0:
336,154,100635,1,4,0:0:0:0:
361,161,100885,1,8,0:0:0:0:
355,152,101135,1,0,0:0:0:0:
360,152,101385,1,8,0:0:0:0:
318,150,101635,1,4,0:0:0:0:
422,275,101885,1,0,0:0:0:0:
422,275,102010,1,0,0:0:0:0:
422,275,102135,1,8,0:0:0:0:
422,275,102385,1,0,0:0:0:0:
470,256,102635,1,12,0:0:0:0:
463,257,103135,1,4,0:0:0:0:
470,256,103635,1,12,0:0:0:0:
256,192,103666,12,4,105135,0:0:0:0:
455,185,105635,5,4,0:0:0:0:
427,170,106010,1,2,0:0:0:0:
427,170,106135,1,2,0:0:0:0:
427,170,106385,1,2,0:0:0:0:
380,160,106635,1,4,0:0:0:0:
347,155,107010,1,2,0:0:0:0:
347,155,107135,1,2,0:0:0:0:
347,155,107385,1,2,0:0:0:0:
386,185,107635,1,4,0:0:0:0:
398,151,108010,1,2,0:0:0:0:
398,151,108135,1,2,0:0:0:0:
398,151,108385,1,2,0:0:0:0:
398,161,108635,1,4,0:0:0:0:
398,161,108885,1,4,0:0:0:0:
398,161,109135,1,4,0:0:0:0:
425,185,109635,1,4,0:0:0:0:
433,167,110010,1,2,0:0:0:0:
382,181,110135,1,0,0:0:0:0:
281,186,110385,1,0,0:0:0:0:
432,180,110635,1,4,0:0:0:0:
421,162,111010,1,2,0:0:0:0:
401,139,111135,1,0,0:0:0:0:
410,139,111385,1,0,0:0:0:0:
400,169,111635,1,4,0:0:0:0:
355,130,111885,1,6,0:0:0:0:
355,130,112135,1,6,0:0:0:0:
393,160,112385,1,4,0:0:0:0:
313,167,112635,1,6,0:0:0:0:
382,148,112885,1,4,0:0:0:0:
434,173,113135,1,6,0:0:0:0:
