osu file format v14

[General]
AudioFilename: audio.mp3
AudioLeadIn: 0
PreviewTime: 9593
Countdown: 1
SampleSet: Normal
StackLeniency: 0.7
Mode: 1
LetterboxInBreaks: 0
WidescreenStoryboard: 0

[Editor]
DistanceSpacing: 2
BeatDivisor: 12
GridSize: 32
TimelineZoom: 1.8

[Metadata]
Title:Te no hira wo Taiyou ni
TitleUnicode:手のひらを太陽に
Artist:Izumi Taku
ArtistUnicode:いずみたく
Creator:KyouRekii87
Version:Relax
Source:
Tags:doyo douyou children kids song
BeatmapID:2045392
BeatmapSetID:977217

[Difficulty]
HPDrainRate:0
CircleSize:5
OverallDifficulty:0
ApproachRate:5
SliderMultiplier:1.4
SliderTickRate:1

[Events]
//Background and Video events
0,0,"girl-looks-at-the-sun-through-her-hand-slow-motion_eozslr_0e__F0002.png",0,0
//Break Periods
//Storyboard Layer 0 (Background)
//Storyboard Layer 1 (Fail)
//Storyboard Layer 2 (Pass)
//Storyboard Layer 3 (Foreground)
//Storyboard Sound Samples

[TimingPoints]
1635,500,4,1,0,60,1,0
25635,-100,4,1,0,60,0,1
40635,-100,4,1,0,60,0,0
73635,-100,4,1,0,60,0,1
88635,-100,4,1,0,60,0,0

[HitObjects]
191,189,1635,5,4,0:0:0:0:
191,189,2010,1,8,0:0:0:0:
191,189,2135,1,8,0:0:0:0:
191,189,2385,1,8,0:0:0:0:
191,189,2635,1,4,0:0:0:0:
191,189,3010,1,8,0:0:0:0:
191,189,3135,1,8,0:0:0:0:
191,189,3385,1,8,0:0:0:0:
254,195,3635,1,4,0:0:0:0:
254,195,4010,1,8,0:0:0:0:
254,195,4135,1,8,0:0:0:0:
254,195,4385,1,0,0:0:0:0:
254,195,4635,1,12,0:0:0:0:
254,195,4885,1,12,0:0:0:0:
254,195,5135,1,12,0:0:0:0:
191,189,5635,1,4,0:0:0:0:
191,189,6010,1,0,0:0:0:0:
191,189,6135,1,8,0:0:0:0:
191,189,6385,1,8,0:0:0:0:
191,189,6635,1,4,0:0:0:0:
191,189,7010,1,0,0:0:0:0:
191,189,7135,1,8,0:0:0:0:
191,189,7385,1,0,0:0:0:0:
242,121,7635,1,12,0:0:0:0:
242,121,7885,1,12,0:0:0:0:
242,121,8135,1,4,0:0:0:0:
242,121,8385,1,12,0:0:0:0:
242,121,8635,1,4,0:0:0:0:
242,121,9135,1,12,0:0:0:0:
340,151,9635,1,0,0:0:0:0:
231,116,10010,1,0,0:0:0:0:
231,116,10135,1,8,0:0:0:0:
231,116,10385,1,0,0:0:0:0:
231,116,10635,1,8,0:0:0:0:
274,218,10760,1,0,0:0:0:0:
274,218,10885,1,0,0:0:0:0:
231,116,11135,1,8,0:0:0:0:
231,116,11635,1,8,0:0:0:0:
231,116,12010,1,8,0:0:0:0:
231,116,12135,1,0,0:0:0:0:
231,116,12385,1,0,0:0:0:0:
231,116,12635,1,8,0:0:0:0:
231,116,12885,1,8,0:0:0:0:
231,116,13135,1,0,0:0:0:0:
231,116,13260,1,0,0:0:0:0:
231,116,13385,1,8,0:0:0:0:
231,116,13635,1,8,0:0:0:0:
231,116,13885,1,0,0:0:0:0:
231,116,14385,1,0,0:0:0:0:
231,116,14635,1,8,0:0:0:0:
231,116,14885,1,0,0:0:0:0:
231,116,15010,1,0,0:0:0:0:
231,116,15135,1,8,0:0:0:0:
231,116,15385,1,8,0:0:0:0:
231,116,15635,1,0,0:0:0:0:
231,116,16010,1,8,0:0:0:0:
231,116,16135,1,0,0:0:0:0:
231,116,16385,1,0,0:0:0:0:
231,116,16635,1,8,0:0:0:0:
231,116,16885,1,8,0:0:0:0:
231,116,17010,1,8,0:0:0:0:
231,116,17135,1,0,0:0:0:0:
231,116,17260,1,0,0:0:0:0:
231,116,17385,1,8,0:0:0:0:
231,116,17510,1,8,0:0:0:0:
231,116,17635,1,0,0:0:0:0:
274,218,18010,1,0,0:0:0:0:
274,218,18135,1,8,0:0:0:0:
274,218,18385,1,0,0:0:0:0:
274,218,18635,1,8,0:0:0:0:
274,218,18760,1,0,0:0:0:0:
274,218,18885,1,0,0:0:0:0:
274,218,19135,1,8,0:0:0:0:
274,218,19635,1,8,0:0:0:0:
274,218,20010,1,0,0:0:0:0:
274,218,20135,1,8,0:0:0:0:
274,218,20385,1,0,0:0:0:0:
274,218,20635,1,8,0:0:0:0:
274,218,20885,1,8,0:0:0:0:
274,218,21135,1,0,0:0:0:0:
274,218,21260,1,0,0:0:0:0:
274,218,21385,1,8,0:0:0:0:
274,218,21635,1,8,0:0:0:0:
274,218,21885,1,0,0:0:0:0:
274,218,22385,1,0,0:0:0:0:
274,218,22510,1,0,0:0:0:0:
274,218,22635,1,8,0:0:0:0:
274,218,22885,1,0,0:0:0:0:
274,218,23135,1,8,0:0:0:0:
274,218,23260,1,0,0:0:0:0:
274,218,23385,1,8,0:0:0:0:
274,218,23635,1,0,0:0:0:0:
274,218,23885,1,8,0:0:0:0:
274,218,24010,1,8,0:0:0:0:
274,218,24135,1,0,0:0:0:0:
274,218,24385,1,8,0:0:0:0:
274,218,24635,1,0,0:0:0:0:
274,218,24885,1,0,0:0:0:0:
274,218,25135,1,8,0:0:0:0:
274,218,25385,1,8,0:0:0:0:
274,218,25635,1,0,0:0:0:0:
310,164,25885,1,8,0:0:0:0:
310,164,26010,1,8,0:0:0:0:
310,164,26135,1,8,0:0:0:0:
310,164,26385,1,8,0:0:0:0:
310,164,26635,1,0,0:0:0:0:
310,164,26885,1,0,0:0:0:0:
310,164,27135,1,8,0:0:0:0:
310,164,27635,1,8,0:0:0:0:
310,164,27760,1,8,0:0:0:0:
310,164,27885,1,0,0:0:0:0:
310,164,28010,1,0,0:0:0:0:
310,164,28135,1,8,0:0:0:0:
310,164,28385,1,0,0:0:0:0:
310,164,28635,1,8,0:0:0:0:
310,164,28885,1,8,0:0:0:0:
310,164,29010,1,8,0:0:0:0:
310,164,29135,1,0,0:0:0:0:
310,164,29385,1,8,0:0:0:0:
310,164,29635,1,0,0:0:0:0:
318,168,29760,1,0,0:0:0:0:
318,168,29885,1,8,0:0:0:0:
318,168,30135,1,0,0:0:0:0:
318,168,30260,1,0,0:0:0:0:
318,168,30385,1,8,0:0:0:0:
318,168,30635,1,0,0:0:0:0:
318,168,30885,1,0,0:0:0:0:
318,168,31135,1,8,0:0:0:0:
318,168,31635,1,0,0:0:0:0:
318,168,31885,1,8,0:0:0:0:
318,168,32010,1,8,0:0:0:0:
318,168,32135,1,0,0:0:0:0:
318,168,32385,1,8,0:0:0:0:
318,168,32635,1,0,0:0:0:0:
318,168,32885,1,8,0:0:0:0:
318,168,33010,1,8,0:0:0:0:
318,168,33135,1,0,0:0:0:0:
215,104,33260,1,0,0:0:0:0:
318,168,33385,1,8,0:0:0:0:
215,104,33635,1,0,0:0:0:0:
215,104,34135,1,8,0:0:0:0:
215,104,34385,1,0,0:0:0:0:
215,104,34635,1,8,0:0:0:0:
215,104,34760,1,8,0:0:0:0:
215,104,34885,1,8,0:0:0:0:
215,104,35135,1,0,0:0:0:0:
215,104,35635,1,8,0:0:0:0:
215,104,35760,1,0,0:0:0:0:
215,104,35885,1,8,0:0:0:0:
215,104,36010,1,8,0:0:0:0:
215,104,36135,1,0,0:0:0:0:
215,104,36385,1,8,0:0:0:0:
215,104,36635,1,0,0:0:0:0:
215,104,36885,1,8,0:0:0:0:
215,104,37010,1,8,0:0:0:0:
215,104,37135,1,0,0:0:0:0:
215,104,37385,1,8,0:0:0:0:
215,104,37635,1,0,0:0:0:0:
215,104,37885,1,8,0:0:0:0:
215,104,38010,1,0,0:0:0:0:
215,104,38135,1,0,0:0:0:0:
215,104,38385,1,8,0:0:0:0:
215,104,38635,1,8,0:0:0:0:
215,104,38885,1,0,0:0:0:0:
215,104,39010,1,0,0:0:0:0:
215,104,39135,1,8,0:0:0:0:
215,104,39635,1,8,0:0:0:0:
215,104,40010,1,0,0:0:0:0:
215,104,40135,1,0,0:0:0:0:
215,104,40385,1,0,0:0:0:0:
215,104,40635,1,8,0:0:0:0:
345,145,41635,1,0,0:0:0:0:
345,145,41885,1,8,0:0:0:0:
345,145,42010,1,8,0:0:0:0:
345,145,42135,1,0,0:0:0:0:
345,145,42385,1,8,0:0:0:0:
345,145,42885,1,0,0:0:0:0:
345,145,43010,1,0,0:0:0:0:
345,145,43135,1,0,0:0:0:0:
345,145,43385,1,0,0:0:0:0:
345,145,43635,1,8,0:0:0:0:
345,145,43885,1,8,0:0:0:0:
345,145,44010,1,8,0:0:0:0:
345,145,44135,1,0,0:0:0:0:
345,145,44385,1,8,0:0:0:0:
345,145,44635,1,0,0:0:0:0:
345,145,44760,1,0,0:0:0:0:
345,145,44885,1,8,0:0:0:0:
345,145,45010,1,0,0:0:0:0:
345,145,45135,1,8,0:0:0:0:
345,145,45635,1,8,0:0:0:0:
345,145,45760,1,0,0:0:0:0:
345,145,45885,1,8,0:0:0:0:
345,145,46010,1,8,0:0:0:0:
345,145,46135,1,0,0:0:0:0:
345,145,46385,1,8,0:0:0:0:
345,145,46635,1,8,0:0:0:0:
345,145,46760,1,8,0:0:0:0:
345,145,46885,1,8,0:0:0:0:
345,145,47135,1,0,0:0:0:0:
294,119,47635,1,8,0:0:0:0:
294,119,47885,1,0,0:0:0:0:
294,119,48010,1,8,0:0:0:0:
294,119,48135,1,0,0:0:0:0:
294,119,48385,1,8,0:0:0:0:
294,119,48635,1,0,0:0:0:0:
294,119,48760,1,0,0:0:0:0:
294,119,48885,1,8,0:0:0:0:
294,119,49010,1,0,0:0:0:0:
294,119,49135,1,8,0:0:0:0:
294,119,49385,1,8,0:0:0:0:
294,119,49635,1,4,0:0:0:0:
294,119,50635,1,0,0:0:0:0:
294,119,51635,1,12,0:0:0:0:
294,119,52635,1,8,0:0:0:0:
207,130,53635,1,0,0:0:0:0:
207,130,53885,1,8,0:0:0:0:
207,130,54010,1,8,0:0:0:0:
207,130,54135,1,0,0:0:0:0:
207,130,54385,1,8,0:0:0:0:
301,132,54635,1,0,0:0:0:0:
301,132,54760,1,0,0:0:0:0:
301,132,54885,1,0,0:0:0:0:
301,132,55135,1,8,0:0:0:0:
301,132,55260,1,8,0:0:0:0:
301,132,55385,1,8,0:0:0:0:
301,132,55635,1,0,0:0:0:0:
301,132,55885,1,8,0:0:0:0:
301,132,56135,1,8,0:0:0:0:
301,132,56385,1,0,0:0:0:0:
301,132,56635,1,0,0:0:0:0:
301,132,57135,1,12,0:0:0:0:
278,174,57635,1,0,0:0:0:0:
278,174,58010,1,0,0:0:0:0:
278,174,58135,1,8,0:0:0:0:
278,174,58385,1,0,0:0:0:0:
278,174,58635,1,8,0:0:0:0:
278,174,58760,1,8,0:0:0:0:
278,174,58885,1,0,0:0:0:0:
278,174,59135,1,8,0:0:0:0:
342,104,59635,1,8,0:0:0:0:
342,104,59760,1,0,0:0:0:0:
342,104,59885,1,0,0:0:0:0:
342,104,60010,1,8,0:0:0:0:
342,104,60135,1,8,0:0:0:0:
342,104,60385,1,0,0:0:0:0:
342,104,60635,1,8,0:0:0:0:
342,104,60885,1,0,0:0:0:0:
342,104,61135,1,8,0:0:0:0:
342,104,61385,1,8,0:0:0:0:
342,104,61635,1,8,0:0:0:0:
342,104,61885,1,0,0:0:0:0:
342,104,62010,1,0,0:0:0:0:
342,104,62135,1,0,0:0:0:0:
342,104,62385,1,8,0:0:0:0:
342,104,62635,1,8,0:0:0:0:
342,104,62760,1,8,0:0:0:0:
342,104,62885,1,0,0:0:0:0:
342,104,63010,1,0,0:0:0:0:
342,104,63135,1,8,0:0:0:0:
342,104,63385,1,8,0:0:0:0:
195,73,63635,1,0,0:0:0:0:
195,73,63760,1,0,0:0:0:0:
195,73,64010,1,8,0:0:0:0:
195,73,64135,1,0,0:0:0:0:
195,73,64385,1,8,0:0:0:0:
195,73,64635,1,0,0:0:0:0:
195,73,64885,1,8,0:0:0:0:
195,73,65010,1,8,0:0:0:0:
195,73,65135,1,0,0:0:0:0:
195,73,65260,1,0,0:0:0:0:
195,73,65385,1,8,0:0:0:0:
195,73,65510,1,8,0:0:0:0:
195,73,65635,1,0,0:0:0:0:
197,73,66010,1,0,0:0:0:0:
197,73,66135,1,8,0:0:0:0:
197,73,66385,1,0,0:0:0:0:
197,73,66635,1,8,0:0:0:0:
197,73,66760,1,8,0:0:0:0:
197,73,66885,1,0,0:0:0:0:
197,73,67135,1,8,0:0:0:0:
197,73,67635,1,8,0:0:0:0:
197,73,67760,1,0,0:0:0:0:
197,73,67885,1,0,0:0:0:0:
197,73,68010,1,8,0:0:0:0:
197,73,68135,1,8,0:0:0:0:
197,73,68385,1,0,0:0:0:0:
197,73,68635,1,8,0:0:0:0:
197,73,68885,1,8,0:0:0:0:
197,73,69135,1,8,0:0:0:0:
197,73,69385,1,0,0:0:0:0:
197,73,69635,1,8,0:0:0:0:
197,73,69885,1,0,0:0:0:0:
197,73,70010,1,0,0:0:0:0:
197,73,70135,1,0,0:0:0:0:
197,73,70385,1,8,0:0:0:0:
197,73,70635,1,8,0:0:0:0:
197,73,70760,1,8,0:0:0:0:
197,73,70885,1,0,0:0:0:0:
197,73,71010,1,0,0:0:0:0:
197,73,71135,1,8,0:0:0:0:
197,73,71385,1,8,0:0:0:0:
197,73,71635,1,0,0:0:0:0:
197,73,71760,1,0,0:0:0:0:
197,73,71885,1,8,0:0:0:0:
197,73,72010,1,8,0:0:0:0:
197,73,72135,1,0,0:0:0:0:
197,73,72385,1,8,0:0:0:0:
197,73,72635,1,0,0:0:0:0:
197,73,72885,1,8,0:0:0:0:
197,73,73135,1,8,0:0:0:0:
197,73,73385,1,8,0:0:0:0:
209,173,73635,1,0,0:0:0:0:
209,173,73885,1,8,0:0:0:0:
209,173,74010,1,8,0:0:0:0:
209,173,74135,1,8,0:0:0:0:
209,173,74385,1,8,0:0:0:0:
209,173,74635,1,0,0:0:0:0:
209,173,74885,1,0,0:0:0:0:
209,173,75010,1,0,0:0:0:0:
209,173,75135,1,8,0:0:0:0:
209,173,75635,1,8,0:0:0:0:
209,173,75760,1,0,0:0:0:0:
209,173,75885,1,8,0:0:0:0:
209,173,76010,1,8,0:0:0:0:
209,173,76135,1,0,0:0:0:0:
209,173,76385,1,8,0:0:0:0:
209,173,76635,1,8,0:0:0:0:
209,173,76760,1,8,0:0:0:0:
209,173,76885,1,0,0:0:0:0:
209,173,77010,1,0,0:0:0:0:
209,173,77135,1,8,0:0:0:0:
209,173,77260,1,0,0:0:0:0:
209,173,77385,1,8,0:0:0:0:
209,173,77635,1,0,0:0:0:0:
209,173,77885,1,8,0:0:0:0:
209,173,78010,1,8,0:0:0:0:
209,173,78135,1,0,0:0:0:0:
209,173,78385,1,8,0:0:0:0:
209,173,78635,1,0,0:0:0:0:
209,173,78760,1,0,0:0:0:0:
209,173,78885,1,0,0:0:0:0:
209,173,79135,1,8,0:0:0:0:
209,173,79260,1,8,0:0:0:0:
209,173,79385,1,8,0:0:0:0:
209,173,79635,1,0,0:0:0:0:
209,173,79885,1,8,0:0:0:0:
209,173,80010,1,8,0:0:0:0:
209,173,80135,1,0,0:0:0:0:
209,173,80260,1,0,0:0:0:0:
209,173,80385,1,8,0:0:0:0:
209,173,80635,1,0,0:0:0:0:
209,173,80885,1,8,0:0:0:0:
209,173,81010,1,8,0:0:0:0:
209,173,81135,1,0,0:0:0:0:
209,173,81260,1,8,0:0:0:0:
259,89,81385,1,0,0:0:0:0:
259,89,81635,1,8,0:0:0:0:
259,89,81885,1,0,0:0:0:0:
259,89,82010,1,0,0:0:0:0:
259,89,82135,1,0,0:0:0:0:
259,89,82385,1,0,0:0:0:0:
259,89,82635,1,8,0:0:0:0:
259,89,82760,1,8,0:0:0:0:
259,89,82885,1,0,0:0:0:0:
259,89,83135,1,8,0:0:0:0:
259,89,83635,1,8,0:0:0:0:
259,89,83760,1,0,0:0:0:0:
259,89,83885,1,8,0:0:0:0:
259,89,84010,1,8,0:0:0:0:
259,89,84135,1,0,0:0:0:0:
259,89,84385,1,8,0:0:0:0:
259,89,84635,1,0,0:0:0:0:
259,89,84885,1,8,0:0:0:0:
259,89,85010,1,0,0:0:0:0:
259,89,85135,1,8,0:0:0:0:
259,89,85260,1,0,0:0:0:0:
259,89,85385,1,8,0:0:0:0:
259,89,85635,1,0,0:0:0:0:
259,89,85885,1,8,0:0:0:0:
259,89,86010,1,0,0:0:0:0:
259,89,86135,1,0,0:0:0:0:
259,89,86385,1,8,0:0:0:0:
259,89,86635,1,8,0:0:0:0:
259,89,86885,1,0,0:0:0:0:
259,89,87010,1,0,0:0:0:0:
259,89,87135,1,8,0:0:0:0:
259,89,87385,1,8,0:0:0:0:
358,148,87635,1,0,0:0:0:0:
358,148,87885,1,8,0:0:0:0:
358,148,88135,1,8,0:0:0:0:
358,148,88385,1,8,0:0:0:0:
358,148,88635,1,0,0:0:0:0:
153,145,89635,1,0,0:0:0:0:
153,145,89885,1,8,0:0:0:0:
153,145,90010,1,8,0:0:0:0:
153,145,90135,1,8,0:0:0:0:
153,145,90385,1,0,0:0:0:0:
153,145,90635,1,8,0:0:0:0:
153,145,90760,1,0,0:0:0:0:
153,145,90885,1,8,0:0:0:0:
153,145,91135,1,8,0:0:0:0:
153,145,91385,1,0,0:0:0:0:
153,145,91635,1,8,0:0:0:0:
153,145,91885,1,0,0:0:0:0:
153,145,92010,1,0,0:0:0:0:
153,145,92135,1,0,0:0:0:0:
153,145,92385,1,8,0:0:0:0:
153,145,92635,1,0,0:0:0:0:
153,145,92760,1,8,0:0:0:0:
153,145,92885,1,0,0:0:0:0:
153,145,93135,1,8,0:0:0:0:
153,145,93385,1,0,0:0:0:0:
153,145,93635,1,8,0:0:0:0:
153,145,93760,1,0,0:0:0:0:
153,145,93885,1,8,0:0:0:0:
153,145,94010,1,8,0:0:0:0:
153,145,94135,1,0,0:0:0:0:
153,145,94260,1,0,0:0:0:0:
153,145,94385,1,8,0:0:0:0:
153,145,94635,1,8,0:0:0:0:
153,145,94760,1,8,0:0:0:0:
153,145,94885,1,8,0:0:0:0:
153,145,95135,1,0,0:0:0:0:
153,145,95385,1,8,0:0:0:0:
153,145,95635,1,0,0:0:0:0:
153,145,95885,1,8,0:0:0:0:
153,145,96010,1,8,0:0:0:0:
153,145,96135,1,0,0:0:0:0:
153,145,96385,1,8,0:0:0:0:
153,145,96510,1,8,0:0:0:0:
153,145,96635,1,0,0:0:0:0:
153,145,96760,1,0,0:0:0:0:
153,145,96885,1,8,0:0:0:0:
153,145,97010,1,0,0:0:0:0:
153,145,97135,1,8,0:0:0:0:
153,145,97385,1,8,0:0:0:0:
153,145,97635,1,4,0:0:0:0:
153,145,98635,1,0,0:0:0:0:
153,145,99635,1,12,0:0:0:0:
153,145,100635,1,8,0:0:0:0:
153,145,101635,1,0,0:0:0:0:
153,145,101885,1,8,0:0:0:0:
153,145,102010,1,8,0:0:0:0:
153,145,102135,1,0,0:0:0:0:
153,145,102385,1,8,0:0:0:0:
153,145,102635,1,0,0:0:0:0:
153,145,102760,1,0,0:0:0:0:
153,145,102885,1,0,0:0:0:0:
153,145,103135,1,8,0:0:0:0:
153,145,103260,1,8,0:0:0:0:
153,145,103385,1,8,0:0:0:0:
153,145,103635,1,0,0:0:0:0:
153,145,103885,1,8,0:0:0:0:
153,145,104135,1,8,0:0:0:0:
153,145,104385,1,0,0:0:0:0:
153,145,104635,1,0,0:0:0:0:
153,145,105135,1,12,0:0:0:0:
153,145,105635,1,4,0:0:0:0:
153,145,106010,1,8,0:0:0:0:
153,145,106135,1,8,0:0:0:0:
153,145,106385,1,8,0:0:0:0:
153,145,106635,1,4,0:0:0:0:
153,145,107010,1,8,0:0:0:0:
153,145,107135,1,8,0:0:0:0:
153,145,107385,1,8,0:0:0:0:
153,145,107635,1,4,0:0:0:0:
153,145,108010,1,8,0:0:0:0:
153,145,108135,1,8,0:0:0:0:
153,145,108385,1,0,0:0:0:0:
153,145,108635,1,12,0:0:0:0:
153,145,108885,1,12,0:0:0:0:
153,145,109135,1,12,0:0:0:0:
153,145,109635,1,4,0:0:0:0:
153,145,110010,1,0,0:0:0:0:
153,145,110135,1,8,0:0:0:0:
153,145,110385,1,8,0:0:0:0:
153,145,110635,1,4,0:0:0:0:
153,145,111010,1,0,0:0:0:0:
153,145,111135,1,8,0:0:0:0:
153,145,111385,1,0,0:0:0:0:
153,145,111635,1,12,0:0:0:0:
153,145,111885,1,12,0:0:0:0:
153,145,112135,1,4,0:0:0:0:
153,145,112385,1,12,0:0:0:0:
153,145,112635,1,4,0:0:0:0:
153,145,112885,1,8,0:0:0:0:
153,145,113135,1,12,0:0:0:0:
