osu file format v14

[General]
AudioFilename: Shimakaze Sunrise.mp3
AudioLeadIn: 0
PreviewTime: 37140
Countdown: 0
SampleSet: Normal
StackLeniency: 0.6
Mode: 0
LetterboxInBreaks: 1
WidescreenStoryboard: 0

[Editor]
Bookmarks: 13,10620,21228,31836,42443,53051,62333,67637,78245,88852
DistanceSpacing: 1.1
BeatDivisor: 4
GridSize: 8
TimelineZoom: 1.9

[Metadata]
Title:Shimakaze Sunrise
TitleUnicode:Shimakaze Sunrise
Artist:Izumi Mizuha
ArtistUnicode:Izumi Mizuha
Creator:Hathz
Version:Insane
Source:
Tags:ryu☆ sakura sunrise kantai collection kancolle kan colle
BeatmapID:879300
BeatmapSetID:404411

[Difficulty]
HPDrainRate:6
CircleSize:3.8
OverallDifficulty:8.5
ApproachRate:9.3
SliderMultiplier:1.7
SliderTickRate:1

[Events]
//Background and Video events
0,0,"kancolle-anime-ep-06-review_34.jpg",0,0
Video,-80,"video.avi"
//Break Periods
//Storyboard Layer 0 (Background)
//Storyboard Layer 1 (Fail)
//Storyboard Layer 2 (Pass)
//Storyboard Layer 3 (Foreground)
//Storyboard Sound Samples

[TimingPoints]
13,331.491712707182,4,2,1,60,1,0
10620,-83.3333333333333,4,1,1,80,0,1
19736,-83.3333333333333,4,1,1,80,0,0
21228,-83.3333333333333,4,1,1,80,0,1
31836,-83.3333333333333,4,1,1,60,0,0
35814,-83.3333333333333,4,1,1,60,0,0
36145,-58.8235294117647,4,1,1,60,0,0
36477,-45.45,4,1,1,60,0,0
37140,-83.3333333333333,4,1,1,60,0,0
39792,-58.8235294117647,4,1,1,60,0,0
40454,-71.4285714285714,4,1,1,60,0,0
41117,-83.3333333333333,4,1,1,60,0,0
41780,-83.3333333333333,4,2,0,60,0,0
42443,-125,4,2,1,60,0,0
53051,-100,4,1,1,60,0,0
62333,-83.3333333333333,4,1,1,80,0,0
64985,-200,4,2,1,50,0,0
66311,-100,4,2,1,70,0,0
66974,-100,4,2,0,50,0,0
67637,-83.3333333333333,4,1,1,80,0,1
76753,-83.3333333333333,4,1,1,80,0,0
78245,-83.3333333333333,4,1,1,80,0,1
87361,-83.3333333333333,4,1,1,80,0,0
87692,-83.3333333333333,4,1,1,80,0,1
87775,-83.3333333333333,4,1,1,80,0,0
87858,-83.3333333333333,4,1,1,80,0,1
87941,-83.3333333333333,4,1,1,80,0,0
88024,-83.3333333333333,4,1,1,80,0,1
88106,-83.3333333333333,4,1,1,80,0,0
88355,-83.3333333333333,4,1,1,80,0,1
88438,-83.3333333333333,4,1,1,80,0,0
88521,-83.3333333333333,4,1,1,80,0,1
88604,-83.3333333333333,4,1,1,80,0,0

[HitObjects]
110,118,13,6,0,L|222:106,1,85,2|0,0:0|0:0,0:0:0:0:
263,158,344,1,0,0:0:0:0:
142,372,675,2,0,L|151:265,1,85,2|0,0:0|0:0,0:0:0:0:
167,117,1007,1,0,0:0:0:0:
157,202,1173,1,0,0:0:0:0:
226,250,1338,2,0,P|268:257|310:251,1,85,2|0,0:0|0:0,0:0:0:0:
74,237,1670,2,0,P|33:250|0:275,1,85
194,352,2001,1,2,0:0:0:0:
167,117,2167,2,0,L|163:61,1,42.5,0|0,3:0|0:0,3:0:0:0:
178,106,2333,2,0,L|174:50,1,42.5,0|0,3:0|0:0,3:0:0:0:
387,257,2664,6,0,L|379:342,1,85,2|0,0:0|0:0,0:0:0:0:
302,380,2996,1,0,0:0:0:0:
129,191,3327,2,0,P|171:187|212:199,1,85,2|0,0:0|0:0,0:0:0:0:
387,257,3659,2,0,P|344:262|304:249,1,85
292,165,3990,1,2,0:0:0:0:
310,82,4156,2,0,L|306:39,1,42.5,0|0,3:0|0:0,3:0:0:0:
466,219,4488,6,0,L|469:176,1,42.5,0|0,3:0|0:0,3:0:0:0:
183,330,4819,6,0,L|179:287,1,42.5,0|0,3:0|0:0,3:0:0:0:
174,343,4985,2,0,L|170:300,1,42.5,0|0,3:0|0:0,3:0:0:0:
352,115,5316,6,0,P|395:113|433:95,1,85,2|0,0:0|0:0,0:0:0:0:
504,141,5648,1,0,0:0:0:0:
160,115,5979,2,0,P|117:113|79:95,1,85,2|0,0:0|0:0,0:0:0:0:
222,184,6311,1,0,0:0:0:0:
197,278,6477,1,0,0:0:0:0:
284,340,6642,2,0,P|290:298|282:257,1,85,2|0,0:0|0:0,0:0:0:0:
115,263,6974,2,0,P|157:262|197:278,1,85
140,356,7305,1,2,0:0:0:0:
162,97,7471,2,0,L|164:35,1,42.5,0|0,3:0|0:0,0:0:0:0:
151,85,7637,2,0,L|153:23,1,42.5,0|0,3:0|0:0,0:0:0:0:
116,263,7968,5,2,0:0:0:0:
235,289,8134,1,0,3:0:0:0:
255,294,8217,1,0,3:0:0:0:
275,299,8300,1,2,3:2:0:0:
284,201,8466,1,0,3:0:0:0:
304,206,8549,1,0,3:0:0:0:
324,211,8632,1,2,3:2:0:0:
349,123,8797,2,0,L|412:140,1,42.5,0|0,3:0|0:0,0:0:0:0:
341,96,8963,2,0,L|444:123,1,85,2|0,3:2|3:0,0:0:0:0:
423,117,9460,5,8,1:0:0:0:
278,273,9626,1,8,1:0:0:0:
217,69,9792,1,8,1:0:0:0:
217,69,10123,5,8,1:0:0:0:
278,273,10289,1,8,1:0:0:0:
97,375,10620,6,0,P|68:320|91:246,1,101.999996887207,6|0,0:0|0:0,0:0:0:0:
357,204,10952,2,0,P|386:259|363:333,1,101.999996887207,2|0,0:0|0:0,0:0:0:0:
423,74,11283,1,2,0:0:0:0:
357,204,11449,1,0,0:0:0:0:
336,52,11615,1,2,0:0:0:0:
485,150,11780,1,0,0:0:0:0:
284,131,11946,2,0,L|164:122,1,101.999996887207,2|0,0:0|0:0,0:0:0:0:
66,305,12278,2,0,L|186:296,1,101.999996887207,2|0,0:0|0:0,0:0:0:0:
310,242,12609,1,2,0:0:0:0:
246,33,12775,1,8,0:0:0:0:
246,33,12858,1,0,0:0:0:0:
246,33,12941,1,10,0:0:0:0:
228,133,13106,1,8,0:0:0:0:
211,233,13272,6,0,L|193:346,1,101.999996887207,2|0,0:0|0:0,0:0:0:0:
429,172,13604,2,0,L|412:71,1,101.999996887207,2|0,0:0|0:0,0:0:0:0:
339,278,13935,1,2,0:0:0:0:
486,235,14101,1,0,0:0:0:0:
336,201,14267,1,2,0:0:0:0:
412,332,14432,1,0,0:0:0:0:
429,172,14598,2,0,P|423:116|383:70,1,101.999996887207,2|0,0:0|0:0,0:0:0:0:
130,193,14930,2,0,P|135:248|175:294,1,101.999996887207,2|0,0:0|0:0,0:0:0:0:
176,16,15261,1,2,0:0:0:0:
223,207,15427,1,8,0:0:0:0:
223,207,15510,1,0,0:0:0:0:
223,207,15593,1,10,0:0:0:0:
296,136,15758,2,8,B|296:111|296:111|307:61,1,50.9999984436036,8|0,0:0|0:0,0:0:0:0:
382,193,15924,6,0,P|377:248|337:294,1,101.999996887207,2|0,0:0|0:0,0:0:0:0:
150,322,16256,2,0,L|27:315,1,101.999996887207,2|0,0:0|0:0,0:0:0:0:
3,224,16587,1,2,0:0:0:0:
34,74,16753,1,0,0:0:0:0:
99,212,16919,1,2,0:0:0:0:
34,74,17084,1,0,0:0:0:0:
177,152,17250,2,0,P|228:153|276:135,1,101.999996887207,2|0,0:0|0:0,0:0:0:0:
449,227,17582,2,0,P|398:226|350:244,1,101.999996887207,2|0,0:0|0:0,0:0:0:0:
150,365,17913,1,2,0:0:0:0:
320,348,18079,1,8,0:0:0:0:
320,348,18162,1,0,0:0:0:0:
320,348,18245,1,10,0:0:0:0:
236,289,18410,1,8,0:0:0:0:
152,231,18576,6,0,P|156:170|188:123,1,101.999996887207,2|0,0:0|0:0,0:0:0:0:
479,209,18908,2,0,P|475:270|443:317,1,101.999996887207,2|0,0:0|0:0,0:0:0:0:
20,192,19239,2,0,P|24:131|56:84,1,101.999996887207,2|0,0:0|0:0,0:0:0:0:
347,170,19571,2,0,P|343:231|311:278,1,101.999996887207,2|0,0:0|0:0,0:0:0:0:
215,342,20068,5,10,0:0:0:0:
242,192,20233,1,10,0:0:0:0:
270,41,20399,1,10,0:0:0:0:
270,41,20731,5,10,0:0:0:0:
242,192,20896,1,10,0:0:0:0:
457,272,21228,5,6,0:0:0:0:
485,173,21394,1,0,0:0:0:0:
429,88,21559,1,2,0:0:0:0:
384,179,21725,1,0,0:0:0:0:
337,270,21891,1,2,0:0:0:0:
305,140,22057,1,0,0:0:0:0:
273,11,22222,1,2,0:0:0:0:
251,149,22388,1,0,0:0:0:0:
224,286,22554,1,2,0:0:0:0:
307,344,22720,1,0,0:0:0:0:
386,280,22885,1,2,0:0:0:0:
305,140,23051,1,0,0:0:0:0:
144,152,23217,2,0,B|121:198|121:198|129:253,1,101.999996887207,2|8,0:0|0:0,0:0:0:0:
460,345,23548,2,0,B|483:299|483:299|475:244,1,101.999996887207,10|8,0:0|0:0,0:0:0:0:
419,162,23880,5,2,0:0:0:0:
334,219,24046,1,0,0:0:0:0:
242,175,24211,1,2,0:0:0:0:
155,229,24377,1,0,0:0:0:0:
247,273,24543,1,2,0:0:0:0:
98,310,24709,1,0,0:0:0:0:
380,306,24874,1,2,0:0:0:0:
191,353,25040,1,0,0:0:0:0:
98,310,25206,1,2,0:0:0:0:
62,214,25372,1,0,0:0:0:0:
98,119,25537,1,2,0:0:0:0:
192,80,25703,1,0,0:0:0:0:
293,87,25869,2,0,L|396:99,1,101.999996887207,2|8,0:0|0:0,0:0:0:0:
394,98,26117,1,0,0:0:0:0:
394,98,26200,1,10,0:0:0:0:
436,191,26366,1,8,0:0:0:0:
409,289,26532,5,2,0:0:0:0:
436,191,26698,1,0,0:0:0:0:
503,267,26863,1,2,0:0:0:0:
436,191,27029,1,0,0:0:0:0:
335,211,27195,1,2,0:0:0:0:
512,145,27361,1,0,0:0:0:0:
208,174,27526,1,2,0:0:0:0:
419,95,27692,1,0,0:0:0:0:
316,93,27858,1,2,0:0:0:0:
380,172,28024,1,0,0:0:0:0:
358,271,28189,1,2,0:0:0:0:
261,304,28355,1,0,0:0:0:0:
175,248,28521,2,0,B|158:217|158:217|164:133,1,101.999996887207,2|8,0:0|0:0,0:0:0:0:
209,59,28852,1,10,0:0:0:0:
288,223,29018,1,8,0:0:0:0:
327,96,29184,5,2,0:0:0:0:
288,223,29350,1,0,0:0:0:0:
416,194,29515,1,2,0:0:0:0:
422,326,29681,1,8,3:1:0:0:
422,326,29764,1,0,3:1:0:0:
422,326,29847,1,10,3:1:0:0:
288,292,30012,1,10,0:0:0:0:
188,314,30178,1,10,3:1:0:0:
288,292,30344,1,10,0:0:0:0:
88,336,30675,5,2,0:0:0:0:
288,292,30841,1,2,0:0:0:0:
149,141,31007,1,2,0:0:0:0:
97,217,31173,1,0,1:1:0:0:
135,231,31256,1,0,1:1:0:0:
175,229,31338,1,2,1:1:0:0:
210,208,31421,1,0,1:1:0:0:
232,174,31504,1,10,1:1:0:0:
106,23,31836,6,0,B|115:65|115:65|130:74|130:74|141:125,1,101.999996887207,6|0,0:0|0:0,0:0:0:0:
406,23,32167,2,0,B|396:65|396:65|381:74|381:74|370:125,1,101.999996887207,2|0,0:0|0:0,0:0:0:0:
34,173,32499,1,2,0:0:0:0:
458,149,32664,1,0,0:0:0:0:
458,149,32747,1,0,0:0:0:0:
458,149,32830,1,2,0:0:0:0:
406,23,32996,1,0,0:0:0:0:
347,130,33162,5,2,0:0:0:0:
279,29,33327,1,0,0:0:0:0:
207,182,33493,2,0,L|220:284,1,101.999996887207,2|0,0:0|0:0,0:0:0:0:
4,194,33825,1,2,0:0:0:0:
65,288,33990,1,0,0:0:0:0:
124,33,34156,2,0,L|138:142,1,101.999996887207,2|0,0:0|0:0,0:0:0:0:
361,206,34488,6,0,P|420:213|466:179,1,101.999996887207,2|0,0:0|0:0,0:0:0:0:
394,126,34736,1,0,0:0:0:0:
394,126,34819,1,2,0:0:0:0:
456,297,34985,1,0,0:0:0:0:
456,297,35151,1,2,0:0:0:0:
481,87,35316,1,0,0:0:0:0:
211,285,35482,2,0,B|241:310|241:310|302:323,1,101.999996887207,2|0,0:0|0:0,0:0:0:0:
368,104,35814,6,0,B|359:226,1,101.999996887207,6|0,0:0|0:0,0:0:0:0:
212,63,36145,6,0,B|201:208,1,144.500002756119,6|0,0:0|0:0,0:0:0:0:
57,23,36477,6,0,B|40:251,1,187.018698730826,6|0,0:0|0:0,0:0:0:0:
95,353,36808,1,0,0:0:0:0:
95,353,36974,1,0,0:0:0:0:
209,293,37140,6,0,B|196:264|196:264|112:205,1,101.999996887207,6|0,0:0|0:0,0:0:0:0:
138,223,37388,1,0,0:0:0:0:
138,223,37471,1,2,0:0:0:0:
262,164,37637,1,0,0:0:0:0:
252,119,37720,1,0,0:0:0:0:
242,74,37803,1,2,0:0:0:0:
387,185,37968,1,0,0:0:0:0:
439,71,38134,1,2,0:0:0:0:
468,261,38300,1,0,0:0:0:0:
288,329,38466,6,0,L|272:247,1,50.9999984436036,2|0,0:0|0:0,0:0:0:0:
296,198,38631,2,0,L|280:116,1,50.9999984436036
228,85,38797,2,0,L|192:77,2,25.4999992218018,2|0|0,3:1|3:1|3:1,3:1:0:0:
190,358,38963,2,0,L|165:363,2,25.4999992218018,0|0|0,3:1|3:1|3:1,3:1:0:0:
203,268,39129,1,2,0:0:0:0:
215,178,39294,1,8,0:0:0:0:
123,167,39460,1,10,0:0:0:0:
111,257,39626,1,8,0:0:0:0:
215,178,39792,6,0,L|370:160,1,144.500002756119,6|8,0:0|0:0,0:0:0:0:
422,113,40040,5,0,0:0:0:0:
453,39,40123,2,0,B|478:78|478:78|476:192,1,144.500002756119,6|8,0:0|0:0,0:0:0:0:
486,256,40372,5,0,0:0:0:0:
437,323,40454,2,0,P|401:351|339:353,1,59.4999981842042,6|0,0:0|0:0,0:0:0:0:
309,370,40620,1,10,0:0:0:0:
233,226,40786,1,8,0:0:0:0:
220,324,40952,1,8,0:0:0:0:
306,276,41117,6,0,B|317:236|317:236|299:115,1,152.999995330811,6|0,0:0|0:0,0:0:0:0:
288,42,41449,2,0,P|277:95|190:134,1,152.999995330811,8|0,0:0|0:0,0:0:0:0:
203,48,41780,1,0,2:1:0:0:
253,164,41946,1,0,2:1:0:0:
342,37,42112,1,0,2:1:0:0:
322,242,42278,1,0,2:1:0:0:
369,321,42443,5,0,0:0:0:0:
369,321,42609,1,0,0:0:0:0:
308,161,42775,2,0,L|291:254,1,68
253,302,43024,1,0,0:0:0:0:
253,302,43106,2,0,B|225:322|225:322|187:324,1,68
168,241,43355,2,0,L|157:153,1,68
87,220,43604,2,0,L|80:253,1,34
15,197,43769,5,0,0:0:0:0:
15,197,43935,1,0,0:0:0:0:
86,42,44101,2,0,L|167:33,1,68
197,40,44350,1,0,0:0:0:0:
197,40,44432,1,0,0:0:0:0:
271,193,44598,2,0,L|274:159,1,34,8|0,3:1|0:1,0:1:0:0:
165,126,44764,2,0,L|172:190,1,34,8|0,3:1|0:1,0:1:0:0:
447,110,44930,1,8,3:1:0:0:
355,135,45095,5,0,0:0:0:0:
355,135,45261,1,0,0:0:0:0:
341,308,45427,2,0,P|304:326|248:318,1,68
192,326,45675,1,0,0:0:0:0:
192,326,45758,2,0,P|154:307|104:304,1,68
89,226,46007,2,0,P|101:189|99:131,1,68
85,75,46256,2,0,L|132:85,1,34
194,126,46421,5,0,0:0:0:0:
194,126,46587,1,8,3:1:0:0:
313,247,46753,2,0,L|217:252,1,68,0|8,0:0|3:1,0:0:0:0:
246,251,47001,1,0,0:0:0:0:
246,251,47084,1,0,0:0:0:0:
359,124,47250,2,0,L|299:127,1,34,8|0,3:1|0:1,0:1:0:0:
253,77,47416,2,0,L|193:80,1,34,8|0,3:1|0:1,0:1:0:0:
160,141,47582,1,8,3:1:0:0:
55,94,47747,5,0,0:0:0:0:
55,94,47913,1,0,0:0:0:0:
54,270,48079,2,0,L|66:203,1,68
137,256,48328,1,0,0:0:0:0:
137,256,48410,2,0,B|142:324,1,68
243,328,48659,2,0,L|217:260,1,68
331,277,48908,2,0,L|288:251,1,34
304,174,49073,5,0,0:0:0:0:
304,174,49239,1,0,0:0:0:0:
345,8,49405,2,0,P|348:46|373:90,1,68
359,73,49654,1,0,0:0:0:0:
359,73,49736,1,0,0:0:0:0:
429,139,49902,2,0,L|436:189,1,34,8|0,3:1|0:1,0:1:0:0:
396,263,50068,2,0,L|362:264,1,34,8|0,3:1|0:1,0:1:0:0:
256,202,50233,1,8,3:1:0:0:
290,112,50399,5,0,0:0:0:0:
290,112,50565,1,8,3:1:0:0:
464,270,50731,2,0,L|397:264,1,68,0|8,0:0|3:1,0:0:0:0:
324,209,50979,1,0,0:0:0:0:
324,209,51062,2,0,L|256:202,1,68,0|8,0:0|3:1,0:0:0:0:
223,310,51394,2,0,L|164:304,1,34,8|0,3:1|0:0,0:0:0:0:
106,282,51560,2,0,P|98:263|94:244,1,34,8|0,3:1|0:0,0:0:0:0:
114,166,51725,5,0,0:0:0:0:
114,166,51891,1,8,3:1:0:0:
195,16,52057,2,0,B|211:53|211:53|209:100,1,68,8|8,3:1|3:1,0:1:0:0:
209,80,52305,1,0,0:0:0:0:
209,80,52388,1,0,0:0:0:0:
200,249,52554,1,8,3:1:0:0:
192,275,52720,5,8,3:1:0:0:
184,301,52885,5,8,3:1:0:0:
177,327,53051,6,0,L|65:332,1,85,10|0,0:0|0:0,0:0:0:0:
15,262,53383,1,0,0:0:0:0:
106,216,53548,1,0,0:0:0:0:
198,172,53714,2,0,L|310:177,1,85
304,177,53963,1,0,0:0:0:0:
325,178,54046,1,0,0:0:0:0:
404,272,54211,1,2,0:0:0:0:
404,272,54377,1,2,0:0:0:0:
431,173,54543,1,0,0:0:0:0:
480,313,54709,1,2,0:0:0:0:
460,85,54874,1,0,0:0:0:0:
402,188,55040,2,0,P|382:136|331:99,1,85,2|0,0:0|0:0,0:0:0:0:
297,195,55372,2,0,P|246:172|183:182,1,85,0|2,0:0|0:0,0:0:0:0:
168,186,55620,1,0,0:0:0:0:
168,186,55703,6,0,B|136:196|136:196|49:187,1,85,2|0,0:0|0:0,0:0:0:0:
9,121,56035,1,0,0:0:0:0:
9,121,56200,1,0,0:0:0:0:
43,342,56366,2,0,L|27:240,1,85
136,295,56698,1,0,0:0:0:0:
84,190,56863,1,2,0:0:0:0:
236,146,57029,5,2,0:0:0:0:
236,146,57195,1,0,0:0:0:0:
190,371,57361,1,2,0:0:0:0:
190,371,57526,1,0,0:0:0:0:
116,58,57692,1,2,0:0:0:0:
116,58,57858,1,0,0:0:0:0:
51,179,58024,1,0,3:1:0:0:
49,199,58106,1,0,3:1:0:0:
47,220,58189,1,2,3:1:0:0:
45,241,58272,1,0,3:1:0:0:
44,262,58355,5,2,0:0:0:0:
95,329,58521,1,2,0:0:0:0:
179,341,58687,1,2,0:0:0:0:
257,308,58852,1,2,0:0:0:0:
286,228,59018,1,2,0:0:0:0:
229,164,59184,1,2,0:0:0:0:
240,79,59350,1,2,0:0:0:0:
320,52,59515,1,2,0:0:0:0:
394,93,59681,5,2,0:0:0:0:
426,232,59847,1,2,0:0:0:0:
303,87,60012,1,2,0:0:0:0:
290,256,60178,1,2,0:0:0:0:
212,76,60344,1,2,0:0:0:0:
167,284,60510,1,2,0:0:0:0:
110,53,60675,1,2,0:0:0:0:
53,310,60841,1,2,0:0:0:0:
40,176,61007,5,2,0:0:0:0:
61,139,61090,1,2,0:0:0:0:
102,128,61173,1,2,0:0:0:0:
143,136,61256,1,2,0:0:0:0:
173,164,61338,1,2,0:0:0:0:
194,200,61421,1,2,0:0:0:0:
227,226,61504,1,2,0:0:0:0:
268,234,61587,1,2,0:0:0:0:
309,226,61670,5,2,0:0:0:0:
347,208,61753,1,2,0:0:0:0:
372,173,61836,1,2,0:0:0:0:
383,132,61919,1,2,0:0:0:0:
372,91,62001,1,2,0:0:0:0:
344,58,62084,1,2,0:0:0:0:
304,41,62167,1,2,0:0:0:0:
304,41,62499,5,2,0:0:0:0:
469,232,62664,1,10,0:0:0:0:
351,337,62830,2,0,L|363:124,1,203.999993774414,10|2,0:0|0:0,0:0:0:0:
256,312,63327,1,14,0:0:0:0:
208,41,63825,5,2,0:0:0:0:
43,232,63990,1,10,0:0:0:0:
161,337,64156,2,0,L|149:124,1,203.999993774414,10|2,0:0|0:0,0:0:0:0:
256,312,64653,1,14,0:0:0:0:
253,153,64985,6,0,L|259:208,1,42.5,0|0,0:0|3:0,0:0:0:0:
257,195,65233,1,0,3:0:0:0:
257,195,65316,1,0,3:0:0:0:
343,284,65482,2,0,L|346:306,4,21.25,0|0|0|0|0,3:0|3:0|3:0|3:0|3:0,3:0:0:0:
168,99,65979,2,0,L|166:78,2,21.25,0|0|0,3:0|3:0|3:0,3:0:0:0:
165,230,66311,2,0,L|161:317,1,85,2|0,0:1|0:0,0:0:0:0:
73,228,66642,2,0,L|69:315,1,85,2|0,0:1|0:0,0:0:0:0:
169,144,66974,1,2,0:2:0:0:
161,314,67140,1,0,0:0:0:0:
259,234,67305,1,2,0:0:0:0:
73,228,67471,1,0,0:0:0:0:
268,329,67637,6,0,B|297:342|297:342|393:346,1,101.999996887207,6|0,0:0|0:0,0:0:0:0:
353,183,67968,2,0,B|323:34|323:34|305:95,1,203.999993774414,2|2,0:0|0:0,0:0:0:0:
274,202,68466,1,0,0:0:0:0:
148,258,68631,2,0,B|132:205|132:205|145:144,1,101.999996887207,2|0,0:0|0:0,0:0:0:0:
397,191,68963,1,2,0:0:0:0:
497,176,69129,1,0,0:0:0:0:
239,284,69294,1,2,0:0:0:0:
339,269,69460,1,0,0:0:0:0:
123,128,69626,2,0,P|114:76|129:27,1,101.999996887207,2|8,0:0|0:0,0:0:0:0:
501,77,69957,2,0,P|510:129|495:178,1,101.999996887207,10|8,0:0|0:0,0:0:0:0:
339,269,70289,6,0,L|215:281,1,101.999996887207,2|0,0:0|0:0,0:0:0:0:
22,337,70620,2,0,P|89:332|144:216,1,203.999993774414,2|2,0:0|0:0,0:0:0:0:
112,103,71117,1,0,0:0:0:0:
49,240,71283,1,2,0:0:0:0:
29,31,71449,1,0,0:0:0:0:
4,132,71615,1,2,0:0:0:0:
4,132,71780,1,0,0:0:0:0:
253,43,71946,1,2,0:0:0:0:
253,43,72112,1,0,0:0:0:0:
336,187,72278,2,0,P|345:243|319:303,1,101.999996887207,2|8,0:0|0:0,0:0:0:0:
176,197,72609,2,0,P|167:141|193:81,1,101.999996887207,10|8,0:0|0:0,0:0:0:0:
400,112,72941,6,0,L|505:107,1,101.999996887207,2|0,0:0|0:0,0:0:0:0:
438,257,73272,2,0,B|384:251|345:286|345:286|309:234|234:229,1,203.999993774414,2|2,0:0|0:0,0:0:0:0:
148,284,73769,1,0,0:0:0:0:
357,178,73935,1,2,0:0:0:0:
223,357,74101,1,0,0:0:0:0:
188,194,74267,1,2,0:0:0:0:
150,35,74432,1,0,0:0:0:0:
98,194,74598,1,2,0:0:0:0:
69,74,74763,1,0,0:0:0:0:
33,349,74930,2,0,P|31:299|57:256,1,101.999996887207,2|8,0:0|0:0,0:0:0:0:
321,70,75261,2,0,P|279:98|228:101,1,101.999996887207,10|8,0:0|0:0,0:0:0:0:
14,145,75593,6,0,P|80:170|104:208,1,101.999996887207,2|0,0:0|0:0,0:0:0:0:
156,324,75924,2,0,B|204:348|204:348|354:353,1,203.999993774414,2|2,0:0|0:0,0:0:0:0:
446,272,76421,1,0,0:0:0:0:
397,159,76587,1,2,0:0:0:0:
354,353,76753,1,0,0:0:0:0:
354,353,77084,5,10,0:0:0:0:
397,159,77250,1,10,0:0:0:0:
324,202,77416,2,0,L|291:35,1,152.999995330811,10|0,0:0|0:0,0:0:0:0:
294,51,77747,1,10,0:0:0:0:
324,202,77913,1,10,0:0:0:0:
169,289,78245,6,0,P|185:227|235:188,1,101.999996887207,6|0,0:0|0:0,0:0:0:0:
169,289,78576,2,0,P|149:232|25:153,1,203.999993774414,2|2,0:0|0:0,0:0:0:0:
169,289,79073,1,0,0:0:0:0:
124,82,79239,1,2,0:0:0:0:
169,289,79405,1,0,0:0:0:0:
203,39,79571,1,2,0:0:0:0:
169,289,79736,1,0,0:0:0:0:
287,72,79902,1,2,0:0:0:0:
169,289,80068,1,0,0:0:0:0:
203,39,80233,2,0,L|220:139,1,101.999996887207,2|8,0:0|0:0,0:0:0:0:
287,345,80565,2,0,L|304:244,1,101.999996887207,10|8,0:0|0:0,0:0:0:0:
344,56,80896,6,0,P|366:106|416:145,1,101.999996887207,2|0,0:0|0:0,0:0:0:0:
400,137,81228,2,0,P|323:129|199:178,1,203.999993774414,2|2,0:0|0:0,0:0:0:0:
119,274,81725,1,0,0:0:0:0:
151,33,81891,1,2,0:0:0:0:
119,274,82057,1,0,0:0:0:0:
62,71,82222,1,2,0:0:0:0:
270,154,82388,1,0,0:0:0:0:
14,173,82554,1,2,0:0:0:0:
270,69,82720,1,0,0:0:0:0:
62,71,82885,2,0,L|199:79,1,101.999996887207,2|8,0:0|0:0,0:0:0:0:
477,160,83217,2,0,L|340:168,1,101.999996887207,10|8,0:0|0:0,0:0:0:0:
104,301,83548,6,0,P|143:244|136:174,1,101.999996887207,2|0,0:0|0:0,0:0:0:0:
68,171,83880,2,0,B|224:199|224:199|291:170,1,203.999993774414,2|2,0:0|0:0,0:0:0:0:
346,75,84377,1,0,0:0:0:0:
167,54,84543,1,2,0:0:0:0:
246,310,84709,1,0,0:0:0:0:
265,180,84874,1,2,0:0:0:0:
142,231,85040,1,0,0:0:0:0:
369,256,85206,1,2,0:0:0:0:
89,338,85372,1,0,0:0:0:0:
406,348,85537,1,2,0:0:0:0:
406,348,85703,1,10,0:0:0:0:
283,309,85869,1,10,0:0:0:0:
278,268,85952,1,0,0:0:0:0:
273,227,86035,1,10,0:0:0:0:
268,186,86117,1,0,0:0:0:0:
264,145,86200,5,10,0:0:0:0:
164,65,86366,1,0,0:0:0:0:
73,150,86532,1,2,0:0:0:0:
73,150,86615,1,2,0:0:0:0:
73,150,86698,2,0,L|66:229,1,50.9999984436036,2|2,0:0|0:0,0:0:0:0:
63,241,86863,1,10,0:0:0:0:
202,279,87029,1,2,0:0:0:0:
202,279,87112,1,2,0:0:0:0:
202,279,87195,2,0,L|195:200,1,50.9999984436036,10|2,0:0|0:0,0:0:0:0:
244,47,87361,1,10,0:0:0:0:
244,47,87692,5,10,0:0:0:0:
202,279,87858,1,10,0:0:0:0:
161,109,88024,2,0,B|138:2|138:2|127:68,1,152.999995330811,10|0,0:0|0:0,0:0:0:0:
112,203,88355,2,0,P|135:214|160:216,1,50.9999984436036,10|0,0:0|0:0,0:0:0:0:
378,164,88521,1,14,0:0:0:0:
