osu file format v14

[General]
AudioFilename: audio12.mp3
AudioLeadIn: 0
PreviewTime: 131701
Countdown: 0
SampleSet: Soft
StackLeniency: 0.7
Mode: 0
LetterboxInBreaks: 0
WidescreenStoryboard: 0

[Editor]
DistanceSpacing: 1.1
BeatDivisor: 4
GridSize: 32
TimelineZoom: 1

[Metadata]
Title:365 Shoku Palette
TitleUnicode:365色パレット
Artist:Izumi Hashima(CV.Chinatsu Akasaki)
ArtistUnicode:波島出海(CV.赤崎千夏)
Creator:Rizia
Version:Insane
Source:冴えない彼女の育てかた♭
Tags:Saenai Heroine no Sodatekata Saekano anime Character Song kawaiwkyik
BeatmapID:1308067
BeatmapSetID:620574

[Difficulty]
HPDrainRate:7
CircleSize:4
OverallDifficulty:7
ApproachRate:9
SliderMultiplier:1.8
SliderTickRate:1

[Events]
//Background and Video events
0,0,"687474703a2f2f7075752e73682f77446c76322f303462303237653464632e706e67.png",0,0
//Break Periods
2,86227,96045
2,175216,178460
//Storyboard Layer 0 (Background)
//Storyboard Layer 1 (Fail)
//Storyboard Layer 2 (Pass)
//Storyboard Layer 3 (Foreground)
//Storyboard Sound Samples

[TimingPoints]
7825,337.078651685393,4,2,1,60,1,0
32094,-133.333333333333,4,2,3,60,0,0
32178,-133.333333333333,4,2,1,60,0,0
37487,-133.333333333333,4,2,3,60,0,0
37572,-133.333333333333,4,2,1,60,0,0
42881,-100,4,2,1,60,0,0
53667,-133.333333333333,4,2,1,60,0,0
59060,-100,4,2,1,60,0,0
61757,-83.3333333333333,4,2,1,60,0,0
64117,-83.3333333333333,4,2,2,60,0,0
64454,-100,4,2,1,60,0,1
83583,-83.3333333333333,4,2,1,60,0,1
85184,-100,4,2,1,60,0,1
86027,-100,4,2,1,60,0,0
99510,-133.333333333333,4,2,1,60,0,0
102207,-133.333333333333,4,2,3,60,0,0
102291,-133.333333333333,4,2,1,60,0,0
104903,-133.333333333333,4,2,3,60,0,0
104987,-133.333333333333,4,2,1,60,0,0
108780,-100,4,2,1,60,0,0
121589,-133.333333333333,4,2,1,60,0,0
126476,-100,4,2,1,60,0,0
129173,-83.3333333333333,4,2,1,60,0,0
131532,-83.3333333333333,4,2,2,60,0,0
131869,-100,4,2,1,60,0,1
150999,-83.3333333333333,4,2,1,60,0,1
152600,-100,4,2,1,60,0,1
153442,-100,4,2,1,60,0,0
179060,-200,4,2,1,60,0,0
183274,-100,4,2,1,60,0,0
185802,-100,4,2,1,60,0,1
194145,-83.3333333333333,4,2,1,60,0,1
195746,-100,4,2,1,60,0,1
196589,-100,4,2,1,60,0,0

[Colours]
Combo1 : 156,190,245
Combo2 : 211,148,233
Combo3 : 247,234,247
Combo4 : 248,124,142
Combo5 : 255,234,149

[HitObjects]
48,152,7824,6,0,L|247:139,1,180,2|0,0:3|0:0,0:0:0:0:
307,78,8330,1,0,0:0:0:0:
252,222,8499,1,2,0:0:0:0:
221,121,8667,1,0,0:0:0:0:
348,185,8836,2,0,L|467:177,1,90
502,109,9173,6,0,P|465:160|484:300,1,180,2|0,0:3|0:0,0:0:0:0:
508,350,9678,2,0,P|457:313|317:332,1,180,2|0,0:0|0:0,0:0:0:0:
69,350,10521,6,0,P|52:305|148:324,1,180,2|2,0:3|0:0,0:0:0:0:
232,351,11027,1,0,0:0:0:0:
208,210,11195,1,2,0:0:0:0:
315,292,11364,2,0,P|322:245|325:198,2,90
402,333,11869,5,2,0:0:0:0:
236,221,12038,1,0,0:0:0:0:
411,138,12207,1,0,0:0:0:0:
300,307,12375,1,2,0:0:0:0:
38,219,12881,5,4,0:3:0:0:
138,119,13049,1,0,0:0:0:0:
138,119,13133,1,0,0:0:0:0:
138,119,13218,2,0,P|148:178|147:230,1,90,4|0,0:0|0:0,0:0:0:0:
49,309,13555,2,0,P|39:250|40:198,1,90,8|0,0:0|0:0,0:0:0:0:
148,208,13892,1,0,1:0:0:0:
300,159,14060,1,0,0:0:0:0:
126,82,14229,1,8,0:0:0:0:
252,257,14398,6,0,P|259:186|274:66,1,180,0|2,1:0|1:0,0:0:0:0:
450,36,14903,1,10,0:0:0:0:
490,171,15072,1,2,0:0:0:0:
337,326,15240,1,2,1:2:0:0:
377,191,15409,1,0,0:0:0:0:
481,278,15577,1,8,0:0:0:0:
344,351,15746,6,0,P|292:345|160:340,1,180,4|0,0:0|0:0,0:0:0:0:
87,145,16251,2,0,L|62:91,2,45,12|0|0,0:0|0:0|0:0,0:0:0:0:
201,200,16589,2,0,L|260:205,2,45,12|0|0,0:0|0:0|0:0,0:0:0:0:
98,266,16926,2,0,L|63:314,1,45,8|0,0:0|0:0,0:0:0:0:
29,362,17094,6,0,P|78:337|190:345,1,135,8|0,0:0|0:0,0:0:0:0:
256,360,17431,2,0,P|318:336|366:289,1,135,8|0,0:0|0:0,0:0:0:0:
464,243,17768,2,0,P|435:196|446:53,1,180,10|0,0:0|1:0,0:0:0:0:
504,7,18274,1,8,0:0:0:0:
331,195,18442,2,0,L|321:132,1,45
268,38,18611,6,0,P|255:104|250:157,1,90,4|0,1:2|0:0,0:0:0:0:
151,199,18948,2,0,P|144:154|135:110,1,90,8|0,0:0|0:0,0:0:0:0:
70,294,19285,1,0,1:0:0:0:
252,126,19454,1,0,0:0:0:0:
135,110,19622,1,8,0:0:0:0:
212,261,19791,6,0,P|241:271|366:199,1,180
295,52,20296,2,0,L|281:169,1,90,8|0,0:0|0:0,0:0:0:0:
321,349,20633,1,0,1:0:0:0:
170,225,20802,1,8,0:0:0:0:
321,349,20971,1,8,0:0:0:0:
389,168,21139,1,0,0:0:0:0:
389,168,21223,1,0,0:0:0:0:
389,168,21308,6,0,P|436:175|505:180,1,90,4|0,0:0|0:0,0:0:0:0:
317,308,21645,2,0,P|270:301|201:296,1,90,8|0,0:0|0:0,0:0:0:0:
121,206,21982,2,0,P|165:201|210:195,1,90,0|0,1:0|0:0,0:0:0:0:
134,344,22319,1,8,0:0:0:0:
18,222,22487,6,0,P|30:155|46:27,1,180
160,138,22993,1,8,0:0:0:0:
206,293,23162,1,0,0:0:0:0:
281,69,23330,1,0,1:0:0:0:
146,161,23499,1,8,0:0:0:0:
370,212,23667,1,8,0:0:0:0:
179,59,23836,1,0,0:0:0:0:
179,59,23920,1,0,0:0:0:0:
179,59,24004,6,0,P|218:57|272:49,1,90,4|0,0:0|0:0,0:0:0:0:
451,129,24341,2,0,P|412:127|358:119,1,90,8|0,0:0|0:0,0:0:0:0:
277,233,24678,1,0,1:0:0:0:
361,29,24847,1,0,0:0:0:0:
422,216,25016,1,8,0:0:0:0:
229,151,25184,6,0,P|242:220|258:349,1,180
35,310,25690,1,8,0:0:0:0:
210,256,25858,1,0,0:0:0:0:
73,174,26027,1,0,1:0:0:0:
148,353,26195,2,0,P|139:309|128:266,1,90,8|8,0:0|0:0,0:0:0:0:
212,44,26532,1,0,0:0:0:0:
212,44,26617,1,0,0:0:0:0:
212,44,26701,6,0,P|200:87|191:131,1,90,4|0,1:2|0:0,0:0:0:0:
404,148,27038,2,0,P|360:136|316:127,1,90,8|0,0:0|1:0,0:0:0:0:
108,261,27375,1,4,0:0:0:0:
277,200,27544,1,8,0:0:0:0:
244,337,27712,1,8,0:0:0:0:
451,263,27881,6,0,P|388:257|248:237,1,180,0|0,1:0|0:0,0:0:0:0:
98,109,28386,1,8,0:0:0:0:
229,63,28555,1,0,1:0:0:0:
105,249,28723,1,8,0:0:0:0:
7,137,28892,1,8,0:0:0:0:
76,347,29060,1,8,0:0:0:0:
230,211,29229,6,0,P|275:203|333:326,1,180,4|0,0:0|1:0,0:0:0:0:
166,379,29735,2,0,L|178:269,1,90,8|0,0:0|1:0,0:0:0:0:
146,139,30072,1,8,0:0:0:0:
267,281,30240,1,0,1:0:0:0:
78,318,30409,1,8,0:0:0:0:
236,177,30577,1,0,1:0:0:0:
38,79,30746,5,8,0:0:0:0:
175,259,30914,1,0,1:0:0:0:
175,259,30999,1,0,0:0:0:0:
175,259,31083,1,8,0:0:0:0:
294,129,31251,1,0,0:0:0:0:
431,313,31420,1,12,0:0:0:0:
339,291,31589,2,0,P|363:246|501:250,1,180,12|0,0:0|0:0,0:0:0:0:
492,352,32094,6,0,L|413:344,1,67.5000025749208,6|0,0:2|0:0,0:0:0:0:
339,291,32431,2,0,P|344:336|355:377,1,67.5000025749208,0|0,1:0|0:0,0:0:0:0:
270,339,32768,2,0,P|225:334|122:329,1,135.000005149842,0|0,1:0|1:0,0:0:0:0:
38,262,33274,6,0,P|70:223|168:225,1,135.000005149842
247,239,33780,2,0,P|249:192|251:141,1,67.5000025749208,0|0,1:0|0:0,0:0:0:0:
155,80,34117,2,0,P|152:150|149:227,1,135.000005149842,0|0,1:0|1:0,0:0:0:0:
384,185,34622,6,0,P|318:179|237:169,1,135.000005149842
233,311,35128,2,0,P|279:305|326:301,1,67.5000025749208,0|0,1:0|0:0,0:0:0:0:
154,194,35465,1,0,1:0:0:0:
146,274,35633,1,0,0:0:0:0:
137,354,35802,1,0,1:0:0:0:
21,294,35971,6,0,P|80:264|146:274,1,135.000005149842
210,322,36476,2,0,P|251:323|290:307,1,67.5000025749208,0|0,1:0|0:0,0:0:0:0:
377,342,36813,2,0,P|401:303|380:210,1,135.000005149842,0|0,1:0|1:0,0:0:0:0:
206,12,37487,6,0,P|182:51|203:144,1,135.000005149842,2|0,0:0|1:0,0:0:0:0:
252,227,37993,1,0,0:0:0:0:
252,227,38162,2,0,P|303:224|395:217,1,135.000005149842,0|0,1:0|1:0,0:0:0:0:
464,129,38667,6,0,P|396:123|329:119,1,135.000005149842
195,135,39173,1,0,1:0:0:0:
252,227,39341,1,0,0:0:0:0:
148,284,39510,2,0,L|137:361,1,67.5000025749208,0|0,1:0|0:0,0:0:0:0:
57,154,39847,2,0,L|68:231,1,67.5000025749208,0|0,1:0|0:0,0:0:0:0:
236,340,40184,1,4,0:0:0:0:
413,187,41364,5,4,0:0:0:0:
83,81,41701,1,4,0:0:0:0:
149,191,41869,1,8,0:0:0:0:
234,51,42038,1,0,1:0:0:0:
256,290,42207,1,8,0:0:0:0:
256,290,42291,1,0,0:0:0:0:
256,290,42375,1,0,0:0:0:0:
114,213,42544,1,8,0:0:0:0:
114,213,42628,1,0,0:0:0:0:
114,213,42712,1,0,0:0:0:0:
210,380,42881,6,0,P|217:306|231:195,1,180,4|8,0:0|0:0,0:0:0:0:
312,63,43386,1,0,0:0:0:0:
353,236,43555,1,0,1:0:0:0:
215,176,43723,2,0,P|256:169|324:158,1,90,0|8,1:0|0:0,0:0:0:0:
448,180,44060,6,0,P|468:239|398:339,1,180,0|0,0:0|1:0,0:0:0:0:
213,193,44566,1,8,0:0:0:0:
347,223,44735,1,0,0:0:0:0:
184,328,44903,1,0,1:0:0:0:
43,355,45072,1,0,1:0:0:0:
110,241,45240,1,8,0:0:0:0:
265,364,45409,6,0,P|275:315|288:177,1,180
101,62,45914,2,0,P|108:112|120:171,1,90,8|0,0:0|0:0,0:0:0:0:
163,288,46251,1,0,1:0:0:0:
205,166,46420,1,0,1:0:0:0:
17,117,46589,1,8,0:0:0:0:
78,323,46757,6,0,P|130:314|268:300,1,180,0|0,1:0|1:0,0:0:0:0:
404,351,47263,1,8,0:0:0:0:
400,187,47431,1,0,0:0:0:0:
400,187,47516,1,0,0:0:0:0:
400,187,47600,2,0,P|344:191|304:231,1,90,0|0,1:0|1:0,0:0:0:0:
477,261,47937,2,0,P|506:211|484:111,1,135,8|0,0:0|0:0,0:0:0:0:
429,58,48274,6,0,B|358:50|358:50|319:65|319:65|236:54,1,180,0|8,1:0|0:0,0:0:0:0:
35,117,48780,2,0,P|68:184|181:176,1,180,0|0,1:0|1:0,0:0:0:0:
141,78,49285,1,8,0:0:0:0:
237,329,49454,6,0,P|263:276|256:147,1,180,0|0,1:0|1:0,0:0:0:0:
22,27,49959,2,0,P|27:72|35:117,1,90,8|0,0:0|1:0,0:0:0:0:
164,189,50296,2,0,P|208:184|253:176,1,90,8|0,0:0|1:0,0:0:0:0:
402,53,50633,2,0,P|357:45|312:40,1,90,8|0,0:0|0:0,0:0:0:0:
253,176,50971,5,0,1:0:0:0:
319,260,51139,1,0,0:0:0:0:
280,361,51308,1,8,0:0:0:0:
148,287,51476,1,0,1:0:0:0:
148,287,51560,1,0,0:0:0:0:
148,287,51645,1,0,1:0:0:0:
335,233,51813,1,0,0:0:0:0:
136,125,51982,1,8,0:0:0:0:
296,337,52150,5,4,1:2:0:0:
296,337,52487,1,0,1:0:0:0:
245,207,52656,1,8,0:0:0:0:
428,257,52824,1,0,1:0:0:0:
212,358,52993,6,0,L|228:280,1,45,8|0,0:0|0:0,0:0:0:0:
139,262,53162,2,0,L|123:184,1,45,0|0,1:0|0:0,0:0:0:0:
245,207,53330,2,0,L|276:157,1,45,8|0,0:0|0:0,0:0:0:0:
116,127,53499,2,0,L|76:77,1,45
197,21,53667,5,4,0:0:0:0:
43,241,54173,6,0,L|50:294,1,33.7500012874604,0|0,1:0|0:0,0:0:0:0:
48,303,54341,2,0,P|91:294|207:285,1,135.000005149842,0|8,1:0|0:0,0:0:0:0:
432,264,55016,6,0,P|459:306|351:307,1,202.500007724762,0|0,1:0|0:0,0:0:0:0:
350,250,55690,2,0,P|358:183|366:116,1,135.000005149842,0|8,1:0|0:0,0:0:0:0:
171,33,56364,6,0,P|163:101|156:175,1,135.000005149842,4|0,0:0|0:0,0:0:0:0:
204,232,56869,1,0,1:0:0:0:
76,355,57038,2,0,P|49:312|71:224,1,135.000005149842,0|8,1:0|0:0,0:0:0:0:
244,314,57544,1,0,0:0:0:0:
244,314,57628,1,0,0:0:0:0:
244,314,57712,6,0,P|194:326|119:272,1,135.000005149842,0|0,1:0|0:0,0:0:0:0:
284,190,58218,1,0,1:0:0:0:
204,232,58386,2,0,P|197:176|187:85,1,135.000005149842,0|8,1:0|0:0,0:0:0:0:
454,58,59060,5,4,0:0:0:0:
416,230,59229,1,0,1:0:0:0:
272,149,59398,1,8,0:0:0:0:
379,124,59566,1,0,0:0:0:0:
379,124,59650,1,0,0:0:0:0:
379,124,59735,1,8,0:0:0:0:
297,275,59903,1,8,0:0:0:0:
493,195,60072,1,8,0:0:0:0:
330,373,60240,6,0,P|325:298|308:168,1,180,4|0,0:0|1:0,0:0:0:0:
107,62,60746,2,0,P|85:108|78:176,1,90,8|0,0:0|0:0,0:0:0:0:
245,306,61083,2,0,P|235:262|215:221,1,90,8|8,0:0|0:0,0:0:0:0:
9,264,61420,2,0,P|51:278|96:280,1,90,8|0,0:0|1:0,0:0:0:0:
460,146,61757,6,0,P|425:110|329:113,1,107.999996704102,4|0,1:2|1:0,0:0:0:0:
304,154,62010,1,0,1:0:0:0:
304,154,62094,2,0,P|320:201|311:278,1,107.999996704102,8|0,0:0|1:0,0:0:0:0:
245,306,62347,1,0,1:0:0:0:
245,306,62431,2,0,P|196:296|134:250,1,107.999996704102,8|0,0:0|1:0,0:0:0:0:
64,128,62768,1,8,0:0:0:0:
215,5,62937,6,0,P|247:63|225:220,1,215.999993408203,8|8,0:0|0:0,0:0:0:0:
102,296,63442,1,8,0:0:0:0:
158,108,63611,1,8,0:0:0:0:
423,197,63780,1,8,0:0:0:0:
16,277,64117,1,4,0:0:0:0:
303,376,64454,6,0,P|325:330|301:186,1,180,4|8,0:0|0:0,0:0:0:0:
164,101,64959,1,0,0:0:0:0:
188,234,65128,1,2,1:2:0:0:
312,104,65296,1,0,0:0:0:0:
386,273,65465,2,0,L|485:263,1,90,8|0,0:0|0:0,0:0:0:0:
304,364,65802,6,0,P|256:349|121:347,1,180,0|8,1:0|0:0,0:0:0:0:
33,207,66308,1,0,0:0:0:0:
33,207,66392,1,0,0:0:0:0:
33,207,66476,2,0,P|72:187|129:192,1,90,0|0,1:0|1:0,0:0:0:0:
296,261,66813,2,0,P|250:254|207:217,1,90,8|2,2:0|2:0,2:0:0:0:
259,2,67150,6,0,P|292:41|280:177,1,180,4|8,0:0|0:0,0:0:0:0:
315,268,67656,1,0,0:0:0:0:
189,134,67824,1,0,1:0:0:0:
407,92,67993,1,0,0:0:0:0:
271,147,68162,1,8,0:0:0:0:
469,248,68330,1,0,0:0:0:0:
469,248,68414,1,0,0:0:0:0:
469,248,68499,6,0,P|459:301|453:360,1,90,4|0,0:0|1:0,0:0:0:0:
308,140,68836,1,8,0:0:0:0:
337,348,69004,1,0,1:0:0:0:
211,211,69173,1,0,0:0:0:0:
179,358,69341,1,8,0:0:0:0:
375,255,69510,1,8,0:0:0:0:
111,137,69678,2,0,L|123:218,1,45
128,264,69847,6,0,P|174:257|239:246,1,90,4|0,0:0|0:0,0:0:0:0:
376,154,70184,2,0,P|330:147|265:136,1,90,8|0,0:0|0:0,0:0:0:0:
159,79,70521,1,0,1:0:0:0:
256,234,70690,1,0,0:0:0:0:
33,292,70858,1,8,0:0:0:0:
179,167,71027,6,0,P|169:231|154:362,1,180
79,141,71532,1,10,0:0:0:0:
256,263,71701,1,0,0:0:0:0:
155,345,71869,1,2,1:2:0:0:
189,201,72038,1,0,0:0:0:0:
189,201,72122,1,0,0:0:0:0:
189,201,72207,1,8,0:0:0:0:
341,315,72375,6,0,P|386:334|494:270,1,180,4|8,0:0|0:0,0:0:0:0:
385,51,72881,1,8,0:0:0:0:
398,234,73049,1,0,0:0:0:0:
398,234,73133,1,8,0:0:0:0:
398,234,73218,2,0,P|416:194|411:138,1,90,8|8,0:0|0:0,0:0:0:0:
230,35,73555,1,8,0:0:0:0:
243,198,73723,1,0,1:0:0:0:
243,198,73808,1,0,1:0:0:0:
243,198,73892,6,0,L|144:189,1,90,0|0,1:0|0:0,0:0:0:0:
40,320,74229,2,0,L|139:311,1,90,8|0,0:0|1:0,0:0:0:0:
279,351,74566,1,8,0:0:0:0:
279,351,74650,1,8,0:0:0:0:
279,351,74735,1,8,0:0:0:0:
129,165,74903,1,8,0:0:0:0:
197,349,75072,2,0,P|208:303|225:273,1,45
270,175,75240,6,0,P|283:241|287:303,1,90,4|0,0:0|0:0,0:0:0:0:
185,60,75577,2,0,P|251:47|313:43,1,90,8|0,0:0|0:0,0:0:0:0:
115,186,75914,2,0,P|70:180|26:170,1,90,0|0,1:0|0:0,0:0:0:0:
291,193,76251,1,8,0:0:0:0:
171,44,76420,1,0,0:0:0:0:
146,292,76589,6,0,P|129:237|195:130,1,180,0|8,1:0|0:0,0:0:0:0:
404,175,77094,1,0,0:0:0:0:
404,175,77178,1,0,0:0:0:0:
404,175,77263,2,0,P|358:173|305:208,1,90,0|0,1:0|0:0,0:0:0:0:
239,354,77600,1,8,0:0:0:0:
273,91,77768,6,0,P|279:159|288:290,1,180,4|0,0:0|1:0,0:0:0:0:
128,298,78274,1,8,0:0:0:0:
18,221,78442,2,0,P|46:174|192:194,1,180,4|0,0:0|1:0,0:0:0:0:
286,271,78948,1,8,0:0:0:0:
447,249,79117,6,0,P|480:217|385:201,1,180,4|0,0:0|0:0,0:0:0:0:
302,191,79622,2,0,P|311:142|323:87,1,90,8|0,0:0|1:0,0:0:0:0:
341,315,79959,1,8,0:0:0:0:
341,315,80044,1,8,0:0:0:0:
341,315,80128,1,8,0:0:0:0:
411,97,80296,1,8,0:0:0:0:
435,265,80465,1,8,0:0:0:0:
435,265,80549,1,0,0:0:0:0:
435,265,80633,6,0,P|387:276|328:295,1,90,4|0,0:0|0:0,0:0:0:0:
179,167,80971,2,0,P|227:178|286:197,1,90,8|0,0:0|0:0,0:0:0:0:
139,373,81308,2,0,P|132:324|130:262,1,90,0|0,1:0|0:0,0:0:0:0:
258,323,81645,1,8,0:0:0:0:
40,227,81813,6,0,P|126:235|179:167,1,180,0|2,0:0|0:0,0:0:0:0:
342,279,82319,2,0,P|295:286|247:297,1,90,10|0,0:0|0:0,0:0:0:0:
90,153,82656,1,2,0:0:0:0:
253,295,82825,1,0,0:0:0:0:
174,62,82993,1,8,0:0:0:0:
0,258,83162,6,0,B|81:248|81:248|91:251|91:251|204:238,1,180,4|0,0:0|1:0,0:0:0:0:
240,181,83583,1,0,0:0:0:0:
240,181,83667,2,0,P|286:197|365:185,1,107.999996704102,8|0,0:0|1:0,0:0:0:0:
422,155,83920,1,0,0:0:0:0:
422,155,84004,2,0,P|447:195|452:275,1,107.999996704102,8|0,0:0|1:0,0:0:0:0:
428,343,84257,1,0,0:0:0:0:
428,343,84341,2,0,P|381:350|348:375,1,53.9999983520508,8|0,0:0|0:0,0:0:0:0:
178,304,84510,5,8,0:0:0:0:
442,64,84847,1,8,0:0:0:0:
311,381,85184,2,0,P|305:313|289:166,1,180,8|0,0:0|1:0,0:0:0:0:
293,201,85605,1,0,1:0:0:0:
293,201,85690,1,8,0:0:0:0:
126,53,85858,2,0,L|115:107,1,45,0|0,1:0|1:0,0:0:0:0:
134,205,86027,1,4,0:0:0:0:
256,192,96645,12,8,99004,0:0:0:0:
64,157,99510,6,0,P|106:152|154:149,1,67.5000025749208,4|0,0:0|0:0,0:0:0:0:
195,113,99847,2,0,P|190:71|187:23,1,67.5000025749208,0|0,1:0|0:0,0:0:0:0:
73,22,100184,2,0,P|68:62|63:161,1,135.000005149842,0|0,1:0|1:0,0:0:0:0:
42,266,100690,6,0,P|83:238|195:239,1,135.000005149842
225,273,101195,2,0,P|230:315|233:363,1,67.5000025749208,0|0,1:0|0:0,0:0:0:0:
302,364,101532,2,0,P|341:357|451:348,1,135.000005149842,0|0,1:0|1:0,0:0:0:0:
378,254,102038,1,0,0:0:0:0:
491,285,102207,6,0,P|516:247|507:161,1,135.000005149842,2|0,0:0|1:0,0:0:0:0:
450,77,102712,1,0,0:0:0:0:
450,77,102881,2,0,P|411:93|371:92,1,67.5000025749208,0|0,1:0|0:0,0:0:0:0:
347,165,103218,2,0,P|313:161|283:147,1,67.5000025749208,0|0,1:0|0:0,0:0:0:0:
204,183,103555,6,0,P|184:144|195:41,1,135.000005149842,0|0,1:0|1:0,0:0:0:0:
272,27,104060,1,0,0:0:0:0:
175,86,104229,2,0,L|22:100,1,135.000005149842,0|0,1:0|1:0,0:0:0:0:
49,347,104903,6,0,P|90:353|143:347,1,67.5000025749208,2|0,0:0|0:0,0:0:0:0:
183,260,105240,2,0,P|142:254|89:260,1,67.5000025749208,0|0,1:0|0:0,0:0:0:0:
235,348,105577,2,0,P|276:351|371:336,1,135.000005149842,0|0,1:0|1:0,0:0:0:0:
462,341,106083,6,0,P|465:299|450:204,1,135.000005149842
387,119,106589,1,0,1:0:0:0:
387,119,106757,1,0,0:0:0:0:
312,190,106926,2,0,P|268:200|177:166,1,135.000005149842,0|0,1:0|1:0,0:0:0:0:
125,88,107431,1,0,0:0:0:0:
249,23,107600,1,4,0:0:0:0:
249,23,108780,5,8,0:0:0:0:
164,368,109117,1,0,1:0:0:0:
193,218,109285,1,8,0:0:0:0:
283,328,109454,1,0,1:0:0:0:
103,268,109622,1,8,0:0:0:0:
103,268,109707,1,0,0:0:0:0:
103,268,109791,1,0,0:0:0:0:
283,173,109959,1,8,0:0:0:0:
283,173,110044,1,0,0:0:0:0:
283,173,110128,1,0,0:0:0:0:
397,307,110296,6,0,B|358:315|358:315|328:291|328:291|274:306|213:276,1,180,4|8,0:0|0:0,0:0:0:0:
376,122,110802,1,0,0:0:0:0:
193,180,110971,2,0,P|238:179|283:172,1,90,0|0,1:0|1:0,0:0:0:0:
150,90,111308,1,8,0:0:0:0:
228,282,111476,6,0,P|180:275|40:263,1,180,0|0,1:0|1:0,0:0:0:0:
71,81,111982,1,8,0:0:0:0:
183,193,112150,1,0,0:0:0:0:
183,193,112235,1,0,0:0:0:0:
183,193,112319,2,0,P|187:138|197:86,1,90,0|0,1:0|1:0,0:0:0:0:
311,295,112656,2,0,P|305:240|306:187,1,90,8|0,0:0|0:0,0:0:0:0:
411,25,112993,6,0,P|433:82|437:214,1,180,0|8,1:0|0:0,0:0:0:0:
282,51,113499,1,0,0:0:0:0:
327,197,113667,1,0,1:0:0:0:
274,74,113836,1,0,1:0:0:0:
179,254,114004,1,8,0:0:0:0:
265,102,114173,6,0,P|273:158|289:295,1,180,0|0,1:0|1:0,0:0:0:0:
177,118,114678,1,8,0:0:0:0:
370,201,114847,1,0,0:0:0:0:
370,201,114931,1,0,0:0:0:0:
370,201,115016,2,0,P|415:196|478:193,1,90,0|0,1:0|1:0,0:0:0:0:
310,37,115353,2,0,P|275:74|175:69,1,135,8|0,0:0|0:0,0:0:0:0:
106,24,115690,6,0,P|78:53|96:196,1,180,0|8,1:0|0:0,0:0:0:0:
211,360,116195,2,0,L|192:173,1,180,0|0,1:0|1:0,0:0:0:0:
50,96,116701,1,8,0:0:0:0:
13,299,116869,6,0,B|77:280|77:280|124:289|124:289|204:267,1,180,0|0,1:0|1:0,0:0:0:0:
205,96,117375,2,0,P|157:101|118:141,1,90,8|0,0:0|1:0,0:0:0:0:
273,332,117712,2,0,P|292:287|277:234,1,90,8|0,0:0|1:0,0:0:0:0:
57,226,118049,2,0,P|93:236|174:261,1,90,8|0,0:0|0:0,0:0:0:0:
299,346,118386,5,0,1:0:0:0:
186,166,118555,1,0,0:0:0:0:
194,368,118723,1,8,0:0:0:0:
313,238,118892,1,0,1:0:0:0:
313,238,118976,1,0,0:0:0:0:
313,238,119060,1,0,1:0:0:0:
102,190,119229,1,0,0:0:0:0:
275,316,119398,1,8,0:0:0:0:
327,84,119566,1,4,0:0:0:0:
327,84,119903,5,0,1:0:0:0:
270,233,120072,1,8,0:0:0:0:
460,139,120240,1,0,1:0:0:0:
209,133,120409,5,8,0:0:0:0:
209,133,120493,1,0,0:0:0:0:
209,133,120577,2,0,L|261:144,1,45,0|0,1:0|0:0,0:0:0:0:
357,228,120746,2,0,L|305:239,1,45,8|0,0:0|0:0,0:0:0:0:
216,319,120914,2,0,L|268:330,1,45
348,368,121083,5,4,0:0:0:0:
30,98,121589,6,0,L|34:145,1,33.7500012874604,0|0,1:0|0:0,0:0:0:0:
36,153,121757,2,0,P|91:149|184:141,1,135.000005149842,0|8,1:0|0:0,0:0:0:0:
433,55,122431,6,0,P|455:92|337:119,1,202.500007724762,0|0,1:0|1:0,0:0:0:0:
316,70,123105,2,0,P|309:116|299:212,1,135.000005149842,0|8,1:0|0:0,0:0:0:0:
148,364,123780,6,0,P|155:318|165:222,1,135.000005149842,4|0,0:0|0:0,0:0:0:0:
135,149,124285,1,0,1:0:0:0:
234,277,124454,2,0,P|190:311|98:290,1,135.000005149842,0|8,1:0|0:0,0:0:0:0:
190,110,124959,5,0,0:0:0:0:
190,110,125044,1,0,0:0:0:0:
190,110,125128,2,0,P|156:154|177:246,1,135.000005149842,0|0,1:0|0:0,0:0:0:0:
377,196,125633,1,0,1:0:0:0:
377,196,125802,2,0,P|304:191|228:183,1,135.000005149842,0|8,1:0|0:0,0:0:0:0:
10,127,126476,5,4,0:0:0:0:
96,301,126645,1,0,1:0:0:0:
184,165,126813,1,8,0:0:0:0:
224,373,126982,1,0,0:0:0:0:
224,373,127066,1,0,0:0:0:0:
224,373,127150,1,8,0:0:0:0:
100,210,127319,1,8,0:0:0:0:
282,287,127487,1,8,0:0:0:0:
65,317,127656,6,0,P|127:310|254:302,1,180,4|0,0:0|1:0,0:0:0:0:
480,274,128162,2,0,P|431:254|370:257,1,90,8|0,0:0|0:0,0:0:0:0:
322,93,128499,2,0,P|302:142|305:203,1,90,0|8,1:0|0:0,0:0:0:0:
319,347,128836,2,0,P|285:316|209:303,1,90,8|0,0:0|1:0,0:0:0:0:
0,152,129173,6,0,P|53:132|137:147,1,107.999996704102,4|0,1:2|1:0,0:0:0:0:
171,190,129426,1,0,1:0:0:0:
171,190,129510,2,0,P|168:252|131:313,1,107.999996704102,8|0,0:0|1:0,0:0:0:0:
202,359,129763,1,0,1:0:0:0:
202,359,129847,2,0,P|264:356|325:319,1,107.999996704102,8|0,0:0|1:0,0:0:0:0:
423,210,130184,1,8,0:0:0:0:
248,63,130353,6,0,P|202:127|228:279,1,215.999993408203,4|8,0:0|0:0,0:0:0:0:
412,316,130858,1,8,0:0:0:0:
231,179,131027,1,8,0:0:0:0:
490,103,131195,1,8,0:0:0:0:
71,34,131532,1,4,0:0:0:0:
224,372,131869,6,0,P|213:327|270:176,1,180,4|8,0:0|0:0,0:0:0:0:
331,101,132375,1,0,0:0:0:0:
338,279,132544,1,2,1:2:0:0:
146,196,132712,1,0,0:0:0:0:
272,182,132881,2,0,P|320:190|402:193,1,90,8|0,0:0|0:0,0:0:0:0:
215,86,133218,6,0,P|220:149|228:285,1,180,0|8,1:0|0:0,0:0:0:0:
87,370,133723,1,0,0:0:0:0:
87,370,133808,1,0,0:0:0:0:
87,370,133892,2,0,P|71:317|85:270,1,90,0|0,1:0|0:0,0:0:0:0:
82,153,134229,2,0,P|135:165|169:201,1,90,8|0,0:0|0:0,0:0:0:0:
302,297,134566,6,0,P|327:235|317:124,1,180,4|8,0:0|0:0,0:0:0:0:
190,39,135072,1,0,0:0:0:0:
161,187,135240,1,0,1:0:0:0:
304,109,135409,1,0,0:0:0:0:
211,288,135577,1,8,0:0:0:0:
125,163,135746,2,0,L|137:227,1,45
137,320,135914,6,0,P|88:313|29:308,1,90,4|0,0:0|1:0,0:0:0:0:
0,107,136251,2,0,P|49:100|108:95,1,90,8|0,0:0|1:0,0:0:0:0:
208,154,136589,1,0,1:0:0:0:
268,345,136757,1,8,0:0:0:0:
82,226,136926,1,8,0:0:0:0:
286,103,137094,1,0,0:0:0:0:
286,103,137178,1,0,0:0:0:0:
286,102,137263,6,0,P|293:146|295:191,1,90,4|0,0:0|0:0,0:0:0:0:
217,383,137600,2,0,P|209:338|207:293,1,90,8|0,0:0|0:0,0:0:0:0:
197,157,137937,1,0,1:0:0:0:
341,284,138105,1,0,0:0:0:0:
115,194,138274,1,8,0:0:0:0:
287,356,138442,6,0,P|197:348|107:341,1,180
379,165,138948,1,10,0:0:0:0:
236,232,139117,1,0,0:0:0:0:
377,317,139285,1,2,1:2:0:0:
263,135,139454,1,0,0:0:0:0:
417,41,139622,1,8,0:0:0:0:
449,242,139791,6,0,P|405:263|278:193,1,180,4|0,0:0|0:0,0:0:0:0:
317,17,140296,1,8,0:0:0:0:
380,170,140465,1,0,0:0:0:0:
380,170,140549,1,8,0:0:0:0:
380,170,140633,2,0,P|395:124|385:68,1,90,8|8,0:0|0:0,0:0:0:0:
160,130,140971,1,8,0:0:0:0:
291,203,141139,1,0,1:0:0:0:
291,203,141223,1,0,1:0:0:0:
291,203,141307,6,0,L|282:302,1,90,0|0,1:0|0:0,0:0:0:0:
136,370,141644,2,0,L|127:271,1,90,8|0,0:0|1:0,0:0:0:0:
53,213,141981,1,8,0:0:0:0:
53,213,142065,1,8,0:0:0:0:
53,213,142150,1,8,0:0:0:0:
228,134,142318,1,8,0:0:0:0:
264,318,142487,2,0,P|225:309|189:304,1,45
152,240,142656,6,0,P|196:231|268:224,1,90,4|0,0:0|0:0,0:0:0:0:
118,73,142993,2,0,P|103:115|73:181,1,90,8|0,0:0|0:0,0:0:0:0:
294,119,143330,2,0,P|264:85|222:26,1,90,0|0,1:0|0:0,0:0:0:0:
143,336,143667,1,8,0:0:0:0:
192,147,143836,1,0,0:0:0:0:
132,359,144004,6,0,P|113:316|123:185,1,180,0|8,1:0|0:0,0:0:0:0:
333,170,144510,2,0,P|352:213|342:344,1,180
230,265,145016,1,8,0:0:0:0:
425,153,145184,6,0,P|362:147|232:134,1,180,4|0,0:0|1:0,0:0:0:0:
149,49,145690,1,8,0:0:0:0:
70,234,145858,2,0,B|98:194|144:188|144:188|164:242|245:250,1,180,4|0,0:0|1:0,0:0:0:0:
382,242,146364,1,8,0:0:0:0:
232,151,146532,6,0,P|239:253|242:361,1,180,4|0,0:0|1:0,0:0:0:0:
382,242,147038,2,0,P|387:192|396:147,1,90,8|0,0:0|1:0,0:0:0:0:
127,68,147375,1,8,0:0:0:0:
127,68,147459,1,8,0:0:0:0:
127,68,147544,1,8,0:0:0:0:
247,306,147712,1,8,0:0:0:0:
284,110,147881,1,8,0:0:0:0:
284,110,147965,1,8,0:0:0:0:
284,110,148049,6,0,P|234:116|163:131,1,90,4|0,0:0|0:0,0:0:0:0:
68,211,148386,2,0,P|118:217|189:232,1,90,8|0,0:0|0:0,0:0:0:0:
366,291,148723,2,0,P|316:297|245:312,1,90,0|0,1:0|0:0,0:0:0:0:
149,357,149060,1,8,0:0:0:0:
306,202,149229,6,0,P|350:251|458:227,1,180,0|2,0:0|0:0,0:0:0:0:
312,35,149735,1,10,0:0:0:0:
390,164,149903,1,0,0:0:0:0:
178,226,150072,1,2,1:2:0:0:
277,123,150240,1,0,0:0:0:0:
274,330,150409,5,8,0:0:0:0:
114,139,150577,2,0,P|120:198|126:341,1,180,4|0,0:0|1:0,0:0:0:0:
70,384,150999,1,0,0:0:0:0:
70,384,151083,2,0,P|43:339|57:264,1,107.999996704102,8|0,0:0|1:0,0:0:0:0:
99,206,151336,1,0,0:0:0:0:
99,206,151420,2,0,P|150:227|240:218,1,107.999996704102,8|0,0:0|1:0,0:0:0:0:
278,202,151673,1,0,0:0:0:0:
278,202,151757,2,0,P|321:185|369:189,1,53.9999983520508,8|0,0:0|0:0,0:0:0:0:
460,212,151926,5,8,0:0:0:0:
112,51,152263,1,8,0:0:0:0:
265,381,152600,2,0,L|280:168,1,180,8|8,0:0|0:0,0:0:0:0:
118,79,153105,1,8,0:0:0:0:
118,79,153190,1,8,0:0:0:0:
118,79,153274,1,8,0:0:0:0:
118,79,153358,1,8,0:0:0:0:
118,79,153442,6,0,P|129:144|136:201,1,90,4|0,0:0|0:0,0:0:0:0:
66,281,153780,2,0,P|139:267|272:253,2,180,8|2|8,0:0|1:2|0:0,0:0:0:0:
82,121,154622,1,2,0:0:0:0:
195,50,154791,6,0,P|241:41|355:132,1,180,0|8,1:0|0:0,0:0:0:0:
280,270,155296,1,0,0:0:0:0:
280,270,155381,1,0,0:0:0:0:
280,270,155465,2,0,P|267:214|277:154,1,90,0|2,1:0|0:0,0:0:0:0:
434,94,155802,1,8,0:0:0:0:
397,263,155971,1,2,0:0:0:0:
223,112,156139,6,0,B|286:100|286:100|332:119|332:119|409:105,1,180,4|8,0:0|0:0,0:0:0:0:
280,270,156645,1,0,0:0:0:0:
280,270,156729,1,0,0:0:0:0:
280,270,156813,2,0,L|161:260,1,90,0|2,1:0|0:0,0:0:0:0:
63,174,157150,1,8,0:0:0:0:
148,367,157319,6,0,P|152:309|166:181,1,180,2|2,0:0|0:0,0:0:0:0:
288,25,157824,2,0,P|298:114|305:204,1,180,10|0,0:0|1:0,0:0:0:0:
154,98,158330,1,0,0:0:0:0:
233,230,158499,1,8,0:0:0:0:
83,266,158667,1,8,0:0:0:0:
83,266,158751,1,8,0:0:0:0:
83,266,158836,6,0,P|87:209|96:145,1,90,4|0,0:0|0:0,0:0:0:0:
321,179,159173,2,0,P|318:134|313:89,1,90,8|0,0:0|0:0,0:0:0:0:
214,273,159510,2,0,P|237:325|267:382,1,90,0|2,1:0|0:0,0:0:0:0:
463,291,159847,1,8,0:0:0:0:
290,212,160016,1,2,0:0:0:0:
512,238,160184,6,0,P|454:250|336:279,1,180,2|8,1:2|0:0,0:0:0:0:
114,253,160690,2,0,P|171:240|289:211,1,180,2|2,0:0|0:0,0:0:0:0:
404,115,161195,1,8,0:0:0:0:
246,34,161364,1,0,0:0:0:0:
246,34,161448,1,0,0:0:0:0:
246,34,161532,6,0,P|250:84|260:147,1,90,4|0,0:0|0:0,0:0:0:0:
347,294,161869,1,8,0:0:0:0:
436,212,162038,1,0,0:0:0:0:
436,212,162122,1,8,0:0:0:0:
436,212,162207,1,0,0:0:0:0:
246,151,162375,1,8,0:0:0:0:
341,338,162544,2,0,L|349:272,1,45,2|2,0:0|0:0,0:0:0:0:
246,151,162712,2,0,L|251:195,1,45,2|2,0:0|0:0,0:0:0:0:
205,315,162881,6,0,P|156:311|95:306,1,90,0|8,1:0|0:0,0:0:0:0:
34,236,163218,1,8,0:0:0:0:
251,195,163386,1,8,0:0:0:0:
91,73,163555,1,0,1:0:0:0:
159,226,163723,2,0,L|168:165,1,45,0|0,1:0|1:0,0:0:0:0:
239,87,163892,2,0,L|278:108,1,45,8|8,0:0|0:0,0:0:0:0:
375,196,164060,2,0,L|426:178,1,45,8|8,0:0|0:0,0:0:0:0:
419,51,164229,6,0,P|376:35|277:125,1,180,4|8,0:0|0:0,0:0:0:0:
291,253,164735,1,0,0:0:0:0:
291,253,164819,1,0,0:0:0:0:
291,253,164903,2,0,P|303:304|299:353,1,90,0|0,1:0|0:0,0:0:0:0:
83,319,165240,1,8,0:0:0:0:
213,202,165409,1,0,0:0:0:0:
61,167,165577,5,0,1:0:0:0:
208,293,165746,1,0,0:0:0:0:
3,235,165914,1,8,0:0:0:0:
154,69,166083,2,0,P|145:124|128:261,1,180
367,335,166589,1,8,0:0:0:0:
339,197,166757,1,0,0:0:0:0:
233,321,166926,6,0,P|276:313|347:302,1,90,4|0,0:0|0:0,0:0:0:0:
480,221,167263,2,0,P|424:214|290:195,1,180,8|0,0:0|1:0,0:0:0:0:
212,85,167768,1,0,0:0:0:0:
350,39,167937,1,8,0:0:0:0:
301,196,168105,1,0,0:0:0:0:
116,125,168274,6,0,P|127:164|141:232,1,90,0|0,1:0|0:0,0:0:0:0:
137,212,168527,1,0,0:0:0:0:
137,212,168611,1,8,0:0:0:0:
13,73,168780,1,0,0:0:0:0:
73,295,168948,2,0,P|108:270|268:250,1,180,0|8,1:0|0:0,0:0:0:0:
459,103,169454,1,8,0:0:0:0:
459,103,169538,1,8,0:0:0:0:
459,103,169622,6,0,P|408:88|340:96,1,90,12|0,0:0|0:0,0:0:0:0:
240,244,169959,2,0,P|240:199|254:156,1,90,8|0,0:0|0:0,0:0:0:0:
276,32,170296,1,0,1:0:0:0:
351,207,170465,1,2,0:0:0:0:
133,135,170633,1,10,0:0:0:0:
351,207,170802,1,2,0:0:0:0:
133,135,170971,6,0,P|181:127|235:117,1,90,0|0,1:0|0:0,0:0:0:0:
394,309,171308,2,0,P|346:301|292:291,1,90,8|0,0:0|0:0,0:0:0:0:
168,205,171645,2,0,P|176:294|182:384,1,180,0|8,1:0|0:0,0:0:0:0:
37,197,172150,1,0,0:0:0:0:
96,322,172319,5,4,0:0:0:0:
270,235,172487,1,0,0:0:0:0:
72,118,172656,1,8,0:0:0:0:
188,268,172824,1,0,0:0:0:0:
188,268,172909,1,8,0:0:0:0:
188,268,172993,1,0,0:0:0:0:
325,90,173162,1,8,0:0:0:0:
259,332,173330,1,8,0:0:0:0:
170,48,173499,1,0,1:0:0:0:
170,48,173583,1,0,1:0:0:0:
170,48,173667,6,0,L|185:148,1,90,0|8,1:0|0:0,0:0:0:0:
345,189,174004,2,0,L|360:289,1,90,8|8,0:0|0:0,0:0:0:0:
158,272,174341,1,8,0:0:0:0:
184,265,174426,1,8,0:0:0:0:
210,258,174510,1,8,0:0:0:0:
444,213,174678,1,8,0:0:0:0:
284,80,174847,1,8,0:0:0:0:
291,54,174932,1,8,0:0:0:0:
298,28,175016,1,12,0:0:0:0:
138,129,179060,5,0,0:0:0:0:
138,129,179229,1,0,0:0:0:0:
381,107,179566,1,0,0:0:0:0:
400,206,179735,1,2,0:0:0:0:
400,206,179819,1,2,0:0:0:0:
400,206,179903,2,0,L|396:242,4,22.5,8|0|8|0|0,0:0|0:0|0:0|0:0|0:0,0:0:0:0:
400,206,180409,6,0,L|341:214,1,45,4|0,0:0|0:0,0:0:0:0:
247,299,180746,2,0,L|306:291,1,45,8|0,0:0|0:0,0:0:0:0:
234,192,181083,2,0,L|175:200,1,45,0|0,1:0|0:0,0:0:0:0:
81,285,181420,2,0,L|140:277,1,45,8|0,0:0|0:0,0:0:0:0:
179,70,181757,6,0,P|189:89|194:111,1,45,0|0,1:0|0:0,0:0:0:0:
268,164,182094,2,0,P|252:180|233:191,1,45,8|0,0:0|0:0,0:0:0:0:
205,278,182431,2,0,P|184:268|167:253,1,45,0|0,1:0|0:0,0:0:0:0:
77,253,182768,1,8,0:0:0:0:
77,253,182937,1,4,0:0:0:0:
408,54,183274,5,8,0:0:0:0:
441,290,183442,1,8,0:0:0:0:
424,171,183611,1,0,0:0:0:0:
424,171,183695,1,8,0:0:0:0:
424,171,183780,1,8,0:0:0:0:
230,143,183948,1,8,0:0:0:0:
441,290,184117,1,8,0:0:0:0:
309,371,184285,1,0,1:0:0:0:
309,371,184369,1,0,1:0:0:0:
309,371,184454,6,0,P|319:322|334:262,1,90,0|8,0:0|0:0,0:0:0:0:
230,143,184791,2,0,P|240:186|249:230,1,90,8|0,0:0|0:0,0:0:0:0:
135,350,185128,1,8,0:0:0:0:
140,323,185212,1,8,0:0:0:0:
145,296,185296,1,8,0:0:0:0:
67,83,185465,1,8,0:0:0:0:
36,262,185633,2,0,L|88:236,1,45
142,177,185802,6,0,P|183:187|253:195,1,90,4|0,0:0|0:0,0:0:0:0:
283,102,186139,1,8,0:0:0:0:
311,279,186308,1,0,0:0:0:0:
311,279,186392,1,0,0:0:0:0:
311,279,186476,1,0,1:0:0:0:
334,19,186645,1,0,0:0:0:0:
230,193,186813,1,8,0:0:0:0:
147,72,186982,1,0,0:0:0:0:
206,371,187150,6,0,P|212:319|231:184,1,180,0|8,1:0|0:0,0:0:0:0:
69,35,187656,2,0,P|60:97|165:158,1,180
379,93,188162,5,8,0:0:0:0:
379,93,188330,2,0,B|348:75|348:75|318:86|318:86|267:45|196:71,1,180,4|0,0:0|1:0,0:0:0:0:
133,260,188836,1,8,0:0:0:0:
133,260,189004,2,0,B|188:268|219:225|219:225|252:270|322:248,1,180,4|0,0:0|1:0,0:0:0:0:
10,277,189510,1,8,0:0:0:0:
139,180,189678,6,0,P|162:236|138:366,1,180,4|0,0:0|1:0,0:0:0:0:
19,162,190184,1,8,0:0:0:0:
64,11,190353,1,0,1:0:0:0:
235,245,190521,1,8,0:0:0:0:
235,245,190605,1,0,0:0:0:0:
235,245,190690,1,0,0:0:0:0:
304,92,190858,1,8,0:0:0:0:
446,187,191027,1,0,0:0:0:0:
446,187,191111,1,0,0:0:0:0:
446,187,191195,6,0,P|374:197|319:207,1,90,4|0,0:0|0:0,0:0:0:0:
214,104,191532,2,0,P|286:94|341:84,1,90,8|0,0:0|0:0,0:0:0:0:
263,322,191869,2,0,P|218:314|173:309,1,90,0|0,1:0|0:0,0:0:0:0:
128,179,192207,1,8,0:0:0:0:
305,384,192375,6,0,P|314:326|335:197,1,180,0|2,0:0|0:0,0:0:0:0:
398,28,192881,1,10,0:0:0:0:
431,204,193049,1,2,0:0:0:0:
222,148,193218,1,2,0:0:0:0:
372,120,193386,1,0,0:0:0:0:
151,59,193555,1,10,0:0:0:0:
300,248,193723,6,0,P|243:240|105:226,1,180,4|0,0:0|1:0,0:0:0:0:
58,167,194145,1,0,0:0:0:0:
58,167,194229,2,0,P|101:141|168:150,1,107.999996704102,8|0,0:0|1:0,0:0:0:0:
243,141,194482,1,0,0:0:0:0:
243,141,194566,2,0,P|263:86|244:22,1,107.999996704102,8|0,0:0|1:0,0:0:0:0:
179,2,194819,1,0,0:0:0:0:
179,2,194903,2,0,P|172:32|182:82,1,53.9999983520508,8|0,0:0|0:0,0:0:0:0:
208,233,195072,5,8,0:0:0:0:
471,127,195409,1,8,0:0:0:0:
63,171,195746,2,0,L|268:151,1,180,8|0,0:0|0:0,0:0:0:0:
242,153,196167,1,0,0:0:0:0:
242,153,196251,1,8,0:0:0:0:
390,32,196420,2,0,L|377:90,1,45
409,205,196589,1,4,0:1:0:0:
256,192,196757,12,2,197937,0:0:0:0:
256,192,198105,12,4,199285,0:0:0:0:
170,186,199791,5,8,0:0:0:0:
342,198,199959,1,8,0:0:0:0:
118,79,200296,5,8,0:0:0:0:
234,331,200465,2,0,P|238:279|248:212,1,90,8|0,0:0|0:0,0:0:0:0:
367,324,200802,5,0,1:0:0:0:
267,135,200971,1,8,0:0:0:0:
146,300,201139,1,0,1:0:0:0:
411,210,201308,6,0,L|340:193,1,45,12|0,0:0|0:0,0:0:0:0:
188,121,201476,2,0,L|259:104,1,45
316,11,201645,2,0,L|309:73,1,45,8|0,0:0|0:0,0:0:0:0:
285,237,201813,1,0,0:0:0:0:
285,237,201898,1,0,0:0:0:0:
285,237,201982,1,4,0:0:0:0:
