osu file format v14

[General]
AudioFilename: audio12.mp3
AudioLeadIn: 0
PreviewTime: 131701
Countdown: 0
SampleSet: Soft
StackLeniency: 0.7
Mode: 0
LetterboxInBreaks: 0
WidescreenStoryboard: 1

[Editor]
DistanceSpacing: 1
BeatDivisor: 4
GridSize: 32
TimelineZoom: 1

[Metadata]
Title:365 Shoku Palette
TitleUnicode:365色パレット
Artist:Izumi Hashima(CV.Chinatsu Akasaki)
ArtistUnicode:波島出海(CV.赤崎千夏)
Creator:Rizia
Version:Normal
Source:冴えない彼女の育てかた♭
Tags:Saenai Heroine no Sodatekata Saekano anime Character Song kawaiwkyik
BeatmapID:1311290
BeatmapSetID:620574

[Difficulty]
HPDrainRate:3
CircleSize:3.5
OverallDifficulty:3
ApproachRate:5
SliderMultiplier:1.2
SliderTickRate:1

[Events]
//Background and Video events
0,0,"687474703a2f2f7075752e73682f77446c76322f303462303237653464632e706e67.png",0,0
//Break Periods
2,86027,95325
2,175216,179149
//Storyboard Layer 0 (Background)
//Storyboard Layer 1 (Fail)
//Storyboard Layer 2 (Pass)
//Storyboard Layer 3 (Foreground)
//Storyboard Sound Samples

[TimingPoints]
7825,337.078651685393,4,2,1,60,1,0
32094,-125,4,2,3,60,0,0
32178,-125,4,2,1,60,0,0
37487,-125,4,2,3,60,0,0
37572,-125,4,2,1,60,0,0
41364,-100,4,2,1,60,0,0
53667,-100,4,2,1,60,0,0
59060,-100,4,2,1,60,0,0
61757,-100,4,2,1,60,0,0
64117,-100,4,2,2,60,0,0
64454,-100,4,2,1,60,0,1
83583,-100,4,2,1,60,0,1
85184,-100,4,2,1,60,0,1
86027,-100,4,2,1,60,0,0
99510,-125,4,2,1,60,0,0
102207,-125,4,2,3,60,0,0
102291,-125,4,2,1,60,0,0
104903,-125,4,2,3,60,0,0
104987,-125,4,2,1,60,0,0
108780,-100,4,2,1,60,0,0
121589,-100,4,2,1,60,0,0
126476,-100,4,2,1,60,0,0
129173,-100,4,2,1,60,0,0
131532,-100,4,2,2,60,0,0
131869,-100,4,2,1,60,0,1
150999,-100,4,2,1,60,0,1
152600,-100,4,2,1,60,0,1
153442,-100,4,2,1,60,0,0
179060,-100,4,2,1,60,0,0
183274,-100,4,2,1,60,0,0
185802,-100,4,2,1,60,0,1
194145,-100,4,2,1,60,0,1
195746,-100,4,2,1,60,0,1
196589,-100,4,2,1,60,0,0

[Colours]
Combo1 : 156,190,245
Combo2 : 211,148,233
Combo3 : 247,234,247
Combo4 : 248,124,142
Combo5 : 255,234,149

[HitObjects]
57,105,7824,6,0,L|186:92,1,120,0|0,0:0|0:0,0:0:0:0:
276,160,8499,2,0,L|405:147,1,120,2|0,0:0|0:0,0:0:0:0:
483,228,9173,2,0,P|493:274|458:349,1,120,2|0,0:3|0:0,0:0:0:0:
414,368,9678,1,2,0:0:0:0:
300,326,10016,1,0,0:0:0:0:
187,367,10353,6,0,B|117:374|117:374|78:332|109:261,1,180,2|0,0:0|0:0,0:0:0:0:
189,186,11195,2,0,P|203:145|195:60,1,120,2|0,0:0|0:0,0:0:0:0:
83,34,11869,2,0,P|69:75|77:160,1,120,2|0,0:0|0:0,0:0:0:0:
112,196,12375,1,2,0:0:0:0:
362,361,13218,6,0,P|382:323|389:237,1,120,4|8,0:0|0:0,0:0:0:0:
468,155,13892,2,0,L|334:141,1,120,0|8,1:0|0:0,0:0:0:0:
292,162,14398,2,0,P|247:172|173:68,1,180,0|10,1:0|0:0,0:0:0:0:
60,33,15240,1,2,1:2:0:0:
8,141,15577,1,8,0:0:0:0:
8,141,15746,2,0,B|40:202|40:202|14:317,1,180,4|12,0:0|0:0,0:0:0:0:
117,373,16589,2,0,L|245:363,1,120,12|8,0:0|0:0,0:0:0:0:
296,369,17094,5,8,0:0:0:0:
315,250,17431,1,8,0:0:0:0:
335,131,17768,1,10,0:0:0:0:
354,12,18105,2,0,L|284:36,1,60,0|8,1:0|0:0,0:0:0:0:
184,72,18611,6,0,P|138:75|59:47,1,120,4|8,1:2|0:0,0:0:0:0:
78,172,19285,2,0,P|81:218|53:297,1,120,0|8,1:0|0:0,0:0:0:0:
31,341,19791,2,0,B|70:338|99:354|99:354|134:337|134:337|172:352|216:353,1,180,0|8,0:0|0:0,0:0:0:0:
282,262,20633,2,0,L|289:194,2,60,0|8|8,1:0|0:0|0:0,0:0:0:0:
366,348,21308,6,0,P|406:355|485:334,1,120,4|8,0:0|0:0,0:0:0:0:
481,215,21982,2,0,P|441:208|362:229,1,120,0|8,1:0|0:0,0:0:0:0:
310,251,22487,2,0,L|337:55,1,180,0|8,0:0|0:0,0:0:0:0:
215,58,23330,2,0,P|206:18|208:-12,2,60,0|8|8,1:0|0:0|0:0,0:0:0:0:
132,145,24004,6,0,P|89:138|7:172,1,120,4|8,0:0|0:0,0:0:0:0:
5,282,24678,2,0,P|33:312|110:330,1,120,0|8,1:0|0:0,0:0:0:0:
167,330,25184,2,0,L|286:320,1,120,0|0,0:0|0:0,0:0:0:0:
346,314,25690,1,8,0:0:0:0:
451,257,26027,2,0,P|479:258|516:265,2,60,0|8|8,1:0|0:0|0:0,0:0:0:0:
399,226,26532,6,0,P|412:161|423:34,1,180,0|8,0:0|0:0,0:0:0:0:
310,3,27375,1,4,0:0:0:0:
204,60,27712,1,8,0:0:0:0:
204,60,27881,2,0,P|160:77|50:12,1,180,0|8,1:0|0:0,0:0:0:0:
10,129,28723,2,0,P|23:162|27:210,1,60,8|8,0:0|0:0,0:0:0:0:
32,246,29060,2,0,P|26:281|6:324,1,60,8|4,0:0|0:0,0:0:0:0:
256,192,29566,12,12,31420,0:0:0:0:
33,348,32094,6,0,L|143:337,1,96,6|0,0:2|1:0,0:0:0:0:
205,280,32768,2,0,B|253:268|253:268|313:296,1,96,0|0,1:0|1:0,0:0:0:0:
374,342,33442,2,0,P|413:349|484:320,1,96,0|0,0:0|1:0,0:0:0:0:
469,237,34117,2,0,L|483:129,1,96,0|0,1:0|1:0,0:0:0:0:
420,67,34791,6,0,P|460:48|518:52,2,96,0|0|0,0:0|1:0|1:0,0:0:0:0:
349,131,35802,1,0,1:0:0:0:
269,76,36139,2,0,L|168:65,1,96,0|0,0:0|1:0,0:0:0:0:
78,53,36813,2,0,L|67:154,1,96,0|0,1:0|1:0,0:0:0:0:
147,201,37487,6,0,L|136:302,2,96,2|0|0,0:0|1:0|1:0,0:0:0:0:
227,148,38499,1,0,1:0:0:0:
315,184,38836,2,0,P|356:192|419:166,2,96,0|0|0,0:0|1:0|1:0,0:0:0:0:
245,250,39847,1,0,1:0:0:0:
259,344,40184,1,4,0:0:0:0:
29,86,41364,5,4,0:0:0:0:
141,45,41701,1,4,0:0:0:0:
115,162,42038,1,0,1:0:0:0:
231,189,42375,1,0,0:0:0:0:
231,189,42544,1,8,0:0:0:0:
322,111,42881,6,0,P|360:95|439:96,1,120,4|8,0:0|0:0,0:0:0:0:
505,194,43555,2,0,P|499:234|459:302,1,120,0|8,1:0|0:0,0:0:0:0:
448,360,44060,2,0,P|397:328|267:339,1,180,0|8,0:0|0:0,0:0:0:0:
164,364,44903,2,0,L|88:353,1,60,0|0,1:0|1:0,0:0:0:0:
45,366,45240,1,8,0:0:0:0:
45,366,45409,6,0,B|8:284|8:284|36:186,1,180,0|8,0:0|0:0,0:0:0:0:
25,77,46251,2,0,L|161:93,1,120,0|8,1:0|0:0,0:0:0:0:
196,120,46757,2,0,P|235:127|311:99,1,120,0|0,1:0|1:0,0:0:0:0:
344,52,47263,1,8,0:0:0:0:
463,63,47600,2,0,L|478:-8,2,60,0|0|8,1:0|1:0|0:0,0:0:0:0:
393,160,48274,6,0,L|413:354,1,180,0|0,0:0|1:0,0:0:0:0:
291,325,49117,1,0,1:0:0:0:
172,309,49454,2,0,L|153:129,1,180,0|8,1:0|0:0,0:0:0:0:
229,37,50296,1,8,0:0:0:0:
348,24,50633,1,8,0:0:0:0:
445,94,50971,6,0,L|516:109,2,60,0|0|8,1:0|0:0|0:0,0:0:0:0:
407,208,51645,2,0,L|414:280,2,60,0|0|8,1:0|0:0|0:0,0:0:0:0:
358,172,52150,2,0,P|318:174|275:292,1,180,4|8,1:2|0:0,0:0:0:0:
194,379,52993,2,0,L|47:373,1,120,8|8,0:0|0:0,0:0:0:0:
1,278,53667,5,4,0:0:0:0:
111,65,54341,1,0,1:0:0:0:
344,119,55016,2,0,P|404:138|453:2,2,240,0|0|4,1:0|1:0|0:0,0:0:0:0:
136,239,57038,6,0,L|128:364,1,120,0|8,1:0|0:0,0:0:0:0:
238,311,57712,2,0,P|279:286|367:305,1,120,0|0,0:0|0:0,0:0:0:0:
395,330,58218,1,0,1:0:0:0:
454,160,58723,1,8,0:0:0:0:
438,41,59060,6,0,L|315:57,1,120,4|8,0:0|0:0,0:0:0:0:
263,163,59735,2,0,L|144:147,1,120,8|8,0:0|0:0,0:0:0:0:
100,106,60240,2,0,P|54:151|74:283,1,180,4|8,0:0|0:0,0:0:0:0:
124,359,61083,2,0,L|201:345,1,60,8|8,0:0|0:0,0:0:0:0:
242,336,61420,1,8,0:0:0:0:
359,359,61757,5,4,0:0:0:0:
458,292,62094,1,8,0:0:0:0:
485,175,62431,1,8,0:0:0:0:
415,77,62768,1,8,0:0:0:0:
415,77,62937,2,0,P|358:94|241:57,1,180,8|8,0:0|0:0,0:0:0:0:
131,22,63780,2,0,L|1:34,1,120,8|4,0:0|0:0,0:0:0:0:
2,152,64454,6,0,L|121:140,1,120,4|8,0:0|0:0,0:0:0:0:
227,196,65128,2,0,P|248:243|231:321,1,120,2|8,1:2|0:0,0:0:0:0:
133,367,65802,2,0,P|112:320|129:242,1,120,0|8,1:0|0:0,0:0:0:0:
153,202,66308,2,0,P|163:162|141:69,1,120,0|0,0:0|1:0,0:0:0:0:
128,29,66813,1,8,2:0:0:0:
8,24,67150,5,4,0:0:0:0:
24,143,67487,1,8,0:0:0:0:
142,163,67824,2,0,P|195:167|263:134,1,120,0|8,1:0|0:0,0:0:0:0:
347,63,68499,2,0,L|359:2,2,60,4|0|8,0:0|1:0|0:0,0:0:0:0:
457,109,69173,2,0,L|469:48,2,60,0|8|8,0:0|0:0|0:0,0:0:0:0:
438,227,69847,6,0,L|451:356,1,120,4|8,0:0|0:0,0:0:0:0:
334,378,70521,2,0,L|321:258,1,120,0|8,1:0|0:0,0:0:0:0:
239,170,71195,1,0,0:0:0:0:
120,150,71532,1,10,0:0:0:0:
163,261,71869,1,2,1:2:0:0:
44,241,72206,5,8,0:0:0:0:
44,241,72375,2,0,L|29:47,1,180,4|8,0:0|0:0,0:0:0:0:
136,5,73218,2,0,P|164:42|161:119,1,120,8|8,0:0|0:0,0:0:0:0:
237,207,73892,2,0,L|218:279,2,60,0|8|8,1:0|0:0|0:0,0:0:0:0:
346,158,74566,2,0,L|473:146,1,120,8|8,0:0|0:0,0:0:0:0:
511,257,75240,6,0,L|391:268,1,120,4|8,0:0|0:0,0:0:0:0:
304,350,75914,2,0,P|248:334|175:340,1,120,0|8,1:0|0:0,0:0:0:0:
69,364,76589,2,0,P|52:306|55:246,1,120,0|8,1:0|0:0,0:0:0:0:
23,196,77094,2,0,P|66:170|147:160,1,120,0|0,0:0|0:0,0:0:0:0:
253,149,77768,6,0,L|276:14,1,120,4|0,0:0|1:0,0:0:0:0:
330,13,78274,1,8,0:0:0:0:
330,13,78442,2,0,B|389:8|389:8|448:53,1,120,4|0,0:0|1:0,0:0:0:0:
483,83,78948,1,8,0:0:0:0:
483,83,79117,2,0,L|492:202,1,120,4|0,0:0|0:0,0:0:0:0:
469,257,79622,2,0,L|457:322,1,60,8|0,0:0|1:0,0:0:0:0:
470,374,79959,2,0,P|408:349|330:360,1,120,8|8,0:0|0:0,0:0:0:0:
238,325,80633,6,0,P|183:348|123:347,1,120,4|8,0:0|0:0,0:0:0:0:
25,278,81308,2,0,P|1:223|2:163,1,120,0|8,1:0|0:0,0:0:0:0:
24,108,81813,2,0,P|69:130|188:54,1,180,0|10,0:0|0:0,0:0:0:0:
277,10,82656,1,2,0:0:0:0:
379,72,82993,5,8,0:0:0:0:
379,72,83162,2,0,B|402:131|402:131|384:186|384:186|412:266,1,180,4|8,0:0|0:0,0:0:0:0:
320,328,84004,2,0,P|291:295|287:204,1,120,8|8,0:0|0:0,0:0:0:0:
309,168,84510,2,0,L|174:157,2,120,8|8|8,0:0|0:0|0:0,0:0:0:0:
256,192,96645,12,0,98836,0:0:0:0:
478,337,99510,6,0,L|368:348,1,96,4|0,0:0|1:0,0:0:0:0:
291,316,100184,2,0,B|279:268|279:268|307:208,1,96,0|0,1:0|1:0,0:0:0:0:
372,164,100858,2,0,L|467:154,1,96,0|0,0:0|1:0,0:0:0:0:
484,59,101532,2,0,P|446:41|387:43,1,96,0|0,1:0|1:0,0:0:0:0:
312,94,102207,6,0,L|298:-12,2,96,2|0|0,0:0|1:0|1:0,0:0:0:0:
257,172,103218,1,0,1:0:0:0:
174,122,103555,2,0,P|138:108|67:111,1,96,0|0,1:0|1:0,0:0:0:0:
65,202,104229,2,0,P|101:216|172:213,1,96,0|0,1:0|1:0,0:0:0:0:
237,270,104903,6,0,L|221:384,2,96,2|0|0,0:0|1:0|1:0,0:0:0:0:
314,213,105915,1,0,1:0:0:0:
376,285,106251,2,0,P|411:299|484:289,2,96,0|0|0,0:0|1:0|1:0,0:0:0:0:
314,213,107263,1,0,1:0:0:0:
311,117,107600,1,4,0:0:0:0:
67,349,108780,5,8,0:0:0:0:
126,244,109117,1,0,1:0:0:0:
245,257,109454,1,0,1:0:0:0:
282,371,109791,1,0,0:0:0:0:
282,371,109959,1,8,0:0:0:0:
398,342,110296,6,0,P|428:300|420:215,1,120,4|8,0:0|0:0,0:0:0:0:
440,113,110971,2,0,P|398:143|313:135,1,120,0|8,1:0|0:0,0:0:0:0:
283,107,111476,2,0,P|251:71|121:62,1,180,0|8,1:0|0:0,0:0:0:0:
31,133,112319,2,0,L|44:206,1,60,0|0,1:0|1:0,0:0:0:0:
53,251,112656,1,8,0:0:0:0:
53,251,112824,6,0,B|171:236|171:236|221:295,1,180,0|8,0:0|0:0,0:0:0:0:
307,353,113667,2,0,P|349:360|431:323,1,120,0|8,1:0|0:0,0:0:0:0:
445,279,114173,2,0,L|453:147,1,120,0|0,1:0|1:0,0:0:0:0:
457,99,114679,1,8,0:0:0:0:
341,67,115016,2,0,L|331:0,2,60,0|0|8,1:0|1:0|0:0,0:0:0:0:
223,42,115690,6,0,P|182:23|45:84,1,180,0|0,1:0|1:0,0:0:0:0:
151,140,116533,1,0,1:0:0:0:
81,237,116869,2,0,P|122:256|259:195,1,180,0|8,1:0|0:0,0:0:0:0:
360,164,117712,1,8,0:0:0:0:
344,283,118049,1,8,0:0:0:0:
453,233,118386,6,0,P|492:225|529:229,2,60,0|0|8,1:0|0:0|0:0,0:0:0:0:
427,115,119060,2,0,P|456:88|490:73,2,60,0|0|8,1:0|0:0|0:0,0:0:0:0:
390,162,119566,2,0,P|349:174|306:57,1,180,4|8,0:0|0:0,0:0:0:0:
184,21,120409,2,0,L|62:50,1,120,8|8,0:0|0:0,0:0:0:0:
17,158,121083,5,4,0:0:0:0:
177,336,121757,1,0,1:0:0:0:
366,188,122431,2,0,B|404:137|386:60|386:60|330:40|279:73,2,240,0|0|4,1:0|1:0|0:0,0:0:0:0:
510,379,124454,6,0,L|497:238,1,120,0|8,1:0|0:0,0:0:0:0:
465,144,125128,2,0,P|428:168|342:167,1,120,0|0,0:0|0:0,0:0:0:0:
299,144,125634,1,0,1:0:0:0:
145,50,126139,1,8,0:0:0:0:
55,130,126476,6,0,L|37:262,1,120,4|8,0:0|0:0,0:0:0:0:
158,242,127150,2,0,L|290:260,1,120,8|8,0:0|0:0,0:0:0:0:
311,307,127656,2,0,P|360:321|443:232,1,180,4|8,0:0|0:0,0:0:0:0:
387,132,128499,2,0,L|400:50,1,60,0|8,1:0|0:0,0:0:0:0:
404,13,128836,1,8,0:0:0:0:
288,46,129173,5,4,0:0:0:0:
169,27,129510,1,8,0:0:0:0:
156,146,129847,1,8,0:0:0:0:
275,165,130184,1,8,0:0:0:0:
275,165,130353,2,0,P|292:215|241:344,1,180,4|8,0:0|0:0,0:0:0:0:
138,361,131195,2,0,L|11:348,1,120,8|4,0:0|0:0,0:0:0:0:
46,232,131869,6,0,L|165:244,1,120,4|8,0:0|0:0,0:0:0:0:
253,162,132544,2,0,P|226:136|146:125,1,120,2|8,1:2|0:0,0:0:0:0:
56,45,133218,2,0,P|100:13|184:12,1,120,0|8,1:0|0:0,0:0:0:0:
217,33,133723,2,0,L|356:25,1,120,0|0,0:0|0:0,0:0:0:0:
396,21,134229,1,8,0:0:0:0:
481,108,134566,5,4,0:0:0:0:
454,225,134903,1,8,0:0:0:0:
365,144,135240,2,0,B|316:158|316:158|233:147,1,120,0|8,1:0|0:0,0:0:0:0:
143,89,135914,2,0,L|126:22,2,60,4|0|8,0:0|1:0|0:0,0:0:0:0:
86,195,136589,2,0,L|19:212,2,60,0|8|8,1:0|0:0|0:0,0:0:0:0:
185,261,137263,6,0,P|192:314|161:380,1,120,4|8,0:0|0:0,0:0:0:0:
285,357,137937,2,0,L|426:333,1,120,0|8,1:0|0:0,0:0:0:0:
480,245,138611,1,0,0:0:0:0:
399,155,138948,1,10,0:0:0:0:
464,54,139285,1,2,1:2:0:0:
346,29,139622,1,8,0:0:0:0:
346,29,139791,6,0,P|285:42|145:50,1,180,4|8,0:0|0:0,0:0:0:0:
48,43,140633,2,0,L|72:184,1,120,8|8,0:0|0:0,0:0:0:0:
119,269,141308,2,0,L|109:342,2,60,0|8|8,1:0|0:0|0:0,0:0:0:0:
231,228,141982,2,0,L|371:213,1,120,8|0,0:0|0:0,0:0:0:0:
460,262,142656,6,0,P|446:323|439:381,1,120,4|8,0:0|0:0,0:0:0:0:
319,381,143330,2,0,P|273:338|226:303,1,120,0|8,1:0|0:0,0:0:0:0:
295,205,144004,2,0,P|354:186|408:163,1,120,0|8,1:0|0:0,0:0:0:0:
442,114,144510,2,0,P|418:87|322:66,1,120
234,9,145184,6,0,P|198:16|132:88,1,120,4|0,0:0|1:0,0:0:0:0:
135,132,145690,1,8,0:0:0:0:
135,132,145858,2,0,P|147:170|142:260,1,120,4|0,0:0|1:0,0:0:0:0:
111,299,146364,1,8,0:0:0:0:
111,299,146532,2,0,L|254:328,1,120,4|0,0:0|1:0,0:0:0:0:
272,363,147038,2,0,L|349:352,1,60,8|0,0:0|1:0,0:0:0:0:
389,370,147375,2,0,B|415:316|415:316|396:249,1,120,8|8,0:0|0:0,0:0:0:0:
296,194,148049,6,0,P|262:236|177:257,1,120,4|8,0:0|0:0,0:0:0:0:
189,139,148723,2,0,P|169:88|193:5,1,120,0|8,1:0|0:0,0:0:0:0:
238,11,149229,2,0,P|285:76|261:172,1,180,0|10,0:0|0:0,0:0:0:0:
168,241,150072,1,2,1:2:0:0:
66,177,150409,1,8,0:0:0:0:
66,177,150577,6,0,B|48:110|48:110|90:68|157:85,1,180,4|8,0:0|0:0,0:0:0:0:
253,145,151420,2,0,P|299:152|375:107,1,120,8|8,0:0|0:0,0:0:0:0:
394,69,151926,2,0,L|382:202,2,120,8|8|8,0:0|0:0|0:0,0:0:0:0:
156,252,153442,6,0,L|24:270,1,120,4|8,0:0|0:0,0:0:0:0:
8,151,154117,2,0,P|3:103|54:34,1,120,2|8,1:2|0:0,0:0:0:0:
94,22,154622,2,0,L|226:40,1,120,2|0,0:0|0:0,0:0:0:0:
272,48,155128,1,8,0:0:0:0:
430,133,155633,2,0,L|500:123,1,60,2|8,0:0|0:0,0:0:0:0:
479,244,156139,6,0,P|486:281|460:358,1,120,4|8,0:0|0:0,0:0:0:0:
342,380,156813,2,0,L|272:370,1,60,0|2,1:0|0:0,0:0:0:0:
169,329,157319,2,0,P|117:320|49:353,1,120,2|2,0:0|0:0,0:0:0:0:
7,379,157824,2,0,L|23:233,1,120,10|0,0:0|1:0,0:0:0:0:
27,139,158499,2,0,L|74:182,1,60,8|8,0:0|0:0,0:0:0:0:
129,166,158836,6,0,B|189:179|189:179|255:154,1,120,4|8,0:0|0:0,0:0:0:0:
222,39,159510,2,0,B|276:18|276:18|336:31,1,120,0|8,1:0|0:0,0:0:0:0:
448,73,160184,1,2,1:2:0:0:
483,187,160521,1,8,0:0:0:0:
483,187,160690,1,2,0:0:0:0:
418,288,161027,2,0,L|406:358,1,60,2|8,0:0|0:0,0:0:0:0:
293,311,161532,2,0,L|158:322,1,120,4|8,0:0|0:0,0:0:0:0:
138,271,162038,1,0,0:0:0:0:
138,271,162207,2,0,L|195:148,1,120,0|2,0:0|0:0,0:0:0:0:
266,70,162881,6,0,L|252:0,2,60,0|8|8,1:0|0:0|0:0,0:0:0:0:
385,80,163555,1,0,1:0:0:0:
385,80,163723,2,0,P|401:122|393:206,1,120,0|8,1:0|0:0,0:0:0:0:
367,248,164229,6,0,P|360:307|378:363,2,120,4|8|0,0:0|0:0|1:0,0:0:0:0:
296,151,165240,1,8,0:0:0:0:
203,227,165577,2,0,L|83:218,1,120,0|8,1:0|0:0,0:0:0:0:
28,193,166083,2,0,P|7:239|19:326,1,120,0|0,0:0|0:0,0:0:0:0:
43,357,166589,1,8,0:0:0:0:
162,360,166926,6,0,P|197:323|215:238,1,120,4|8,0:0|0:0,0:0:0:0:
215,138,167600,2,0,P|230:80|270:36,1,120,0|8,1:0|0:0,0:0:0:0:
389,46,168274,2,0,L|465:60,1,60,0|0,1:0|0:0,0:0:0:0:
482,106,168611,2,0,L|496:182,1,60,8|0,0:0|0:0,0:0:0:0:
461,216,168948,2,0,L|442:361,1,120,0|8,1:0|0:0,0:0:0:0:
329,367,169622,5,12,0:0:0:0:
223,309,169959,1,8,0:0:0:0:
109,349,170296,2,0,L|28:365,1,60,0|2,1:0|0:0,0:0:0:0:
10,315,170633,2,0,L|26:234,1,60,10|2,0:0|0:0,0:0:0:0:
54,205,170971,2,0,P|36:155|52:83,1,120,0|8,1:0|0:0,0:0:0:0:
149,27,171645,2,0,P|167:77|151:149,1,120,0|8,1:0|0:0,0:0:0:0:
180,195,172150,1,0,0:0:0:0:
180,195,172319,6,0,L|310:180,1,120,4|8,0:0|0:0,0:0:0:0:
320,63,172993,2,0,L|450:48,1,120,0|8,0:0|0:0,0:0:0:0:
496,154,173667,2,0,L|483:231,1,60,0|8,1:0|0:0,0:0:0:0:
486,273,174004,2,0,L|354:290,1,120,8|8,0:0|0:0,0:0:0:0:
314,317,174510,2,0,L|301:394,1,60,8|8,0:0|0:0,0:0:0:0:
196,321,175016,1,12,0:0:0:0:
256,192,180409,12,4,182937,0:0:0:0:
193,168,184454,6,0,P|174:122|202:50,1,120,0|8,0:0|0:0,0:0:0:0:
317,57,185128,2,0,P|338:112|319:168,1,120,8|8,0:0|0:0,0:0:0:0:
259,272,185802,6,0,L|131:283,1,120,4|8,0:0|0:0,0:0:0:0:
73,178,186476,2,0,L|192:167,1,120,0|8,1:0|0:0,0:0:0:0:
272,78,187150,1,0,1:0:0:0:
383,121,187487,1,8,0:0:0:0:
383,121,187656,2,0,B|404:158|404:158|395:242,1,120,0|0,0:0|0:0,0:0:0:0:
320,328,188330,6,0,P|276:349|195:343,1,120,4|0,0:0|1:0,0:0:0:0:
149,325,188836,1,8,0:0:0:0:
149,325,189004,2,0,P|108:297|73:224,1,120,4|0,0:0|1:0,0:0:0:0:
74,175,189510,1,8,0:0:0:0:
74,175,189678,2,0,P|75:113|102:34,1,120,4|0,0:0|1:0,0:0:0:0:
134,16,190184,2,0,P|169:19|201:29,1,60,8|0,0:0|1:0,0:0:0:0:
246,53,190521,2,0,B|285:74|285:74|370:63,1,120,8|8,0:0|0:0,0:0:0:0:
466,120,191195,5,4,0:0:0:0:
416,229,191532,1,8,0:0:0:0:
412,348,191869,2,0,L|285:359,1,120,0|8,1:0|0:0,0:0:0:0:
236,337,192375,2,0,P|200:311|46:324,1,180,0|10,0:0|0:0,0:0:0:0:
2,209,193218,1,2,0:0:0:0:
71,111,193555,5,10,0:0:0:0:
71,111,193723,2,0,P|136:105|161:200,1,180,4|8,0:0|0:0,0:0:0:0:
253,277,194566,2,0,P|280:231|271:154,1,120,8|8,0:0|0:0,0:0:0:0:
246,113,195072,2,0,L|377:93,2,120,8|8|8,0:0|0:0|0:0,0:0:0:0:
46,337,196589,1,4,0:1:0:0:
256,192,196757,12,2,199285,0:0:0:0:
256,192,200465,6,0,L|256:72,2,120,8|0|0,0:0|1:0|1:0,0:0:0:0:
212,232,201308,2,0,L|188:296,1,60,12|0,0:0|0:0,0:0:0:0:
226,336,201645,2,0,L|286:336,1,60,8|0,0:0|0:0,0:0:0:0:
321,288,201982,1,4,0:0:0:0:
