osu file format v14

[General]
AudioFilename: audio.mp3
AudioLeadIn: 0
PreviewTime: 46678
Countdown: 0
SampleSet: Soft
StackLeniency: 0.7
Mode: 3
LetterboxInBreaks: 0
SpecialStyle: 0
WidescreenStoryboard: 0

[Editor]
DistanceSpacing: 2.6
BeatDivisor: 4
GridSize: 4
TimelineZoom: 1.5

[Metadata]
Title:Responsibility Response
TitleUnicode:Responsibility Response
Artist:Izumi Akazawa (CV. Madoka Yonezawa)
ArtistUnicode:赤沢泉美(CV.米澤 円)
Creator:Wonki
Version:Insane
Source:Another
Tags:R_e_m_u_r_i_n_g
BeatmapID:1196279
BeatmapSetID:565606

[Difficulty]
HPDrainRate:8
CircleSize:4
OverallDifficulty:8
ApproachRate:5
SliderMultiplier:1.4
SliderTickRate:1

[Events]
//Background and Video events
0,0,"shmiklakgey.jpg",0,0
//Break Periods
//Storyboard Layer 0 (Background)
//Storyboard Layer 1 (Fail)
//Storyboard Layer 2 (Pass)
//Storyboard Layer 3 (Foreground)
//Storyboard Sound Samples

[TimingPoints]
193,297.029702970297,4,2,1,50,1,0
47717,-100,4,2,1,50,0,1
68509,-100,4,2,1,50,0,0

[HitObjects]
320,192,193,128,0,638:0:0:0:0:
64,192,193,1,0,0:0:0:0:
192,192,341,1,0,0:0:0:0:
448,192,490,1,0,0:0:0:0:
192,192,638,128,0,1232:0:0:0:0:
64,192,638,1,0,0:0:0:0:
320,192,787,1,0,0:0:0:0:
448,192,935,1,0,0:0:0:0:
64,192,1084,1,0,0:0:0:0:
448,192,1232,128,0,1826:0:0:0:0:
320,192,1232,1,0,0:0:0:0:
192,192,1381,1,0,0:0:0:0:
64,192,1529,1,0,0:0:0:0:
320,192,1678,1,0,0:0:0:0:
64,192,1826,128,0,2569:0:0:0:0:
192,192,1826,1,0,0:0:0:0:
448,192,1975,1,0,0:0:0:0:
320,192,2123,1,0,0:0:0:0:
448,192,2272,1,0,0:0:0:0:
192,192,2420,1,0,0:0:0:0:
320,192,2569,1,0,0:0:0:0:
448,192,2569,128,0,3014:0:0:0:0:
192,192,2717,1,0,0:0:0:0:
64,192,2866,1,0,0:0:0:0:
320,192,3014,1,0,0:0:0:0:
192,192,3014,128,0,3608:0:0:0:0:
448,192,3163,1,0,0:0:0:0:
64,192,3311,1,0,0:0:0:0:
448,192,3460,1,0,0:0:0:0:
64,192,3608,128,0,4202:0:0:0:0:
320,192,3608,1,0,0:0:0:0:
448,192,3757,1,0,0:0:0:0:
192,192,3905,1,0,0:0:0:0:
320,192,4054,1,0,0:0:0:0:
448,192,4054,1,0,0:0:0:0:
320,192,4202,1,0,0:0:0:0:
448,192,4202,1,0,0:0:0:0:
64,192,4351,1,0,0:0:0:0:
192,192,4351,1,0,0:0:0:0:
448,192,4351,128,0,4796:0:0:0:0:
320,192,4499,1,0,0:0:0:0:
64,192,4648,1,0,0:0:0:0:
192,192,4796,1,0,0:0:0:0:
64,192,4945,1,0,0:0:0:0:
320,192,4945,1,0,0:0:0:0:
448,192,4945,1,0,0:0:0:0:
192,192,5093,1,0,0:0:0:0:
320,192,5242,1,0,0:0:0:0:
448,192,5242,1,0,0:0:0:0:
192,192,5391,1,0,0:0:0:0:
64,192,5391,1,0,0:0:0:0:
448,192,5391,1,0,0:0:0:0:
320,192,5539,1,0,0:0:0:0:
64,192,5688,1,0,0:0:0:0:
64,192,5836,1,0,0:0:0:0:
448,192,5836,1,0,0:0:0:0:
192,192,5836,1,0,0:0:0:0:
320,192,5985,1,0,0:0:0:0:
64,192,6133,1,0,0:0:0:0:
320,192,6133,1,0,0:0:0:0:
448,192,6133,1,0,0:0:0:0:
192,192,6282,1,0,0:0:0:0:
320,192,6430,1,0,0:0:0:0:
448,192,6430,1,0,0:0:0:0:
448,192,6579,1,0,0:0:0:0:
192,192,6579,1,0,0:0:0:0:
64,192,6579,1,0,0:0:0:0:
320,192,6727,1,0,0:0:0:0:
192,192,6876,1,0,0:0:0:0:
64,192,7024,1,0,0:0:0:0:
448,192,7024,1,0,0:0:0:0:
192,192,7173,1,0,0:0:0:0:
320,192,7321,1,0,0:0:0:0:
448,192,7321,1,0,0:0:0:0:
64,192,7321,1,0,0:0:0:0:
192,192,7470,1,0,0:0:0:0:
448,192,7618,1,0,0:0:0:0:
320,192,7767,1,0,0:0:0:0:
192,192,7767,1,0,0:0:0:0:
64,192,7767,1,0,0:0:0:0:
448,192,7915,1,0,0:0:0:0:
192,192,8064,1,0,0:0:0:0:
64,192,8212,1,0,0:0:0:0:
448,192,8212,1,0,0:0:0:0:
320,192,8212,1,0,0:0:0:0:
320,192,8361,1,0,0:0:0:0:
192,192,8509,1,0,0:0:0:0:
64,192,8509,1,0,0:0:0:0:
448,192,8509,1,0,0:0:0:0:
320,192,8658,1,0,0:0:0:0:
64,192,8658,1,0,0:0:0:0:
192,192,8732,1,0,0:0:0:0:
448,192,8732,1,0,0:0:0:0:
320,192,8806,1,0,0:0:0:0:
64,192,8806,1,0,0:0:0:0:
192,192,8955,1,0,0:0:0:0:
64,192,8955,1,0,0:0:0:0:
448,192,8955,1,0,0:0:0:0:
320,192,9103,1,0,0:0:0:0:
192,192,9103,1,0,0:0:0:0:
448,192,9252,1,0,0:0:0:0:
64,192,9400,1,0,0:0:0:0:
192,192,9400,1,0,0:0:0:0:
320,192,9549,1,0,0:0:0:0:
448,192,9549,1,0,0:0:0:0:
64,192,9697,1,0,0:0:0:0:
192,192,9697,1,0,0:0:0:0:
448,192,9697,1,0,0:0:0:0:
320,192,9846,1,0,0:0:0:0:
192,192,9994,1,0,0:0:0:0:
64,192,10143,1,0,0:0:0:0:
448,192,10143,1,0,0:0:0:0:
320,192,10143,1,0,0:0:0:0:
192,192,10292,1,0,0:0:0:0:
448,192,10440,1,0,0:0:0:0:
320,192,10589,1,0,0:0:0:0:
64,192,10589,1,0,0:0:0:0:
192,192,10737,1,0,0:0:0:0:
320,192,10886,1,0,0:0:0:0:
448,192,10886,1,0,0:0:0:0:
64,192,10886,1,0,0:0:0:0:
192,192,11034,1,0,0:0:0:0:
320,192,11183,1,0,0:0:0:0:
448,192,11183,1,0,0:0:0:0:
448,192,11331,1,0,0:0:0:0:
192,192,11331,1,0,0:0:0:0:
64,192,11331,1,0,0:0:0:0:
320,192,11480,1,0,0:0:0:0:
192,192,11628,1,0,0:0:0:0:
64,192,11777,1,0,0:0:0:0:
448,192,11777,1,0,0:0:0:0:
320,192,11925,1,0,0:0:0:0:
192,192,12074,1,0,0:0:0:0:
64,192,12074,1,0,0:0:0:0:
448,192,12074,1,0,0:0:0:0:
320,192,12222,1,0,0:0:0:0:
192,192,12371,1,0,0:0:0:0:
64,192,12371,1,0,0:0:0:0:
320,192,12519,1,0,0:0:0:0:
448,192,12519,1,0,0:0:0:0:
64,192,12519,1,0,0:0:0:0:
192,192,12668,1,0,0:0:0:0:
320,192,12816,1,0,0:0:0:0:
192,192,12965,1,0,0:0:0:0:
64,192,12965,1,0,0:0:0:0:
448,192,13113,1,0,0:0:0:0:
320,192,13113,1,0,0:0:0:0:
64,192,14450,1,0,0:0:0:0:
192,192,14450,1,0,0:0:0:0:
448,192,14450,1,0,0:0:0:0:
320,192,14598,1,0,0:0:0:0:
192,192,14747,1,0,0:0:0:0:
64,192,14747,1,0,0:0:0:0:
320,192,14895,1,0,0:0:0:0:
448,192,14895,1,0,0:0:0:0:
64,192,14895,1,0,0:0:0:0:
192,192,15044,1,0,0:0:0:0:
320,192,15192,1,0,0:0:0:0:
448,192,15192,1,0,0:0:0:0:
192,192,15341,1,0,0:0:0:0:
64,192,15341,1,0,0:0:0:0:
64,192,15490,1,0,0:0:0:0:
320,192,15490,1,0,0:0:0:0:
192,192,15638,1,0,0:0:0:0:
320,192,15638,1,0,0:0:0:0:
448,192,15638,1,0,0:0:0:0:
64,192,15787,1,0,0:0:0:0:
448,192,15787,1,0,0:0:0:0:
320,192,15935,1,0,0:0:0:0:
192,192,15935,1,0,0:0:0:0:
64,192,16084,1,0,0:0:0:0:
192,192,16084,1,0,0:0:0:0:
448,192,16084,1,0,0:0:0:0:
320,192,16232,1,0,0:0:0:0:
448,192,16232,1,0,0:0:0:0:
64,192,16381,1,0,0:0:0:0:
320,192,16381,1,0,0:0:0:0:
192,192,16529,1,0,0:0:0:0:
64,192,16529,1,0,0:0:0:0:
320,192,16678,1,0,0:0:0:0:
192,192,16826,1,0,0:0:0:0:
64,192,16826,1,0,0:0:0:0:
448,192,16826,1,0,0:0:0:0:
320,192,16975,1,0,0:0:0:0:
64,192,17123,1,0,0:0:0:0:
448,192,17123,1,0,0:0:0:0:
192,192,17272,1,0,0:0:0:0:
320,192,17272,1,0,0:0:0:0:
64,192,17272,1,0,0:0:0:0:
192,192,17420,1,0,0:0:0:0:
320,192,17569,1,0,0:0:0:0:
448,192,17569,1,0,0:0:0:0:
192,192,17717,1,0,0:0:0:0:
64,192,17717,1,0,0:0:0:0:
320,192,17866,1,0,0:0:0:0:
192,192,17866,1,0,0:0:0:0:
320,192,18014,1,0,0:0:0:0:
448,192,18014,1,0,0:0:0:0:
64,192,18014,1,0,0:0:0:0:
192,192,18163,1,0,0:0:0:0:
64,192,18163,1,0,0:0:0:0:
64,192,18311,1,0,0:0:0:0:
448,192,18311,1,0,0:0:0:0:
320,192,18311,1,0,0:0:0:0:
192,192,18460,1,0,0:0:0:0:
320,192,18460,1,0,0:0:0:0:
192,192,18608,1,0,0:0:0:0:
64,192,18608,1,0,0:0:0:0:
448,192,18608,1,0,0:0:0:0:
320,192,18757,1,0,0:0:0:0:
448,192,18757,1,0,0:0:0:0:
448,192,18905,1,0,0:0:0:0:
64,192,18905,1,0,0:0:0:0:
192,192,19054,1,0,0:0:0:0:
320,192,19054,1,0,0:0:0:0:
64,192,19202,1,0,0:0:0:0:
192,192,19202,1,0,0:0:0:0:
448,192,19202,1,0,0:0:0:0:
320,192,19351,1,0,0:0:0:0:
64,192,19499,1,0,0:0:0:0:
448,192,19499,1,0,0:0:0:0:
192,192,19648,1,0,0:0:0:0:
320,192,19648,1,0,0:0:0:0:
64,192,19648,1,0,0:0:0:0:
448,192,19796,1,0,0:0:0:0:
192,192,19945,1,0,0:0:0:0:
64,192,19945,1,0,0:0:0:0:
320,192,20093,1,0,0:0:0:0:
448,192,20093,1,0,0:0:0:0:
320,192,20242,1,0,0:0:0:0:
192,192,20242,1,0,0:0:0:0:
192,192,20391,1,0,0:0:0:0:
64,192,20391,1,0,0:0:0:0:
448,192,20391,1,0,0:0:0:0:
320,192,20539,1,0,0:0:0:0:
64,192,20539,1,0,0:0:0:0:
192,192,20688,1,0,0:0:0:0:
448,192,20688,1,0,0:0:0:0:
320,192,20836,1,0,0:0:0:0:
192,192,20836,1,0,0:0:0:0:
64,192,20836,1,0,0:0:0:0:
448,192,20985,1,0,0:0:0:0:
64,192,20985,1,0,0:0:0:0:
320,192,21133,1,0,0:0:0:0:
192,192,21133,1,0,0:0:0:0:
64,192,21282,1,0,0:0:0:0:
192,192,21282,1,0,0:0:0:0:
320,192,21430,1,0,0:0:0:0:
448,192,21430,1,0,0:0:0:0:
192,192,21579,1,0,0:0:0:0:
64,192,21579,1,0,0:0:0:0:
448,192,21579,1,0,0:0:0:0:
320,192,21727,1,0,0:0:0:0:
192,192,21876,1,0,0:0:0:0:
64,192,21876,1,0,0:0:0:0:
320,192,22024,1,0,0:0:0:0:
448,192,22024,1,0,0:0:0:0:
64,192,22024,1,0,0:0:0:0:
192,192,22173,1,0,0:0:0:0:
320,192,22321,1,0,0:0:0:0:
448,192,22321,1,0,0:0:0:0:
192,192,22470,1,0,0:0:0:0:
64,192,22470,1,0,0:0:0:0:
64,192,22618,1,0,0:0:0:0:
320,192,22618,1,0,0:0:0:0:
192,192,22767,1,0,0:0:0:0:
320,192,22767,1,0,0:0:0:0:
448,192,22767,1,0,0:0:0:0:
64,192,22915,1,0,0:0:0:0:
320,192,23064,1,0,0:0:0:0:
448,192,23064,1,0,0:0:0:0:
192,192,23212,1,0,0:0:0:0:
64,192,23212,1,0,0:0:0:0:
320,192,23287,1,0,0:0:0:0:
448,192,23287,1,0,0:0:0:0:
192,192,23361,1,0,0:0:0:0:
64,192,23361,1,0,0:0:0:0:
320,192,23435,1,0,0:0:0:0:
64,192,23509,1,0,0:0:0:0:
448,192,23509,1,0,0:0:0:0:
192,192,23559,1,0,0:0:0:0:
320,192,23608,1,0,0:0:0:0:
64,192,23658,1,0,0:0:0:0:
448,192,23658,1,0,0:0:0:0:
192,192,23806,1,0,0:0:0:0:
320,192,23806,1,0,0:0:0:0:
192,192,23955,1,0,0:0:0:0:
64,192,23955,1,0,0:0:0:0:
448,192,23955,1,0,0:0:0:0:
320,192,24103,1,0,0:0:0:0:
64,192,24252,1,0,0:0:0:0:
448,192,24252,1,0,0:0:0:0:
64,192,24400,1,0,0:0:0:0:
192,192,24400,1,0,0:0:0:0:
320,192,24400,1,0,0:0:0:0:
448,192,24549,1,0,0:0:0:0:
192,192,24697,1,0,0:0:0:0:
320,192,24697,1,0,0:0:0:0:
64,192,24846,1,0,0:0:0:0:
448,192,24846,1,0,0:0:0:0:
192,192,24994,1,0,0:0:0:0:
64,192,24994,1,0,0:0:0:0:
320,192,25143,1,0,0:0:0:0:
448,192,25143,1,0,0:0:0:0:
192,192,25143,1,0,0:0:0:0:
64,192,25292,1,0,0:0:0:0:
448,192,25292,1,0,0:0:0:0:
320,192,25440,1,0,0:0:0:0:
64,192,25440,1,0,0:0:0:0:
192,192,25589,1,0,0:0:0:0:
320,192,25589,1,0,0:0:0:0:
448,192,25589,1,0,0:0:0:0:
192,192,25737,1,0,0:0:0:0:
64,192,25737,1,0,0:0:0:0:
320,192,25886,1,0,0:0:0:0:
448,192,25886,1,0,0:0:0:0:
64,192,26034,1,0,0:0:0:0:
448,192,26034,1,0,0:0:0:0:
192,192,26183,1,0,0:0:0:0:
64,192,26331,1,0,0:0:0:0:
320,192,26331,1,0,0:0:0:0:
448,192,26331,1,0,0:0:0:0:
192,192,26480,1,0,0:0:0:0:
64,192,26628,1,0,0:0:0:0:
320,192,26628,1,0,0:0:0:0:
192,192,26777,1,0,0:0:0:0:
320,192,26777,1,0,0:0:0:0:
448,192,26777,1,0,0:0:0:0:
64,192,26925,1,0,0:0:0:0:
320,192,27074,1,0,0:0:0:0:
448,192,27074,1,0,0:0:0:0:
192,192,27222,1,0,0:0:0:0:
64,192,27222,1,0,0:0:0:0:
320,192,27371,1,0,0:0:0:0:
192,192,27371,1,0,0:0:0:0:
64,192,27519,1,0,0:0:0:0:
320,192,27519,1,0,0:0:0:0:
448,192,27519,1,0,0:0:0:0:
192,192,27668,1,0,0:0:0:0:
64,192,27668,1,0,0:0:0:0:
192,192,27816,1,0,0:0:0:0:
320,192,27816,1,0,0:0:0:0:
448,192,27816,1,0,0:0:0:0:
64,192,27965,1,0,0:0:0:0:
320,192,27965,1,0,0:0:0:0:
192,192,28113,1,0,0:0:0:0:
64,192,28113,1,0,0:0:0:0:
448,192,28113,1,0,0:0:0:0:
320,192,28262,1,0,0:0:0:0:
448,192,28262,1,0,0:0:0:0:
192,192,28410,1,0,0:0:0:0:
320,192,28410,1,0,0:0:0:0:
192,192,28559,1,0,0:0:0:0:
64,192,28559,1,0,0:0:0:0:
320,192,28707,1,0,0:0:0:0:
448,192,28707,1,0,0:0:0:0:
64,192,28707,1,0,0:0:0:0:
192,192,28856,1,0,0:0:0:0:
320,192,29004,1,0,0:0:0:0:
448,192,29004,1,0,0:0:0:0:
64,192,29153,1,0,0:0:0:0:
192,192,29153,1,0,0:0:0:0:
448,192,29153,1,0,0:0:0:0:
320,192,29301,1,0,0:0:0:0:
192,192,29450,1,0,0:0:0:0:
64,192,29450,1,0,0:0:0:0:
320,192,29598,1,0,0:0:0:0:
448,192,29598,1,0,0:0:0:0:
64,192,29747,1,0,0:0:0:0:
320,192,29747,1,0,0:0:0:0:
192,192,29895,1,0,0:0:0:0:
64,192,29895,1,0,0:0:0:0:
448,192,29895,1,0,0:0:0:0:
320,192,30044,1,0,0:0:0:0:
192,192,30044,1,0,0:0:0:0:
64,192,30193,1,0,0:0:0:0:
448,192,30193,1,0,0:0:0:0:
192,192,30341,1,0,0:0:0:0:
320,192,30341,1,0,0:0:0:0:
64,192,30341,1,0,0:0:0:0:
448,192,30490,1,0,0:0:0:0:
320,192,30490,1,0,0:0:0:0:
64,192,30638,1,0,0:0:0:0:
192,192,30638,1,0,0:0:0:0:
64,192,30787,1,0,0:0:0:0:
320,192,30787,1,0,0:0:0:0:
192,192,30935,1,0,0:0:0:0:
64,192,31084,1,0,0:0:0:0:
320,192,31084,1,0,0:0:0:0:
448,192,31084,1,0,0:0:0:0:
192,192,31232,1,0,0:0:0:0:
320,192,31381,1,0,0:0:0:0:
448,192,31381,1,0,0:0:0:0:
192,192,31529,1,0,0:0:0:0:
64,192,31529,1,0,0:0:0:0:
448,192,31529,1,0,0:0:0:0:
320,192,31678,1,0,0:0:0:0:
64,192,31826,1,0,0:0:0:0:
192,192,31826,1,0,0:0:0:0:
320,192,31975,1,0,0:0:0:0:
448,192,31975,1,0,0:0:0:0:
64,192,32123,1,0,0:0:0:0:
320,192,32123,1,0,0:0:0:0:
192,192,32272,1,0,0:0:0:0:
64,192,32272,1,0,0:0:0:0:
448,192,32272,1,0,0:0:0:0:
320,192,32420,1,0,0:0:0:0:
192,192,32420,1,0,0:0:0:0:
64,192,32569,1,0,0:0:0:0:
320,192,32569,1,0,0:0:0:0:
448,192,32569,1,0,0:0:0:0:
192,192,32717,1,0,0:0:0:0:
64,192,32717,1,0,0:0:0:0:
320,192,32792,1,0,0:0:0:0:
448,192,32792,1,0,0:0:0:0:
192,192,32866,1,0,0:0:0:0:
64,192,32866,1,0,0:0:0:0:
320,192,32940,1,0,0:0:0:0:
64,192,33014,1,0,0:0:0:0:
448,192,33014,1,0,0:0:0:0:
192,192,33064,1,0,0:0:0:0:
320,192,33113,1,0,0:0:0:0:
64,192,33163,1,0,0:0:0:0:
448,192,33163,1,0,0:0:0:0:
192,192,33311,1,0,0:0:0:0:
320,192,33311,1,0,0:0:0:0:
192,192,33460,1,0,0:0:0:0:
320,192,33460,1,0,0:0:0:0:
448,192,33460,128,0,34648:0:0:0:0:
64,192,33460,128,0,33905:0:0:0:0:
192,192,33905,128,0,34351:0:0:0:0:
320,192,34351,128,0,34648:0:0:0:0:
64,192,34648,128,0,35836:0:0:0:0:
192,192,34648,128,0,35093:0:0:0:0:
448,192,35093,128,0,35539:0:0:0:0:
192,192,35539,1,0,0:0:0:0:
320,192,35688,1,0,0:0:0:0:
448,192,35836,128,0,37024:0:0:0:0:
192,192,35836,128,0,36282:0:0:0:0:
64,192,36282,128,0,36727:0:0:0:0:
320,192,36727,128,0,37024:0:0:0:0:
64,192,37024,128,0,37618:0:0:0:0:
192,192,37024,128,0,38064:0:0:0:0:
448,192,37915,1,0,0:0:0:0:
320,192,38064,1,0,0:0:0:0:
64,192,38212,1,0,0:0:0:0:
192,192,38212,1,0,0:0:0:0:
448,192,38212,1,0,0:0:0:0:
320,192,38361,1,0,0:0:0:0:
192,192,38509,1,0,0:0:0:0:
64,192,38658,1,0,0:0:0:0:
192,192,38658,1,0,0:0:0:0:
448,192,38658,1,0,0:0:0:0:
320,192,38658,1,0,0:0:0:0:
320,192,38806,1,0,0:0:0:0:
192,192,38955,1,0,0:0:0:0:
64,192,39103,1,0,0:0:0:0:
192,192,39103,1,0,0:0:0:0:
448,192,39103,1,0,0:0:0:0:
320,192,39252,1,0,0:0:0:0:
64,192,39400,1,0,0:0:0:0:
320,192,39400,1,0,0:0:0:0:
448,192,39400,1,0,0:0:0:0:
64,192,39549,1,0,0:0:0:0:
448,192,39697,1,0,0:0:0:0:
192,192,39697,1,0,0:0:0:0:
448,192,39846,1,0,0:0:0:0:
320,192,39846,1,0,0:0:0:0:
64,192,39846,1,0,0:0:0:0:
192,192,39994,1,0,0:0:0:0:
320,192,40143,1,0,0:0:0:0:
448,192,40143,1,0,0:0:0:0:
64,192,40292,1,0,0:0:0:0:
320,192,40292,1,0,0:0:0:0:
448,192,40292,1,0,0:0:0:0:
192,192,40440,1,0,0:0:0:0:
64,192,40589,1,0,0:0:0:0:
192,192,40589,1,0,0:0:0:0:
320,192,40589,1,0,0:0:0:0:
448,192,40737,1,0,0:0:0:0:
192,192,40886,1,0,0:0:0:0:
64,192,40886,1,0,0:0:0:0:
64,192,41034,1,0,0:0:0:0:
192,192,41034,1,0,0:0:0:0:
320,192,41034,1,0,0:0:0:0:
448,192,41034,1,0,0:0:0:0:
320,192,41183,1,0,0:0:0:0:
192,192,41331,1,0,0:0:0:0:
448,192,41331,1,0,0:0:0:0:
64,192,41480,1,0,0:0:0:0:
192,192,41480,1,0,0:0:0:0:
320,192,41480,1,0,0:0:0:0:
448,192,41628,1,0,0:0:0:0:
64,192,41777,1,0,0:0:0:0:
192,192,41777,1,0,0:0:0:0:
320,192,41925,1,0,0:0:0:0:
64,192,42074,1,0,0:0:0:0:
448,192,42074,1,0,0:0:0:0:
192,192,42222,1,0,0:0:0:0:
320,192,42222,1,0,0:0:0:0:
64,192,42371,1,0,0:0:0:0:
448,192,42371,1,0,0:0:0:0:
192,192,42519,1,0,0:0:0:0:
64,192,42519,1,0,0:0:0:0:
320,192,42668,1,0,0:0:0:0:
448,192,42668,1,0,0:0:0:0:
192,192,42816,1,0,0:0:0:0:
64,192,42816,1,0,0:0:0:0:
448,192,42965,1,0,0:0:0:0:
64,192,42965,128,0,43262:0:0:0:0:
192,192,42965,1,0,0:0:0:0:
320,192,43113,1,0,0:0:0:0:
448,192,43262,128,0,43559:0:0:0:0:
192,192,43262,1,0,0:0:0:0:
192,192,43410,1,0,0:0:0:0:
64,192,43410,1,0,0:0:0:0:
320,192,43410,1,0,0:0:0:0:
64,192,43559,128,0,43856:0:0:0:0:
320,192,43559,1,0,0:0:0:0:
192,192,43707,1,0,0:0:0:0:
448,192,43856,128,0,44153:0:0:0:0:
192,192,43856,1,0,0:0:0:0:
320,192,43856,1,0,0:0:0:0:
64,192,44004,1,0,0:0:0:0:
192,192,44153,1,0,0:0:0:0:
320,192,44153,1,0,0:0:0:0:
64,192,44153,128,0,44450:0:0:0:0:
320,192,44301,1,0,0:0:0:0:
448,192,44450,128,0,44747:0:0:0:0:
192,192,44450,1,0,0:0:0:0:
64,192,44598,1,0,0:0:0:0:
192,192,44598,1,0,0:0:0:0:
320,192,44598,1,0,0:0:0:0:
64,192,44747,128,0,45044:0:0:0:0:
320,192,44747,1,0,0:0:0:0:
192,192,44895,1,0,0:0:0:0:
192,192,45044,1,0,0:0:0:0:
320,192,45044,1,0,0:0:0:0:
448,192,45044,128,0,45193:0:0:0:0:
64,192,45193,1,0,0:0:0:0:
64,192,45341,1,0,0:0:0:0:
192,192,45341,1,0,0:0:0:0:
320,192,45341,1,0,0:0:0:0:
448,192,45341,1,0,0:0:0:0:
320,192,45490,1,0,0:0:0:0:
64,192,45638,1,0,0:0:0:0:
192,192,45638,1,0,0:0:0:0:
320,192,45638,1,0,0:0:0:0:
448,192,45638,1,0,0:0:0:0:
192,192,45787,1,0,0:0:0:0:
64,192,45935,1,0,0:0:0:0:
192,192,45935,1,0,0:0:0:0:
320,192,45935,1,0,0:0:0:0:
448,192,45935,1,0,0:0:0:0:
448,192,46084,1,0,0:0:0:0:
448,192,46232,1,0,0:0:0:0:
320,192,46232,1,0,0:0:0:0:
192,192,46232,1,0,0:0:0:0:
64,192,46232,1,0,0:0:0:0:
64,192,46381,1,0,0:0:0:0:
192,192,46381,1,0,0:0:0:0:
320,192,46678,128,0,46826:0:0:0:0:
320,192,46975,1,0,0:0:0:0:
320,192,47123,1,0,0:0:0:0:
64,192,47123,1,0,0:0:0:0:
448,192,47123,1,0,0:0:0:0:
320,192,47420,1,0,0:0:0:0:
64,192,47717,1,0,0:0:0:0:
320,192,47717,1,0,0:0:0:0:
192,192,47717,1,0,0:0:0:0:
448,192,47717,1,0,0:0:0:0:
64,192,47866,1,0,0:0:0:0:
320,192,48014,1,0,0:0:0:0:
448,192,48014,1,0,0:0:0:0:
64,192,48163,1,0,0:0:0:0:
192,192,48163,1,0,0:0:0:0:
320,192,48163,1,0,0:0:0:0:
448,192,48163,1,0,0:0:0:0:
192,192,48311,1,0,0:0:0:0:
448,192,48460,1,0,0:0:0:0:
64,192,48608,1,0,0:0:0:0:
192,192,48608,1,0,0:0:0:0:
320,192,48608,1,0,0:0:0:0:
448,192,48608,1,0,0:0:0:0:
64,192,48757,1,0,0:0:0:0:
192,192,48757,1,0,0:0:0:0:
64,192,48905,1,0,0:0:0:0:
448,192,48905,1,0,0:0:0:0:
320,192,48905,1,0,0:0:0:0:
320,192,49054,1,0,0:0:0:0:
448,192,49054,1,0,0:0:0:0:
192,192,49202,1,0,0:0:0:0:
64,192,49351,1,0,0:0:0:0:
192,192,49351,1,0,0:0:0:0:
448,192,49351,1,0,0:0:0:0:
320,192,49351,1,0,0:0:0:0:
320,192,49499,1,0,0:0:0:0:
448,192,49499,1,0,0:0:0:0:
192,192,49648,1,0,0:0:0:0:
64,192,49796,1,0,0:0:0:0:
192,192,49796,1,0,0:0:0:0:
320,192,49796,1,0,0:0:0:0:
448,192,49796,1,0,0:0:0:0:
448,192,49945,1,0,0:0:0:0:
64,192,50093,1,0,0:0:0:0:
192,192,50093,1,0,0:0:0:0:
320,192,50093,1,0,0:0:0:0:
448,192,50093,1,0,0:0:0:0:
64,192,50242,1,0,0:0:0:0:
320,192,50391,1,0,0:0:0:0:
192,192,50539,1,0,0:0:0:0:
64,192,50539,1,0,0:0:0:0:
320,192,50539,1,0,0:0:0:0:
448,192,50539,1,0,0:0:0:0:
192,192,50688,1,0,0:0:0:0:
448,192,50836,1,0,0:0:0:0:
64,192,50985,1,0,0:0:0:0:
192,192,50985,1,0,0:0:0:0:
320,192,50985,1,0,0:0:0:0:
448,192,50985,1,0,0:0:0:0:
64,192,51133,1,0,0:0:0:0:
192,192,51133,1,0,0:0:0:0:
320,192,51282,1,0,0:0:0:0:
448,192,51282,1,0,0:0:0:0:
64,192,51282,1,0,0:0:0:0:
192,192,51430,1,0,0:0:0:0:
320,192,51430,1,0,0:0:0:0:
192,192,51579,1,0,0:0:0:0:
64,192,51579,1,0,0:0:0:0:
448,192,51579,1,0,0:0:0:0:
320,192,51727,1,0,0:0:0:0:
448,192,51727,1,0,0:0:0:0:
320,192,51876,1,0,0:0:0:0:
192,192,51876,1,0,0:0:0:0:
64,192,51876,1,0,0:0:0:0:
64,192,52024,1,0,0:0:0:0:
192,192,52024,1,0,0:0:0:0:
64,192,52173,1,0,0:0:0:0:
192,192,52173,1,0,0:0:0:0:
320,192,52173,1,0,0:0:0:0:
448,192,52173,1,0,0:0:0:0:
320,192,52321,1,0,0:0:0:0:
448,192,52321,1,0,0:0:0:0:
192,192,52470,1,0,0:0:0:0:
64,192,52470,1,0,0:0:0:0:
320,192,52470,1,0,0:0:0:0:
448,192,52470,1,0,0:0:0:0:
192,192,52618,1,0,0:0:0:0:
320,192,52767,1,0,0:0:0:0:
448,192,52767,1,0,0:0:0:0:
64,192,52915,1,0,0:0:0:0:
192,192,52915,1,0,0:0:0:0:
320,192,52915,1,0,0:0:0:0:
448,192,52915,1,0,0:0:0:0:
64,192,53064,1,0,0:0:0:0:
320,192,53212,1,0,0:0:0:0:
448,192,53212,1,0,0:0:0:0:
192,192,53361,1,0,0:0:0:0:
64,192,53361,1,0,0:0:0:0:
320,192,53361,1,0,0:0:0:0:
448,192,53361,1,0,0:0:0:0:
192,192,53509,1,0,0:0:0:0:
64,192,53509,1,0,0:0:0:0:
64,192,53658,1,0,0:0:0:0:
320,192,53658,1,0,0:0:0:0:
448,192,53658,1,0,0:0:0:0:
192,192,53806,1,0,0:0:0:0:
320,192,53806,1,0,0:0:0:0:
448,192,53955,1,0,0:0:0:0:
192,192,54103,1,0,0:0:0:0:
64,192,54103,1,0,0:0:0:0:
320,192,54103,1,0,0:0:0:0:
448,192,54103,1,0,0:0:0:0:
64,192,54252,1,0,0:0:0:0:
192,192,54252,1,0,0:0:0:0:
320,192,54400,1,0,0:0:0:0:
448,192,54400,1,0,0:0:0:0:
64,192,54549,1,0,0:0:0:0:
192,192,54549,1,0,0:0:0:0:
320,192,54549,1,0,0:0:0:0:
448,192,54549,1,0,0:0:0:0:
64,192,54697,1,0,0:0:0:0:
64,192,54846,1,0,0:0:0:0:
192,192,54846,1,0,0:0:0:0:
448,192,54846,1,0,0:0:0:0:
320,192,54846,1,0,0:0:0:0:
320,192,54994,1,0,0:0:0:0:
448,192,54994,1,0,0:0:0:0:
192,192,55143,1,0,0:0:0:0:
64,192,55143,1,0,0:0:0:0:
320,192,55292,1,0,0:0:0:0:
448,192,55292,1,0,0:0:0:0:
64,192,55292,1,0,0:0:0:0:
192,192,55440,1,0,0:0:0:0:
448,192,55440,1,0,0:0:0:0:
64,192,55589,1,0,0:0:0:0:
64,192,55737,1,0,0:0:0:0:
192,192,55737,1,0,0:0:0:0:
320,192,55737,1,0,0:0:0:0:
448,192,55737,1,0,0:0:0:0:
320,192,55886,1,0,0:0:0:0:
64,192,56034,1,0,0:0:0:0:
192,192,56034,1,0,0:0:0:0:
448,192,56034,1,0,0:0:0:0:
320,192,56331,1,0,0:0:0:0:
448,192,56331,1,0,0:0:0:0:
64,192,56331,1,0,0:0:0:0:
192,192,56628,1,0,0:0:0:0:
320,192,56628,1,0,0:0:0:0:
448,192,56628,1,0,0:0:0:0:
64,192,56925,1,0,0:0:0:0:
192,192,56925,1,0,0:0:0:0:
320,192,56925,1,0,0:0:0:0:
64,192,57222,1,0,0:0:0:0:
192,192,57222,1,0,0:0:0:0:
320,192,57222,1,0,0:0:0:0:
448,192,57222,1,0,0:0:0:0:
448,192,57371,1,0,0:0:0:0:
192,192,57519,1,0,0:0:0:0:
64,192,57519,1,0,0:0:0:0:
320,192,57668,1,0,0:0:0:0:
448,192,57668,1,0,0:0:0:0:
64,192,57668,1,0,0:0:0:0:
192,192,57668,1,0,0:0:0:0:
320,192,57816,1,0,0:0:0:0:
64,192,57965,1,0,0:0:0:0:
448,192,57965,1,0,0:0:0:0:
192,192,58113,1,0,0:0:0:0:
64,192,58113,1,0,0:0:0:0:
320,192,58113,1,0,0:0:0:0:
448,192,58113,1,0,0:0:0:0:
192,192,58262,1,0,0:0:0:0:
320,192,58262,1,0,0:0:0:0:
64,192,58410,1,0,0:0:0:0:
320,192,58410,1,0,0:0:0:0:
448,192,58410,1,0,0:0:0:0:
192,192,58559,1,0,0:0:0:0:
320,192,58559,1,0,0:0:0:0:
64,192,58707,1,0,0:0:0:0:
320,192,58856,1,0,0:0:0:0:
448,192,58856,1,0,0:0:0:0:
64,192,58856,1,0,0:0:0:0:
192,192,58856,1,0,0:0:0:0:
448,192,59004,1,0,0:0:0:0:
320,192,59004,1,0,0:0:0:0:
192,192,59153,1,0,0:0:0:0:
64,192,59301,1,0,0:0:0:0:
192,192,59301,1,0,0:0:0:0:
320,192,59301,1,0,0:0:0:0:
448,192,59301,1,0,0:0:0:0:
320,192,59450,1,0,0:0:0:0:
448,192,59450,1,0,0:0:0:0:
192,192,59598,1,0,0:0:0:0:
64,192,59598,1,0,0:0:0:0:
320,192,59598,1,0,0:0:0:0:
448,192,59598,1,0,0:0:0:0:
64,192,59747,1,0,0:0:0:0:
320,192,59895,1,0,0:0:0:0:
64,192,60044,1,0,0:0:0:0:
192,192,60044,1,0,0:0:0:0:
320,192,60044,1,0,0:0:0:0:
448,192,60044,1,0,0:0:0:0:
192,192,60192,1,0,0:0:0:0:
320,192,60341,1,0,0:0:0:0:
64,192,60490,1,0,0:0:0:0:
192,192,60490,1,0,0:0:0:0:
320,192,60490,1,0,0:0:0:0:
448,192,60490,1,0,0:0:0:0:
64,192,60638,1,0,0:0:0:0:
320,192,60787,1,0,0:0:0:0:
448,192,60787,1,0,0:0:0:0:
192,192,60787,1,0,0:0:0:0:
64,192,60935,1,0,0:0:0:0:
320,192,60935,1,0,0:0:0:0:
192,192,61084,1,0,0:0:0:0:
64,192,61084,1,0,0:0:0:0:
320,192,61232,1,0,0:0:0:0:
448,192,61232,1,0,0:0:0:0:
64,192,61381,1,0,0:0:0:0:
192,192,61381,1,0,0:0:0:0:
320,192,61381,1,0,0:0:0:0:
448,192,61381,1,0,0:0:0:0:
192,192,61529,1,0,0:0:0:0:
64,192,61529,1,0,0:0:0:0:
64,192,61678,1,0,0:0:0:0:
320,192,61678,1,0,0:0:0:0:
192,192,61678,1,0,0:0:0:0:
448,192,61678,1,0,0:0:0:0:
320,192,61826,1,0,0:0:0:0:
448,192,61826,1,0,0:0:0:0:
64,192,61975,1,0,0:0:0:0:
192,192,61975,1,0,0:0:0:0:
448,192,61975,1,0,0:0:0:0:
320,192,61975,1,0,0:0:0:0:
192,192,62123,1,0,0:0:0:0:
320,192,62272,1,0,0:0:0:0:
64,192,62420,1,0,0:0:0:0:
320,192,62420,1,0,0:0:0:0:
192,192,62420,1,0,0:0:0:0:
448,192,62420,1,0,0:0:0:0:
448,192,62569,1,0,0:0:0:0:
64,192,62717,1,0,0:0:0:0:
64,192,62866,1,0,0:0:0:0:
192,192,62866,1,0,0:0:0:0:
320,192,62866,1,0,0:0:0:0:
448,192,62866,1,0,0:0:0:0:
320,192,63014,1,0,0:0:0:0:
192,192,63163,1,0,0:0:0:0:
64,192,63163,1,0,0:0:0:0:
320,192,63163,1,0,0:0:0:0:
448,192,63163,1,0,0:0:0:0:
64,192,63311,1,0,0:0:0:0:
320,192,63460,1,0,0:0:0:0:
64,192,63608,1,0,0:0:0:0:
192,192,63608,1,0,0:0:0:0:
320,192,63608,1,0,0:0:0:0:
448,192,63608,1,0,0:0:0:0:
192,192,63757,1,0,0:0:0:0:
448,192,63905,1,0,0:0:0:0:
64,192,64054,1,0,0:0:0:0:
192,192,64054,1,0,0:0:0:0:
448,192,64054,1,0,0:0:0:0:
320,192,64054,1,0,0:0:0:0:
64,192,64202,1,0,0:0:0:0:
64,192,64351,1,0,0:0:0:0:
320,192,64351,1,0,0:0:0:0:
192,192,64351,1,0,0:0:0:0:
448,192,64351,1,0,0:0:0:0:
320,192,64499,1,0,0:0:0:0:
448,192,64499,1,0,0:0:0:0:
64,192,64648,1,0,0:0:0:0:
320,192,64796,1,0,0:0:0:0:
448,192,64796,1,0,0:0:0:0:
192,192,64796,1,0,0:0:0:0:
64,192,64796,1,0,0:0:0:0:
320,192,64945,1,0,0:0:0:0:
192,192,65093,1,0,0:0:0:0:
64,192,65242,1,0,0:0:0:0:
320,192,65242,1,0,0:0:0:0:
192,192,65242,1,0,0:0:0:0:
448,192,65242,1,0,0:0:0:0:
320,192,65391,1,0,0:0:0:0:
64,192,65539,1,0,0:0:0:0:
192,192,65539,1,0,0:0:0:0:
320,192,65539,1,0,0:0:0:0:
448,192,65539,1,0,0:0:0:0:
64,192,65688,1,0,0:0:0:0:
64,192,65836,1,0,0:0:0:0:
192,192,65836,1,0,0:0:0:0:
320,192,65836,1,0,0:0:0:0:
448,192,65836,1,0,0:0:0:0:
448,192,65985,1,0,0:0:0:0:
64,192,66133,1,0,0:0:0:0:
192,192,66133,1,0,0:0:0:0:
320,192,66133,1,0,0:0:0:0:
448,192,66133,1,0,0:0:0:0:
192,192,66282,1,0,0:0:0:0:
64,192,66430,1,0,0:0:0:0:
320,192,66430,1,0,0:0:0:0:
192,192,66430,1,0,0:0:0:0:
448,192,66430,1,0,0:0:0:0:
320,192,66579,1,0,0:0:0:0:
64,192,66727,1,0,0:0:0:0:
192,192,66727,1,0,0:0:0:0:
448,192,66727,1,0,0:0:0:0:
64,192,66876,1,0,0:0:0:0:
320,192,66876,1,0,0:0:0:0:
192,192,66950,1,0,0:0:0:0:
448,192,66950,1,0,0:0:0:0:
320,192,67024,1,0,0:0:0:0:
64,192,67024,1,0,0:0:0:0:
192,192,67173,1,0,0:0:0:0:
320,192,67173,1,0,0:0:0:0:
448,192,67173,1,0,0:0:0:0:
64,192,67173,1,0,0:0:0:0:
320,192,67321,1,0,0:0:0:0:
448,192,67321,1,0,0:0:0:0:
64,192,67470,1,0,0:0:0:0:
192,192,67470,1,0,0:0:0:0:
320,192,67470,1,0,0:0:0:0:
448,192,67470,1,0,0:0:0:0:
192,192,67618,1,0,0:0:0:0:
64,192,67618,1,0,0:0:0:0:
64,192,67767,1,0,0:0:0:0:
192,192,67767,1,0,0:0:0:0:
320,192,67767,1,0,0:0:0:0:
448,192,67767,128,0,68509:0:0:0:0:
320,192,68361,1,0,0:0:0:0:
192,192,68361,1,0,0:0:0:0:
64,192,68361,1,0,0:0:0:0:
64,192,68509,1,0,0:0:0:0:
192,192,68509,1,0,0:0:0:0:
320,192,68707,1,0,0:0:0:0:
448,192,68707,1,0,0:0:0:0:
192,192,68905,1,0,0:0:0:0:
64,192,68905,1,0,0:0:0:0:
64,192,69103,1,0,0:0:0:0:
192,192,69103,1,0,0:0:0:0:
320,192,69103,1,0,0:0:0:0:
448,192,69103,128,0,69252:0:0:0:0:
192,192,69252,128,0,69400:0:0:0:0:
448,192,69400,128,0,69549:0:0:0:0:
64,192,69549,128,0,69697:0:0:0:0:
320,192,69549,1,0,0:0:0:0:
192,192,69549,1,0,0:0:0:0:
320,192,69697,128,0,69846:0:0:0:0:
64,192,69846,128,0,69994:0:0:0:0:
192,192,69994,1,0,0:0:0:0:
320,192,69994,1,0,0:0:0:0:
448,192,69994,1,0,0:0:0:0:
320,192,70143,128,0,70292:0:0:0:0:
448,192,70143,128,0,70292:0:0:0:0:
192,192,70292,1,0,0:0:0:0:
64,192,70292,1,0,0:0:0:0:
64,192,70440,128,0,70589:0:0:0:0:
192,192,70440,128,0,70589:0:0:0:0:
448,192,70589,1,0,0:0:0:0:
320,192,70737,1,0,0:0:0:0:
192,192,70737,1,0,0:0:0:0:
64,192,70737,1,0,0:0:0:0:
448,192,70886,1,0,0:0:0:0:
64,192,71034,1,0,0:0:0:0:
192,192,71183,1,0,0:0:0:0:
320,192,71183,1,0,0:0:0:0:
448,192,71183,1,0,0:0:0:0:
64,192,71331,1,0,0:0:0:0:
320,192,71331,1,0,0:0:0:0:
192,192,71480,1,0,0:0:0:0:
64,192,71480,1,0,0:0:0:0:
448,192,71480,128,0,71628:0:0:0:0:
320,192,71628,128,0,71777:0:0:0:0:
448,192,71777,128,0,71925:0:0:0:0:
64,192,71925,128,0,72074:0:0:0:0:
192,192,71925,1,0,0:0:0:0:
320,192,71925,1,0,0:0:0:0:
192,192,72074,128,0,72222:0:0:0:0:
64,192,72222,128,0,72371:0:0:0:0:
192,192,72371,1,0,0:0:0:0:
320,192,72371,1,0,0:0:0:0:
448,192,72371,1,0,0:0:0:0:
64,192,72519,1,0,0:0:0:0:
192,192,72519,1,0,0:0:0:0:
448,192,72668,128,0,72816:0:0:0:0:
320,192,72668,128,0,72816:0:0:0:0:
192,192,72816,1,0,0:0:0:0:
64,192,72816,1,0,0:0:0:0:
64,192,72965,128,0,73113:0:0:0:0:
192,192,72965,128,0,73113:0:0:0:0:
320,192,73113,1,0,0:0:0:0:
448,192,73113,1,0,0:0:0:0:
320,192,73262,128,0,73410:0:0:0:0:
448,192,73262,128,0,73410:0:0:0:0:
192,192,73410,1,0,0:0:0:0:
64,192,73410,1,0,0:0:0:0:
64,192,73559,128,0,73707:0:0:0:0:
192,192,73559,128,0,73707:0:0:0:0:
320,192,73707,1,0,0:0:0:0:
448,192,73707,1,0,0:0:0:0:
64,192,73856,1,0,0:0:0:0:
192,192,73856,1,0,0:0:0:0:
448,192,73856,128,0,74004:0:0:0:0:
320,192,74004,128,0,74153:0:0:0:0:
192,192,74153,128,0,74301:0:0:0:0:
448,192,74301,128,0,74450:0:0:0:0:
64,192,74301,1,0,0:0:0:0:
320,192,74301,1,0,0:0:0:0:
192,192,74450,128,0,74598:0:0:0:0:
64,192,74598,128,0,74747:0:0:0:0:
192,192,74747,1,0,0:0:0:0:
320,192,74747,1,0,0:0:0:0:
448,192,74747,1,0,0:0:0:0:
64,192,74895,1,0,0:0:0:0:
448,192,74895,1,0,0:0:0:0:
64,192,75044,1,0,0:0:0:0:
192,192,75044,1,0,0:0:0:0:
320,192,75044,1,0,0:0:0:0:
320,192,75193,1,0,0:0:0:0:
448,192,75193,1,0,0:0:0:0:
192,192,75267,1,0,0:0:0:0:
64,192,75267,1,0,0:0:0:0:
320,192,75341,1,0,0:0:0:0:
448,192,75341,1,0,0:0:0:0:
64,192,75490,1,0,0:0:0:0:
192,192,75490,1,0,0:0:0:0:
320,192,75490,1,0,0:0:0:0:
448,192,75490,1,0,0:0:0:0:
192,192,75638,1,0,0:0:0:0:
64,192,75638,1,0,0:0:0:0:
320,192,75787,1,0,0:0:0:0:
448,192,75787,1,0,0:0:0:0:
192,192,75787,1,0,0:0:0:0:
64,192,75935,1,0,0:0:0:0:
320,192,75935,1,0,0:0:0:0:
448,192,75935,1,0,0:0:0:0:
192,192,76084,1,0,0:0:0:0:
64,192,76084,1,0,0:0:0:0:
64,192,76232,1,0,0:0:0:0:
192,192,76232,1,0,0:0:0:0:
320,192,76232,1,0,0:0:0:0:
448,192,76232,1,0,0:0:0:0:
320,192,76381,1,0,0:0:0:0:
192,192,76529,1,0,0:0:0:0:
64,192,76529,1,0,0:0:0:0:
64,192,76678,1,0,0:0:0:0:
192,192,76678,1,0,0:0:0:0:
320,192,76678,1,0,0:0:0:0:
448,192,76678,1,0,0:0:0:0:
320,192,76826,1,0,0:0:0:0:
448,192,76826,1,0,0:0:0:0:
320,192,76975,1,0,0:0:0:0:
448,192,76975,1,0,0:0:0:0:
192,192,76975,1,0,0:0:0:0:
64,192,76975,1,0,0:0:0:0:
192,192,77123,1,0,0:0:0:0:
320,192,77272,1,0,0:0:0:0:
64,192,77420,1,0,0:0:0:0:
192,192,77420,1,0,0:0:0:0:
320,192,77420,1,0,0:0:0:0:
448,192,77420,1,0,0:0:0:0:
192,192,77569,1,0,0:0:0:0:
64,192,77569,1,0,0:0:0:0:
320,192,77717,1,0,0:0:0:0:
448,192,77717,1,0,0:0:0:0:
64,192,77866,1,0,0:0:0:0:
192,192,77866,1,0,0:0:0:0:
320,192,77866,1,0,0:0:0:0:
448,192,77866,1,0,0:0:0:0:
192,192,78014,1,0,0:0:0:0:
64,192,78014,1,0,0:0:0:0:
320,192,78163,1,0,0:0:0:0:
448,192,78163,1,0,0:0:0:0:
192,192,78163,1,0,0:0:0:0:
64,192,78163,1,0,0:0:0:0:
320,192,78311,1,0,0:0:0:0:
448,192,78311,1,0,0:0:0:0:
192,192,78460,1,0,0:0:0:0:
64,192,78460,1,0,0:0:0:0:
64,192,78608,1,0,0:0:0:0:
320,192,78608,1,0,0:0:0:0:
448,192,78608,1,0,0:0:0:0:
192,192,78757,1,0,0:0:0:0:
64,192,78757,1,0,0:0:0:0:
448,192,78757,1,0,0:0:0:0:
192,192,79054,1,0,0:0:0:0:
320,192,79054,1,0,0:0:0:0:
448,192,79054,1,0,0:0:0:0:
320,192,79351,1,0,0:0:0:0:
192,192,79351,1,0,0:0:0:0:
64,192,79351,1,0,0:0:0:0:
448,192,79648,128,0,80019:0:0:0:0:
320,192,79648,128,0,80093:0:0:0:0:
192,192,79648,128,0,80168:0:0:0:0:
64,192,79648,128,0,80242:0:0:0:0:
448,192,80093,1,0,0:0:0:0:
320,192,80168,1,0,0:0:0:0:
192,192,80242,1,0,0:0:0:0:
64,192,80316,1,0,0:0:0:0:
320,192,80391,128,0,80688:0:0:0:0:
448,192,80391,128,0,80688:0:0:0:0:
