osu file format v14

[General]
AudioFilename: audio.mp3
AudioLeadIn: 0
PreviewTime: 46603
Countdown: 0
SampleSet: Soft
StackLeniency: 0.7
Mode: 0
LetterboxInBreaks: 0
WidescreenStoryboard: 0

[Editor]
Bookmarks: 4945,33460,38212,42965,79648,80688
DistanceSpacing: 1
BeatDivisor: 4
GridSize: 4
TimelineZoom: 2.5

[Metadata]
Title:Responsibility Response
TitleUnicode:Responsibility Response
Artist:Izumi Akazawa (CV. Madoka Yonezawa)
ArtistUnicode:赤沢泉美(CV.米澤 円)
Creator:Shmiklak
Version:vanucik's Insane
Source:Another
Tags:slayed fcl wajinshu -bakari- deppyforce salsa vanucik5656 themefisto fanteer yaleufeu lama_poluna lama poluna tropical collab collaboration vanucik
BeatmapID:1063101
BeatmapSetID:495332

[Difficulty]
HPDrainRate:6.5
CircleSize:3.8
OverallDifficulty:7.8
ApproachRate:9
SliderMultiplier:1.4
SliderTickRate:1

[Events]
//Background and Video events
0,0,"shmiklakgey.jpg",0,0
//Break Periods
//Storyboard Layer 0 (Background)
//Storyboard Layer 1 (Fail)
//Storyboard Layer 2 (Pass)
//Storyboard Layer 3 (Foreground)
//Storyboard Sound Samples

[TimingPoints]
193,297.029702970297,4,2,0,70,1,0
193,-111.111111111111,4,2,0,70,0,0
4945,-83.3333333333333,4,2,1,70,0,0
12074,-76.9230769230769,4,2,1,70,0,0
13856,-125,4,2,1,70,0,0
14450,-90.9090909090909,4,2,1,70,0,0
33460,-142.857142857143,4,2,0,70,0,0
38212,-100,4,2,1,70,0,0
45341,-83.3333333333333,4,2,1,70,0,0
47717,-76.9230769230769,4,2,1,70,0,1
67767,-133.333333333333,4,2,1,70,0,1
69103,-83.3333333333333,4,2,1,70,0,0

[Colours]
Combo1 : 17,254,176
Combo2 : 173,255,95
Combo3 : 255,88,100
Combo4 : 255,94,55

[HitObjects]
160,249,193,6,0,L|152:173,2,62.9999980773926,2|0|2,0:0|0:0|0:0,0:0:0:0:
263,317,638,2,0,L|274:178,1,125.999996154785,2|2,0:0|0:0,0:0:0:0:
37,84,1232,2,0,L|48:223,1,125.999996154785,2|2,0:0|0:0,0:0:0:0:
167,344,1826,1,2,0:0:0:0:
436,75,2272,2,0,P|391:75|353:80,1,62.9999980773926,2|0,0:0|0:0,0:0:0:0:
309,146,2569,6,0,P|259:157|186:123,1,125.999996154785,2|2,0:0|0:0,0:0:0:0:
103,95,3014,2,0,P|103:156|108:238,1,125.999996154785,2|2,0:0|0:0,0:0:0:0:
446,315,3608,2,0,P|450:251|451:174,1,125.999996154785,2|2,0:0|0:0,0:0:0:0:
339,62,4054,1,2,3:0:0:0:
289,236,4202,1,2,3:0:0:0:
451,89,4351,2,0,P|406:56|323:72,1,125.999996154785,2|0,3:0|0:0,0:0:0:0:
45,129,4945,6,0,L|214:112,1,167.999994873047,6|0,0:0|0:0,0:0:0:0:
358,230,5391,2,0,L|189:214,1,167.999994873047,6|0,0:0|0:0,0:0:0:0:
442,159,5836,2,0,P|462:203|460:252,1,83.9999974365235,6|0,0:0|0:0,0:0:0:0:
304,80,6133,2,0,L|482:62,1,167.999994873047,6|0,0:0|0:0,0:0:0:0:
358,230,6579,1,6,0:0:0:0:
115,40,7321,6,0,L|126:212,1,167.999994873047,6|0,0:0|0:0,0:0:0:0:
217,342,7767,2,0,L|225:172,1,167.999994873047,6|0,0:0|0:0,0:0:0:0:
67,278,8212,2,0,P|107:299|148:295,1,83.9999974365235,6|0,0:0|0:0,0:0:0:0:
333,209,8509,1,6,0:0:0:0:
225,225,8658,1,0,3:0:0:0:
225,225,8732,1,0,3:0:0:0:
225,225,8806,1,8,3:0:0:0:
414,277,8955,1,4,0:0:0:0:
366,86,9103,2,0,L|275:83,1,83.9999974365235,10|0,3:0|0:0,0:0:0:0:
141,229,9400,2,0,L|230:224,1,83.9999974365235,10|10,3:0|3:0,0:0:0:0:
414,277,9697,6,0,L|242:312,1,167.999994873047,6|0,0:0|0:0,0:0:0:0:
330,145,10143,2,0,L|502:110,1,167.999994873047,6|0,0:0|0:0,0:0:0:0:
248,77,10589,2,0,P|229:111|225:164,1,83.9999974365235,6|0,0:0|0:0,0:0:0:0:
348,264,10886,2,0,B|331:145|331:145|311:190,1,167.999994873047,6|0,0:0|0:0,0:0:0:0:
223,368,11331,2,0,B|240:249|240:249|260:294,1,167.999994873047,6|0,0:0|0:0,0:0:0:0:
94,345,11777,2,0,P|46:347|10:332,1,83.9999974365235,6|0,0:0|0:0,0:0:0:0:
105,171,12074,6,0,L|288:156,1,181.999991668702,6|0,0:0|0:0,0:0:0:0:
408,54,12519,2,0,L|224:40,1,181.999991668702,6|0,0:0|0:0,0:0:0:0:
78,85,12965,1,6,0:0:0:0:
289,341,13856,6,0,L|297:218,1,112,0|0,0:0|0:0,0:0:0:0:
304,145,14301,1,0,0:0:0:0:
167,229,14450,6,0,P|73:231|22:195,1,154.000004699707,2|0,0:0|0:0,0:0:0:0:
119,110,14895,2,0,B|230:101|230:101|207:104|190:117,1,154.000004699707,2|0,0:0|0:0,0:0:0:0:
325,142,15341,2,0,P|331:97|323:60,1,77.0000023498536,8|0,0:0|0:0,0:0:0:0:
253,243,15638,2,0,L|436:254,1,154.000004699707,2|0,0:0|0:0,0:0:0:0:
333,348,16084,1,2,0:0:0:0:
164,302,16232,2,0,P|156:257|156:221,1,77.0000023498536,0|0,0:0|0:0,0:0:0:0:
256,136,16529,2,0,P|264:91|264:55,1,77.0000023498536,8|0,0:0|0:0,0:0:0:0:
80,142,16826,6,0,P|49:191|72:300,1,154.000004699707,2|0,0:0|0:0,0:0:0:0:
135,366,17272,2,0,P|166:317|143:208,1,154.000004699707,2|0,0:0|0:0,0:0:0:0:
268,165,17717,2,0,P|265:209|257:257,1,77.0000023498536,8|0,0:0|0:0,0:0:0:0:
140,72,18014,2,0,L|239:61,1,77.0000023498536,2|0,0:0|0:0,0:0:0:0:
416,108,18311,2,0,L|329:102,1,77.0000023498536,2|0,0:0|0:0,0:0:0:0:
351,263,18608,1,2,0:0:0:0:
455,212,18757,1,0,0:0:0:0:
349,250,18905,1,8,0:0:0:0:
454,197,19054,1,0,0:0:0:0:
373,359,19202,6,0,P|330:362|245:277,1,154.000004699707,2|0,0:0|0:0,0:0:0:0:
207,205,19648,1,2,0:0:0:0:
326,95,19796,2,0,L|322:187,1,77.0000023498536,0|0,0:0|0:0,0:0:0:0:
199,103,20093,2,0,L|194:24,1,77.0000023498536,8|0,0:0|0:0,0:0:0:0:
426,103,20391,2,0,P|421:202|424:276,1,154.000004699707,2|0,0:0|0:0,0:0:0:0:
342,334,20836,1,2,0:0:0:0:
206,257,20985,2,0,P|246:254|285:252,1,77.0000023498536,0|0,0:0|0:0,0:0:0:0:
89,184,21282,2,0,P|136:180|171:179,1,77.0000023498536,8|0,0:0|0:0,0:0:0:0:
241,58,21579,6,0,P|306:56|425:69,1,154.000004699707,2|0,0:0|0:0,0:0:0:0:
467,175,22024,1,2,0:0:0:0:
355,233,22173,2,0,P|351:190|355:146,1,77.0000023498536,0|0,0:0|0:0,0:0:0:0:
456,292,22470,2,0,P|459:330|457:368,1,77.0000023498536,8|0,0:0|0:0,0:0:0:0:
196,292,22767,2,0,L|200:197,1,77.0000023498536,2|0,0:0|0:0,0:0:0:0:
49,147,23064,2,0,L|42:69,1,77.0000023498536,2|0,0:0|0:0,0:0:0:0:
284,153,23361,2,0,L|295:237,1,77.0000023498536,2|2,0:0|3:0,0:0:0:0:
102,329,23658,2,0,L|113:245,1,77.0000023498536,2|2,3:0|3:0,0:0:0:0:
360,297,23955,6,0,P|304:323|213:275,1,154.000004699707,2|0,0:0|0:0,0:0:0:0:
399,214,24400,2,0,P|396:290|391:370,1,154.000004699707,2|0,0:0|0:0,0:0:0:0:
293,229,24846,2,0,P|292:180|294:139,1,77.0000023498536,8|0,0:0|0:0,0:0:0:0:
93,75,25143,2,0,P|98:117|101:159,1,77.0000023498536,2|0,0:0|0:0,0:0:0:0:
180,278,25440,2,0,P|186:231|191:188,1,77.0000023498536,0|2,0:0|0:0,0:0:0:0:
24,335,25737,2,0,P|64:338|108:340,1,77.0000023498536,0|0,0:0|0:0,0:0:0:0:
347,244,26034,2,0,P|307:241|263:239,1,77.0000023498536,8|0,0:0|0:0,0:0:0:0:
137,56,26331,6,0,P|228:54|306:58,1,154.000004699707,2|0,0:0|0:0,0:0:0:0:
376,154,26777,2,0,P|285:156|207:152,1,154.000004699707,2|0,0:0|0:0,0:0:0:0:
96,150,27222,2,0,P|97:190|100:243,1,77.0000023498536,8|0,0:0|0:0,0:0:0:0:
335,253,27519,2,0,L|255:249,1,77.0000023498536,2|0,0:0|0:0,0:0:0:0:
139,334,27816,2,0,L|219:338,1,77.0000023498536,2|0,0:0|0:0,0:0:0:0:
297,165,28113,2,0,P|233:153|204:152,1,77.0000023498536,2|0,0:0|0:0,0:0:0:0:
371,344,28410,2,0,P|410:339|452:327,1,77.0000023498536,8|0,0:0|0:0,0:0:0:0:
500,97,28707,6,0,P|429:70|350:95,1,154.000004699707,2|0,0:0|0:0,0:0:0:0:
290,228,29153,1,2,0:0:0:0:
414,260,29301,2,0,P|422:211|423:172,1,77.0000023498536,0|0,0:0|0:0,0:0:0:0:
270,243,29598,2,0,P|272:281|279:319,1,77.0000023498536,8|0,0:0|0:0,0:0:0:0:
346,128,29895,2,0,P|300:114|203:162,1,154.000004699707,2|0,0:0|0:0,0:0:0:0:
100,256,30341,2,0,L|103:88,1,154.000004699707,2|0,0:0|0:0,0:0:0:0:
288,228,30787,2,0,P|237:244|203:245,1,77.0000023498536,8|0,0:0|0:0,0:0:0:0:
235,40,31084,6,0,P|315:28|379:65,1,154.000004699707,2|0,0:0|0:0,0:0:0:0:
439,211,31529,1,2,0:0:0:0:
288,228,31678,2,0,P|287:186|291:144,1,77.0000023498536,0|0,0:0|0:0,0:0:0:0:
456,228,31975,2,0,P|457:270|453:312,1,77.0000023498536,8|0,0:0|0:0,0:0:0:0:
217,351,32272,2,0,P|209:311|209:265,1,77.0000023498536,2|0,0:0|0:0,0:0:0:0:
374,146,32569,2,0,P|373:184|366:222,1,77.0000023498536,2|2,0:0|3:0,0:0:0:0:
102,301,32866,2,0,P|94:261|96:219,1,77.0000023498536,2|2,3:0|3:0,0:0:0:0:
289,35,33163,2,0,P|293:76|286:127,1,77.0000023498536,2|0,3:0|0:0,0:0:0:0:
208,274,33460,6,0,L|202:110,1,146.999995513916,4|2,0:0|0:0,0:0:0:0:
124,98,34054,2,0,L|117:213,1,97.9999970092774,0|2,3:0|0:0,0:0:0:0:
284,182,34648,2,0,P|304:116|260:45,2,146.999995513916,2|2|2,0:0|0:0|0:0,0:0:0:0:
216,231,35688,1,0,0:0:0:0:
286,329,35836,6,0,L|434:316,1,146.999995513916,2|2,0:0|0:0,0:0:0:0:
482,248,36430,2,0,P|435:231|390:244,1,97.9999970092774,0|2,3:0|0:0,0:0:0:0:
240,171,37024,2,0,L|444:150,1,195.999994018555,2|0,0:0|0:0,0:0:0:0:
299,53,37915,2,0,L|237:49,1,48.9999985046387,2|0,0:0|0:0,0:0:0:0:
136,86,38212,6,0,P|125:144|150:230,1,140,6|0,0:0|0:0,0:0:0:0:
226,290,38658,2,0,P|295:284|385:280,1,140,2|0,0:0|0:0,0:0:0:0:
277,370,39103,2,0,P|219:370|190:367,1,70,2|0,0:0|0:0,0:0:0:0:
315,187,39400,2,0,P|374:173|457:228,1,140,2|0,0:0|0:0,0:0:0:0:
349,124,39846,2,0,B|329:77|345:31|345:31|332:53|307:66,1,140,2|0,0:0|0:0,0:0:0:0:
200,146,40292,2,0,P|164:157|118:157,1,70,2|0,0:0|0:0,0:0:0:0:
291,325,40589,6,0,L|293:176,1,140,2|0,0:0|0:0,0:0:0:0:
185,237,41034,2,0,L|188:380,1,140,2|0,0:0|0:0,0:0:0:0:
393,354,41480,2,0,P|396:320|387:274,1,70,2|0,0:0|0:0,0:0:0:0:
292,185,41777,2,0,P|329:189|444:159,1,140,2|0,0:0|0:0,0:0:0:0:
347,56,42222,1,2,0:0:0:0:
218,116,42371,2,0,P|168:119|143:119,1,70,0|0,0:0|0:0,0:0:0:0:
26,196,42668,2,0,P|71:199|101:204,1,70,2|0,0:0|0:0,0:0:0:0:
314,345,42965,6,0,P|315:303|313:266,1,70,2|0,0:0|0:0,0:0:0:0:
228,82,43262,2,0,P|228:129|229:160,1,70,0|2,0:0|0:0,0:0:0:0:
407,192,43559,2,0,P|349:188|330:187,1,70,0|0,0:0|0:0,0:0:0:0:
128,249,43856,2,0,P|164:254|202:258,1,70,2|0,0:0|0:0,0:0:0:0:
402,75,44153,6,0,P|360:80|323:84,1,70,2|0,0:0|0:0,0:0:0:0:
114,57,44450,2,0,P|162:60|196:66,1,70,0|2,0:0|0:0,0:0:0:0:
277,264,44747,2,0,P|263:206|259:189,1,70,0|0,0:0|0:0,0:0:0:0:
499,39,45044,2,0,P|491:86|480:119,1,70,2|0,0:0|0:0,0:0:0:0:
155,334,45341,6,0,L|64:331,1,83.9999974365235,6|0,0:0|0:0,0:0:0:0:
358,249,45638,2,0,L|449:252,1,83.9999974365235,6|0,0:0|0:0,0:0:0:0:
134,146,45935,2,0,L|43:143,1,83.9999974365235,6|0,0:0|0:0,0:0:0:0:
387,55,46232,2,0,L|478:58,1,83.9999974365235,6|0,0:0|0:0,0:0:0:0:
256,192,46529,12,0,47420,0:0:0:0:
276,268,47717,6,0,P|178:273|85:269,1,181.999991668702,4|0,0:0|0:0,0:0:0:0:
221,117,48163,2,0,P|319:108|394:166,1,181.999991668702,4|0,0:0|0:0,0:0:0:0:
367,315,48608,2,0,P|314:329|276:330,1,90.9999958343508,8|0,0:0|0:0,0:0:0:0:
94,253,48905,1,2,0:0:0:0:
224,209,49054,1,0,0:0:0:0:
169,350,49202,1,0,0:0:0:0:
234,180,49351,1,2,0:0:0:0:
367,315,49499,2,0,P|421:323|473:315,1,90.9999958343508,0|0,0:0|0:0,0:0:0:0:
476,120,49796,2,0,L|375:134,1,90.9999958343508,8|0,0:0|0:0,0:0:0:0:
148,81,50093,6,0,P|194:49|327:61,1,181.999991668702,2|0,0:0|0:0,0:0:0:0:
251,183,50539,1,2,0:0:0:0:
87,242,50688,2,0,P|77:183|75:144,1,90.9999958343508,0|0,0:0|0:0,0:0:0:0:
269,201,50985,2,0,P|265:259|256:301,1,90.9999958343508,8|0,0:0|0:0,0:0:0:0:
161,92,51282,2,0,L|257:77,1,90.9999958343508,6|0,0:0|0:0,0:0:0:0:
501,156,51579,2,0,L|401:142,1,90.9999958343508,6|0,0:0|0:0,0:0:0:0:
126,234,51876,2,0,L|228:215,1,90.9999958343508,6|0,0:0|0:0,0:0:0:0:
414,267,52173,1,8,0:0:0:0:
328,133,52321,1,0,0:0:0:0:
298,319,52470,6,0,P|233:354|127:312,1,181.999991668702,2|0,0:0|0:0,0:0:0:0:
95,168,52915,2,0,B|82:38|82:38|91:69|110:86,1,181.999991668702,2|0,0:0|0:0,0:0:0:0:
239,187,53361,2,0,P|284:198|335:191,1,90.9999958343508,8|0,0:0|0:0,0:0:0:0:
480,55,53658,1,2,0:0:0:0:
326,92,53806,1,0,0:0:0:0:
432,172,53955,1,0,0:0:0:0:
496,40,54103,1,2,0:0:0:0:
327,193,54252,2,0,P|269:204|226:199,1,90.9999958343508,0|0,0:0|0:0,0:0:0:0:
77,76,54549,2,0,P|135:65|178:70,1,90.9999958343508,8|0,0:0|0:0,0:0:0:0:
297,297,54846,6,0,P|229:313|133:245,1,181.999991668702,2|0,0:0|0:0,0:0:0:0:
301,95,55292,1,2,0:0:0:0:
301,95,55440,2,0,L|298:203,1,90.9999958343508,0|0,0:0|0:0,0:0:0:0:
126,143,55737,2,0,L|122:52,1,90.9999958343508,8|0,0:0|0:0,0:0:0:0:
296,296,56034,6,0,L|305:352,1,45.4999979171754,4|0,0:0|0:0,0:0:0:0:
486,39,56331,2,0,L|475:95,1,45.4999979171754,4|0,0:0|0:0,0:0:0:0:
131,322,56628,2,0,L|125:266,1,45.4999979171754,4|0,0:0|0:0,0:0:0:0:
385,47,56925,2,0,P|398:106|390:148,1,90.9999958343508,4|0,0:0|0:0,0:0:0:0:
217,348,57222,6,0,P|218:264|220:165,1,181.999991668702,6|0,0:0|0:0,0:0:0:0:
73,74,57668,2,0,P|74:162|80:263,1,181.999991668702,2|0,0:0|0:0,0:0:0:0:
315,208,58113,2,0,P|325:160|313:114,1,90.9999958343508,8|0,0:0|0:0,0:0:0:0:
180,284,58410,1,2,0:0:0:0:
309,317,58559,1,0,0:0:0:0:
219,166,58707,1,0,0:0:0:0:
153,297,58856,1,2,0:0:0:0:
315,208,59004,2,0,P|381:206|430:210,1,90.9999958343508,0|0,0:0|0:0,0:0:0:0:
126,310,59301,2,0,P|60:312|11:308,1,90.9999958343508,8|0,0:0|0:0,0:0:0:0:
248,110,59598,6,0,P|311:82|406:135,1,181.999991668702,2|0,0:0|0:0,0:0:0:0:
315,208,60044,1,2,0:0:0:0:
144,164,60192,2,0,L|138:74,1,90.9999958343508,0|0,0:0|0:0,0:0:0:0:
294,241,60490,2,0,L|288:337,1,90.9999958343508,8|0,0:0|0:0,0:0:0:0:
15,307,60787,2,0,L|107:297,1,90.9999958343508,6|0,0:0|0:0,0:0:0:0:
315,208,61084,2,0,L|221:192,1,90.9999958343508,6|0,0:0|0:0,0:0:0:0:
8,114,61381,2,0,L|102:94,1,90.9999958343508,6|0,0:0|0:0,0:0:0:0:
305,103,61678,1,8,0:0:0:0:
212,20,61826,1,0,0:0:0:0:
225,192,61975,6,0,P|230:250|229:296,2,90.9999958343508,6|0|0,0:0|0:0|0:0,0:0:0:0:
40,291,62420,2,0,P|35:233|36:187,2,90.9999958343508,6|0|0,0:0|0:0|0:0,0:0:0:0:
126,133,62866,2,0,P|128:73|126:38,1,90.9999958343508,2|0,0:0|0:0,0:0:0:0:
229,282,63163,2,0,L|322:292,1,90.9999958343508,6|0,0:0|0:0,0:0:0:0:
425,350,63460,1,0,0:0:0:0:
504,176,63608,2,0,L|405:189,1,90.9999958343508,6|0,0:0|0:0,0:0:0:0:
298,111,63905,1,0,0:0:0:0:
229,282,64054,2,0,P|179:289|123:285,1,90.9999958343508,2|0,0:0|0:0,0:0:0:0:
137,94,64351,5,6,0:0:0:0:
228,189,64499,1,0,0:0:0:0:
64,181,64648,1,0,0:0:0:0:
259,191,64796,2,0,P|314:191|358:184,1,90.9999958343508,6|0,0:0|0:0,0:0:0:0:
418,68,65093,1,0,0:0:0:0:
242,218,65242,2,0,P|237:270|237:315,1,90.9999958343508,2|0,0:0|0:0,0:0:0:0:
504,150,65539,6,0,L|405:143,1,90.9999958343508,6|0,0:0|0:0,0:0:0:0:
175,65,65836,2,0,L|274:72,1,90.9999958343508,6|2,0:0|3:0,0:0:0:0:
363,252,66133,1,6,0:0:0:0:
216,225,66282,1,0,0:0:0:0:
277,100,66430,1,2,0:0:0:0:
378,277,66579,1,0,0:0:0:0:
194,196,66727,5,4,0:0:0:0:
269,64,66876,2,0,P|270:36|270:10,2,45.4999979171754,2|2|2,3:0|3:0|3:0,0:0:0:0:
110,74,67173,2,0,P|102:143|102:183,1,90.9999958343508,6|0,0:0|0:0,0:0:0:0:
15,263,67470,2,0,P|17:332|22:366,1,90.9999958343508,6|0,0:0|0:0,0:0:0:0:
290,334,67767,6,0,L|290:161,1,157.500006008148,6|0,0:0|0:0,0:0:0:0:
331,84,68361,1,0,0:0:0:0:
438,170,68509,2,0,P|441:208|440:247,2,70.0000026702882,2|2|2,0:0|0:0|0:0,0:0:0:0:
192,336,69103,6,0,P|173:246|166:155,1,167.999994873047,6|0,0:0|0:0,0:0:0:0:
264,80,69549,1,6,0:0:0:0:
346,209,69697,2,0,P|293:212|257:210,1,83.9999974365235,0|0,0:0|0:0,0:0:0:0:
64,155,69994,2,0,P|117:152|153:154,1,83.9999974365235,8|0,0:0|0:0,0:0:0:0:
292,318,70292,2,0,P|337:331|380:327,1,83.9999974365235,6|0,0:0|0:0,0:0:0:0:
483,283,70589,1,0,0:0:0:0:
393,86,70737,2,0,P|329:88|289:96,1,83.9999974365235,6|0,0:0|0:0,0:0:0:0:
210,177,71034,1,0,0:0:0:0:
95,112,71183,2,0,P|88:51|88:19,1,83.9999974365235,8|0,0:0|0:0,0:0:0:0:
226,202,71480,6,0,P|224:243|218:285,1,83.9999974365235,6|0,0:0|0:0,0:0:0:0:
111,352,71777,1,0,0:0:0:0:
17,176,71925,2,0,P|14:122|20:80,2,83.9999974365235,6|0|0,0:0|0:0|0:0,0:0:0:0:
160,85,72371,2,0,P|207:76|242:71,1,83.9999974365235,8|0,0:0|0:0,0:0:0:0:
239,330,72668,6,0,P|228:290|230:228,1,83.9999974365235,6|0,0:0|0:0,0:0:0:0:
365,60,72965,2,0,P|377:104|374:162,1,83.9999974365235,6|2,0:0|3:0,0:0:0:0:
122,336,73262,2,0,P|110:292|113:234,1,83.9999974365235,6|0,0:0|0:0,0:0:0:0:
242,54,73559,2,0,P|253:96|251:156,1,83.9999974365235,6|0,0:0|0:0,0:0:0:0:
27,297,73856,6,0,P|21:218|15:108,1,167.999994873047,4|0,0:0|0:0,0:0:0:0:
155,44,74301,1,6,0:0:0:0:
154,202,74450,2,0,P|196:205|244:204,1,83.9999974365235,0|0,0:0|0:0,0:0:0:0:
367,78,74747,2,0,P|325:76|270:77,1,83.9999974365235,8|0,0:0|0:0,0:0:0:0:
350,261,75044,5,6,0:0:0:0:
436,163,75193,1,2,3:0:0:0:
436,163,75267,1,2,3:0:0:0:
436,163,75341,1,2,3:0:0:0:
331,149,75490,1,6,0:0:0:0:
252,217,75638,1,0,3:0:0:0:
152,190,75787,1,2,0:0:0:0:
85,319,75935,2,0,P|123:327|174:326,1,83.9999974365235,2|2,0:0|0:0,0:0:0:0:
405,140,76232,6,0,L|234:121,1,167.999994873047,6|0,0:0|0:0,0:0:0:0:
191,214,76678,2,0,P|239:220|287:218,1,83.9999974365235,4|0,0:0|0:0,0:0:0:0:
454,47,76975,2,0,P|406:41|364:43,1,83.9999974365235,4|0,0:0|0:0,0:0:0:0:
238,121,77272,1,0,0:0:0:0:
64,50,77420,2,0,P|56:150|55:227,1,167.999994873047,6|0,0:0|0:0,0:0:0:0:
239,204,77866,2,0,P|239:142|236:112,1,83.9999974365235,4|0,0:0|0:0,0:0:0:0:
145,290,78163,2,0,P|142:331|143:373,1,83.9999974365235,4|2,0:0|0:0,0:0:0:0:
254,339,78460,1,0,0:0:0:0:
161,163,78608,5,4,0:0:0:0:
64,256,78757,1,4,0:0:0:0:
448,256,79054,1,4,0:0:0:0:
64,128,79351,1,4,0:0:0:0:
448,128,79648,5,4,0:0:0:0:
256,192,79722,12,0,80688,0:0:0:0:
