osu file format v14

[General]
AudioFilename: audio.mp3
AudioLeadIn: 0
PreviewTime: 46603
Countdown: 0
SampleSet: Soft
StackLeniency: 0.7
Mode: 0
LetterboxInBreaks: 0
WidescreenStoryboard: 0

[Editor]
Bookmarks: 193,14450,33460,57222,69103,79796
DistanceSpacing: 1
BeatDivisor: 4
GridSize: 4
TimelineZoom: 2.3

[Metadata]
Title:Responsibility Response
TitleUnicode:Responsibility Response
Artist:Izumi Akazawa (CV. Madoka Yonezawa)
ArtistUnicode:赤沢泉美(CV.米澤 円)
Creator:Shmiklak
Version:Yaleufeu's Normal
Source:Another
Tags:slayed fcl wajinshu -bakari- deppyforce salsa vanucik5656 themefisto fanteer yaleufeu lama_poluna lama poluna tropical collab collaboration vanucik
BeatmapID:1077992
BeatmapSetID:495332

[Difficulty]
HPDrainRate:3
CircleSize:3
OverallDifficulty:3
ApproachRate:4
SliderMultiplier:0.8
SliderTickRate:1

[Events]
//Background and Video events
0,0,"shmiklakgey.jpg",0,0
//Break Periods
//Storyboard Layer 0 (Background)
//Storyboard Layer 1 (Fail)
//Storyboard Layer 2 (Pass)
//Storyboard Layer 3 (Foreground)
//Storyboard Sound Samples

[TimingPoints]
193,297.029702970297,4,2,1,70,1,0
267,-100,4,2,1,70,0,0
4945,-100,4,2,1,70,0,0
14450,-100,4,2,1,70,0,0
33460,-100,4,2,0,70,0,0
38212,-100,4,2,1,70,0,0
47717,-100,4,2,1,70,0,1
69103,-100,4,2,1,70,0,0

[Colours]
Combo1 : 17,254,176
Combo2 : 173,255,95
Combo3 : 255,88,100
Combo4 : 255,94,55

[HitObjects]
104,132,193,6,0,P|127:83|203:58,1,120,2|2,0:0|0:0,0:0:0:0:
190,144,935,1,2,0:0:0:0:
272,175,1232,2,0,P|311:174|347:157,1,80,2|2,0:0|0:0,0:0:0:0:
401,88,1826,2,0,P|431:132|425:197,1,120,2|2,0:0|0:0,0:0:0:0:
376,272,2569,6,0,P|320:260|248:280,1,120,2|2,0:0|0:0,0:0:0:0:
196,332,3311,1,2,0:0:0:0:
128,276,3608,2,0,P|68:248|44:188,1,120,2|2,0:0|3:0,0:0:0:0:
78,118,4351,2,0,P|112:99|152:97,1,80,2|0,3:0|0:0,0:0:0:0:
137,184,4945,6,0,P|194:174|231:128,2,120,6|2|2,0:0|0:0|0:0,0:0:0:0:
152,97,6133,2,0,P|200:48|260:44,1,120,2|2,0:0|0:0,0:0:0:0:
376,220,7321,6,0,B|316:220|316:220|244:200,2,120,2|2|2,0:0|0:0|0:0,0:0:0:0:
336,140,8509,2,0,B|276:124|276:124|216:124,1,120,2|0,0:0|3:0,0:0:0:0:
98,309,9697,6,0,P|51:275|37:217,2,120,2|2|2,0:0|0:0|0:0,0:0:0:0:
124,225,10886,2,0,P|182:284|185:330,2,120,2|2|2,0:0|0:0|0:0,0:0:0:0:
92,144,12074,5,2,0:0:0:0:
92,12,12519,1,2,0:0:0:0:
208,76,12965,1,2,0:0:0:0:
64,324,14450,6,0,P|76:276|68:232,1,80,2|0,0:0|0:0,0:0:0:0:
88,204,14895,2,0,P|136:208|208:176,1,120,2|8,0:0|0:0,0:0:0:0:
240,100,15638,2,0,P|284:88|320:96,1,80,2|0,0:0|0:0,0:0:0:0:
344,128,16084,2,0,P|340:176|380:252,1,120,2|8,0:0|0:0,0:0:0:0:
412,324,16826,6,0,B|368:340|328:320,1,80,2|0,0:0|0:0,0:0:0:0:
292,308,17272,2,0,P|240:300|172:340,1,120,2|8,0:0|0:0,0:0:0:0:
96,308,18014,2,0,L|80:216,1,80,2|2,0:0|0:0,0:0:0:0:
68,144,18608,1,2,0:0:0:0:
56,56,18905,1,8,0:0:0:0:
140,88,19202,6,0,P|184:92|232:88,1,80,2|0,0:0|0:0,0:0:0:0:
264,76,19648,2,0,P|282:132|323:175,1,120,2|8,0:0|0:0,0:0:0:0:
404,132,20391,2,0,P|416:184|408:212,1,80,2|0,0:0|0:0,0:0:0:0:
384,244,20836,2,0,P|388:284|424:368,1,120,2|8,0:0|0:0,0:0:0:0:
328,376,21579,6,0,P|288:368|248:376,1,80,2|0,0:0|0:0,0:0:0:0:
208,360,22024,2,0,P|156:344|100:292,1,120,2|8,0:0|0:0,0:0:0:0:
84,216,22767,2,0,L|168:172,1,80,2|2,0:0|0:0,0:0:0:0:
172,92,23361,2,0,L|260:112,1,80,2|2,0:0|3:0,0:0:0:0:
320,56,23955,6,0,P|360:52|408:72,1,80,2|0,0:0|0:0,0:0:0:0:
428,96,24400,2,0,P|432:140|416:216,1,120,2|8,0:0|0:0,0:0:0:0:
340,172,25143,2,0,P|300:168|260:172,1,80,2|0,0:0|0:0,0:0:0:0:
232,208,25589,2,0,P|232:256|260:328,1,120,2|8,0:0|0:0,0:0:0:0:
176,356,26331,6,0,P|152:304|148:272,1,80,2|0,0:0|0:0,0:0:0:0:
148,236,26777,2,0,P|148:192|124:116,1,120,2|8,0:0|0:0,0:0:0:0:
52,68,27519,1,2,0:0:0:0:
36,156,27816,1,2,0:0:0:0:
36,244,28113,2,0,L|48:332,1,80,2|8,0:0|0:0,0:0:0:0:
128,352,28707,6,0,P|184:360|212:352,1,80,2|0,0:0|0:0,0:0:0:0:
248,344,29153,2,0,P|288:336|372:360,1,120,2|8,0:0|0:0,0:0:0:0:
444,324,29895,2,0,P|448:312|440:240,1,80,2|0,0:0|0:0,0:0:0:0:
420,208,30341,2,0,P|412:168|436:84,1,120,2|8,0:0|0:0,0:0:0:0:
348,60,31084,6,0,P|320:48|256:52,1,80,2|0,0:0|0:0,0:0:0:0:
232,64,31529,2,0,P|192:48|116:48,1,120,2|8,0:0|0:0,0:0:0:0:
128,136,32272,2,0,L|132:228,1,80,2|2,0:0|0:0,0:0:0:0:
216,240,32866,2,0,L|212:160,1,80,2|2,3:0|3:0,0:0:0:0:
268,84,33460,6,0,P|316:84|376:140,2,120,4|2|2,0:0|0:0|0:0,0:0:0:0:
292,168,34648,2,0,P|319:220|307:278,2,120,2|2|2,0:0|0:0|0:0,0:0:0:0:
232,232,35836,6,0,P|200:288|128:304,2,120,2|2|2,0:0|0:0|0:0,0:0:0:0:
144,220,37024,2,0,P|164:144|140:56,1,160,2|0,0:0|0:0,0:0:0:0:
72,16,37915,1,2,0:0:0:0:
12,80,38212,6,0,L|12:168,1,80,6|0,0:0|0:0,0:0:0:0:
56,164,38658,2,0,L|56:292,1,120,2|2,0:0|0:0,0:0:0:0:
108,356,39400,2,0,L|196:356,1,80,2|0,0:0|0:0,0:0:0:0:
188,312,39846,2,0,L|308:312,1,120,2|2,0:0|0:0,0:0:0:0:
376,371,40589,6,0,P|398:317|382:260,1,120,2|2,0:0|0:0,0:0:0:0:
464,156,41480,2,0,P|408:124|352:120,1,120,2|0,0:0|0:0,0:0:0:0:
312,132,42074,2,0,P|256:144|216:136,1,80
148,124,42668,1,2,0:0:0:0:
124,208,42965,6,0,P|112:240|124:292,1,80,2|0,0:0|0:0,0:0:0:0:
200,252,43559,2,0,P|212:208|196:160,1,80,0|2,0:0|0:0,0:0:0:0:
292,176,44153,2,0,P|324:188|376:176,1,80,2|0,0:0|0:0,0:0:0:0:
336,100,44747,2,0,P|292:88|244:104,1,80,0|2,0:0|0:0,0:0:0:0:
216,172,45341,5,6,0:0:0:0:
248,256,45638,1,6,0:0:0:0:
336,256,45935,1,6,0:0:0:0:
368,340,46232,1,6,0:0:0:0:
500,332,46678,2,0,L|500:236,1,80,0|2,0:0|0:3,0:0:0:0:
500,208,47123,1,2,0:3:0:0:
456,132,47420,1,0,0:0:0:0:
408,204,47717,6,0,P|364:208|316:200,1,80,4|0,0:0|0:0,0:0:0:0:
300,172,48163,2,0,P|248:180|216:200,1,80,4|0,0:0|0:0,0:0:0:0:
196,224,48608,1,8,0:0:0:0:
147,297,48905,2,0,P|110:241|119:181,1,120,2|8,0:0|0:0,0:0:0:0:
132,155,49499,2,0,P|145:117|143:77,1,80,2|8,0:0|0:0,0:0:0:0:
209,22,50093,6,0,L|297:22,1,80,2|0,0:0|0:0,0:0:0:0:
308,62,50539,2,0,P|356:58|392:38,1,80,2|0,0:0|0:0,0:0:0:0:
421,20,50985,1,8,0:0:0:0:
492,71,51282,2,0,L|480:155,1,80,2|2,0:0|0:0,0:0:0:0:
408,192,51876,2,0,L|444:268,1,80,2|8,0:0|0:0,0:0:0:0:
448,352,52470,6,0,L|368:336,1,80,2|0,0:0|0:0,0:0:0:0:
328,328,52915,2,0,L|210:353,1,120,2|8,0:0|0:0,0:0:0:0:
176,276,53658,2,0,P|148:304|128:352,1,80,2|0,0:0|0:0,0:0:0:0:
92,356,54103,2,0,P|68:324|64:268,1,80,2|0,0:0|0:0,0:0:0:0:
58,241,54549,1,8,0:0:0:0:
16,164,54846,6,0,P|20:100|32:72,1,80,2|0,0:0|0:0,0:0:0:0:
40,44,55292,2,0,P|84:45|164:12,1,120,2|8,0:0|0:0,0:0:0:0:
232,68,56034,1,4,0:0:0:0:
304,20,56331,1,4,0:0:0:0:
316,108,56628,1,4,0:0:0:0:
364,184,56925,1,4,0:0:0:0:
416,112,57222,6,0,P|444:152|452:196,1,80,6|0,0:0|0:0,0:0:0:0:
488,204,57668,2,0,P|482:246|488:288,1,80,2|0,0:0|0:0,0:0:0:0:
504,324,58113,1,8,0:0:0:0:
420,344,58410,2,0,P|376:336|332:344,1,80,2|0,0:0|0:0,0:0:0:0:
300,348,58856,2,0,P|256:352|212:344,1,80,2|0,0:0|0:0,0:0:0:0:
180,336,59301,1,8,0:0:0:0:
136,260,59598,6,0,P|96:268|52:260,1,80,2|0,0:0|0:0,0:0:0:0:
32,228,60044,2,0,P|12:184|12:108,1,120,2|8,0:0|0:0,0:0:0:0:
100,108,60787,2,0,L|184:124,1,80,2|2,0:0|0:0,0:0:0:0:
235,189,61381,2,0,L|151:213,1,80,2|8,0:0|0:0,0:0:0:0:
124,288,61975,6,0,P|168:300|200:328,1,80,6|0,0:0|0:0,0:0:0:0:
240,320,62420,2,0,P|288:316|356:352,1,120,6|2,0:0|0:0,0:0:0:0:
440,352,63163,2,0,P|428:308|404:280,1,80,6|0,0:0|0:0,0:0:0:0:
404,240,63608,2,0,P|412:192|372:128,1,120,6|2,0:0|0:0,0:0:0:0:
324,204,64351,6,0,P|272:216|232:208,1,80,6|0,0:0|0:0,0:0:0:0:
204,204,64796,2,0,P|168:156|172:96,1,120,6|2,0:0|0:0,0:0:0:0:
208,20,65539,1,6,0:0:0:0:
260,92,65836,1,6,0:0:0:0:
348,92,66133,1,6,0:0:0:0:
396,20,66430,1,0,0:0:0:0:
456,84,66727,6,0,L|500:164,1,80,4|2,0:0|3:0,0:0:0:0:
492,200,67173,1,6,0:0:0:0:
440,268,67470,1,6,0:0:0:0:
356,240,67767,1,6,0:0:0:0:
52,344,69103,6,0,P|108:336|140:316,1,80,6|0,0:0|0:0,0:0:0:0:
160,296,69549,2,0,P|204:264|272:236,1,120,2|8,0:0|0:0,0:0:0:0:
296,320,70292,2,0,P|336:320|380:332,1,80,2|0,0:0|0:0,0:0:0:0:
412,352,70737,2,0,P|448:320|452:244,1,120,2|8,0:0|0:0,0:0:0:0:
440,164,71480,6,0,P|420:116|420:80,1,80,2|0,0:0|0:0,0:0:0:0:
404,48,71925,2,0,P|368:56|280:32,1,120,2|8,0:0|0:0,0:0:0:0:
236,112,72668,1,6,0:0:0:0:
188,184,72965,1,6,0:0:0:0:
120,128,73262,1,6,0:0:0:0:
64,60,73559,1,6,0:0:0:0:
16,132,73856,6,0,L|16:220,1,80,4|0,0:0|0:0,0:0:0:0:
20,256,74301,2,0,P|76:264|104:280,1,80,2|0,0:0|0:0,0:0:0:0:
132,300,74747,1,8,0:0:0:0:
192,364,75044,2,0,P|240:360|272:344,1,80,2|2,0:0|3:0,0:0:0:0:
272,304,75490,2,0,P|308:296|360:304,1,80,2|2,0:0|0:0,0:0:0:0:
392,316,75935,1,2,0:0:0:0:
436,240,76232,6,0,P|424:176|432:116,1,120,6|4,0:0|0:0,0:0:0:0:
456,36,76975,1,4,0:0:0:0:
332,80,77420,2,0,P|320:144|328:204,1,120,6|4,0:0|0:0,0:0:0:0:
356,280,78163,1,4,0:0:0:0:
228,312,78608,6,0,L|176:332,1,40,4|4,0:0|0:0,0:0:0:0:
108,352,79054,1,4,0:0:0:0:
60,276,79351,1,4,0:0:0:0:
60,188,79648,2,0,P|112:100|204:76,1,200,4|2,0:0|0:0,0:0:0:0:
