osu file format v14

[General]
AudioFilename: audio.mp3
AudioLeadIn: 0
PreviewTime: 46603
Countdown: 0
SampleSet: Soft
StackLeniency: 0.7
Mode: 0
LetterboxInBreaks: 0
WidescreenStoryboard: 0

[Editor]
Bookmarks: 193,14450,33460,57222,69103,79796
DistanceSpacing: 1
BeatDivisor: 4
GridSize: 4
TimelineZoom: 2.3

[Metadata]
Title:Responsibility Response
TitleUnicode:Responsibility Response
Artist:Izumi Akazawa (CV. Madoka Yonezawa)
ArtistUnicode:赤沢泉美(CV.米澤 円)
Creator:Shmiklak
Version:Wajiklak's Advanced
Source:Another
Tags:slayed fcl wajinshu -bakari- deppyforce salsa vanucik5656 themefisto fanteer yaleufeu lama_poluna lama poluna tropical collab collaboration vanucik
BeatmapID:1058950
BeatmapSetID:495332

[Difficulty]
HPDrainRate:4
CircleSize:3.5
OverallDifficulty:4
ApproachRate:5.5
SliderMultiplier:1
SliderTickRate:1

[Events]
//Background and Video events
0,0,"shmiklakgey.jpg",0,0
//Break Periods
//Storyboard Layer 0 (Background)
//Storyboard Layer 1 (Fail)
//Storyboard Layer 2 (Pass)
//Storyboard Layer 3 (Foreground)
//Storyboard Sound Samples

[TimingPoints]
193,297.029702970297,4,2,1,70,1,0
267,-100,4,2,0,70,0,0
4054,-100,4,2,1,70,0,0
33460,-100,4,2,0,70,0,0
38212,-100,4,2,1,70,0,0
47717,-76.9230769230769,4,2,1,70,0,1
69103,-76.9230769230769,4,2,1,70,0,0

[Colours]
Combo1 : 17,254,176
Combo2 : 173,255,95
Combo3 : 255,88,100
Combo4 : 255,94,55

[HitObjects]
136,92,193,6,0,L|300:84,1,150,2|2,0:0|0:0,0:0:0:0:
372,136,935,2,0,L|384:252,1,100,2|2,0:0|0:0,0:0:0:0:
311,306,1529,2,0,L|211:295,1,100,2|2,0:0|0:0,0:0:0:0:
448,376,2569,6,0,P|472:300|436:236,1,150,2|2,0:0|0:0,0:0:0:0:
352,200,3311,2,0,L|348:88,1,100,2|2,0:0|0:0,0:0:0:0:
198,100,4054,2,0,P|142:180|222:200,1,200,2|0,3:0|0:0,0:0:0:0:
312,204,4945,6,0,L|476:196,1,150,6|6,0:0|0:0,0:0:0:0:
336,280,5836,2,0,P|266:272|240:236,1,100,6|6,0:0|0:0,0:0:0:0:
200,112,6579,1,6,0:0:0:0:
397,260,7321,6,0,L|233:252,1,150,6|6,0:0|0:0,0:0:0:0:
373,336,8212,2,0,P|443:328|469:292,1,100,6|6,0:0|0:0,0:0:0:0:
509,168,8955,1,4,0:0:0:0:
276,76,9697,6,0,L|112:80,1,150,6|6,0:0|0:0,0:0:0:0:
16,184,10589,2,0,L|121:182,1,100,6|6,0:0|0:0,0:0:0:0:
247,252,11331,1,6,0:0:0:0:
382,187,11777,1,6,0:0:0:0:
311,116,12074,6,0,L|152:104,1,150,6|6,0:0|0:0,0:0:0:0:
55,210,12965,1,6,0:0:0:0:
172,160,14450,6,0,P|192:232|180:268,1,100,2|0,0:0|0:0,0:0:0:0:
148,288,14895,2,0,P|224:280|264:288,1,100,2|0,0:0|0:0,0:0:0:0:
340,316,15490,1,0,0:0:0:0:
340,316,15638,2,0,L|344:200,1,100,2|0,0:0|0:0,0:0:0:0:
340,168,16084,2,0,P|392:168|440:144,1,100,2|0,0:0|0:0,0:0:0:0:
364,76,16678,1,0,0:0:0:0:
364,76,16826,6,0,P|304:64|264:80,1,100,2|0,0:0|0:0,0:0:0:0:
232,112,17272,2,0,P|244:164|232:212,1,100,2|0,0:0|0:0,0:0:0:0:
156,268,17866,1,0,0:0:0:0:
156,268,18014,2,0,P|120:244|60:236,2,100,2|2|2,0:0|0:0|0:0,0:0:0:0:
220,344,18905,1,8,0:0:0:0:
316,320,19202,6,0,P|409:315|432:310,1,100,2|0,0:0|0:0,0:0:0:0:
436,268,19648,2,0,P|428:225|429:155,1,100,2|0,0:0|0:0,0:0:0:0:
428,120,20093,1,8,0:0:0:0:
357,49,20391,2,0,P|290:52|244:45,1,100,2|0,0:0|0:0,0:0:0:0:
216,24,20836,2,0,P|219:91|206:142,1,100,2|0,0:0|0:0,0:0:0:0:
229,170,21282,1,8,0:0:0:0:
176,256,21579,6,0,P|224:268|261:301,1,100,2|0,0:0|0:0,0:0:0:0:
304,276,22024,2,0,P|306:226|332:184,1,100,2|0,0:0|0:0,0:0:0:0:
300,89,22618,1,0,0:0:0:0:
300,89,22767,2,0,B|345:78|345:78|405:86,2,100,2|2|2,0:0|0:0|0:0,0:0:0:0:
208,128,23658,1,2,3:0:0:0:
125,184,23955,6,0,B|136:216|136:216|136:256|121:288,1,100,2|0,0:0|0:0,0:0:0:0:
84,312,24400,2,0,P|140:304|193:321,1,100,2|0,0:0|0:0,0:0:0:0:
281,361,24994,1,0,0:0:0:0:
281,361,25143,2,0,P|281:293|288:260,1,100,2|0,0:0|0:0,0:0:0:0:
345,180,25737,1,0,0:0:0:0:
411,254,26034,1,8,0:0:0:0:
437,157,26331,6,0,P|408:109|361:86,1,100,2|0,0:0|0:0,0:0:0:0:
320,82,26777,2,0,P|263:84|217:79,1,100,2|0,0:0|0:0,0:0:0:0:
126,44,27371,1,0,0:0:0:0:
126,44,27519,2,0,P|125:115|119:154,1,100,2|2,0:0|0:0,0:0:0:0:
93,239,28113,1,2,0:0:0:0:
165,307,28410,1,8,0:0:0:0:
264,313,28707,6,0,B|334:309|384:318,1,100,2|0,0:0|0:0,0:0:0:0:
412,327,29153,2,0,B|424:276|428:220,1,100,2|0,0:0|0:0,0:0:0:0:
462,136,29747,1,0,0:0:0:0:
462,136,29895,2,0,L|343:147,1,100,2|0,0:0|0:0,0:0:0:0:
312,144,30341,2,0,L|204:133,1,100,2|0,0:0|0:0,0:0:0:0:
167,110,30787,1,8,0:0:0:0:
135,204,31084,6,0,P|178:233|243:233,1,100,2|0,0:0|0:0,0:0:0:0:
273,228,31529,2,0,P|291:285|283:334,1,100,2|0,0:0|0:0,0:0:0:0:
186,327,32123,1,0,0:0:0:0:
186,327,32272,2,0,L|66:324,1,100,2|2,0:0|0:0,0:0:0:0:
4,264,32866,1,2,3:0:0:0:
80,196,33163,1,2,3:0:0:0:
48,100,33460,6,0,L|260:84,1,200,4|0,0:0|3:0,0:0:0:0:
340,258,34648,2,0,L|140:242,2,200,2|0|2,0:0|3:0|0:0,0:0:0:0:
340,258,37024,1,2,0:0:0:0:
340,258,38212,6,0,P|424:216|444:160,2,150,6|2|2,0:0|0:0|0:0,0:0:0:0:
260,200,39400,2,0,P|180:194|92:218,1,150,2|2,0:0|0:0,0:0:0:0:
20,328,40292,1,2,0:0:0:0:
116,360,40589,2,0,P|172:368|288:364,2,150,2|2|2,0:0|0:0|0:0,0:0:0:0:
20,328,41777,2,0,P|84:304|104:216,1,150,2|2,0:0|0:0,0:0:0:0:
40,96,42668,1,2,0:0:0:0:
40,96,42965,6,0,L|152:80,1,100,2|0,0:0|0:0,0:0:0:0:
209,152,43559,2,0,L|307:166,1,100,0|2,0:0|0:0,0:0:0:0:
400,132,44153,1,2,0:0:0:0:
480,188,44450,1,0,0:0:0:0:
464,288,44747,2,0,P|404:340|380:348,1,100,0|2,0:0|0:0,0:0:0:0:
256,192,45341,12,0,46678,0:0:0:0:
24,244,47717,6,0,P|88:240|164:212,1,129.999994049073,4|0,0:0|0:0,0:0:0:0:
208,188,48163,2,0,P|264:168|388:244,1,194.999991073609,4|8,0:0|0:0,0:0:0:0:
484,304,48905,2,0,P|508:224|500:180,1,129.999994049073,2|0,0:0|0:0,0:0:0:0:
472,120,49351,1,2,0:0:0:0:
288,56,49796,1,8,0:0:0:0:
236,176,50093,6,0,P|196:204|112:200,1,129.999994049073,2|0,0:0|0:0,0:0:0:0:
60,176,50539,2,0,P|16:196|20:336,1,194.999991073609,2|8,0:0|0:0,0:0:0:0:
136,300,51282,2,0,P|200:292|272:316,1,129.999994049073,6|6,0:0|0:0,0:0:0:0:
312,348,51727,1,0,0:0:0:0:
372,320,51876,2,0,P|400:308|448:316,2,64.9999970245363,6|0|8,0:0|0:0|0:0,0:0:0:0:
424,200,52470,6,0,P|364:223|304:203,1,129.999994049073,2|0,0:0|0:0,0:0:0:0:
248,168,52915,2,0,P|248:84|148:12,1,194.999991073609,2|8,0:0|0:0,0:0:0:0:
68,100,53658,2,0,P|59:163|86:221,1,129.999994049073,2|0,0:0|0:0,0:0:0:0:
140,256,54103,2,0,P|200:264|228:256,1,64.9999970245363,2|0,0:0|0:0,0:0:0:0:
268,256,54400,2,0,P|328:248|356:256,1,64.9999970245363,0|8,0:0|0:0,0:0:0:0:
444,316,54846,6,0,P|416:228|452:128,1,194.999991073609,2|2,0:0|0:0,0:0:0:0:
504,100,55440,2,0,P|444:112|388:72,1,129.999994049073,0|8,0:0|0:0,0:0:0:0:
259,75,56034,2,0,L|119:83,1,129.999994049073,4|4,0:0|0:0,0:0:0:0:
37,174,56628,2,0,L|177:182,1,129.999994049073,4|4,0:0|0:0,0:0:0:0:
294,204,57222,6,0,B|336:220|336:220|370:315,1,129.999994049073,6|0,0:0|0:0,0:0:0:0:
324,352,57668,2,0,B|260:336|260:336|179:352,1,129.999994049073,2|0,0:0|0:0,0:0:0:0:
132,348,58113,1,8,0:0:0:0:
40,256,58410,2,0,B|47:210|47:210|35:124,1,129.999994049073,2|0,0:0|0:0,0:0:0:0:
24,64,58856,2,0,B|85:72|85:72|152:56,1,129.999994049073,2|0,0:0|0:0,0:0:0:0:
196,8,59301,1,8,0:0:0:0:
260,120,59598,6,0,B|245:197|285:177|262:274,1,129.999994049073,2|0,0:0|0:0,0:0:0:0:
256,312,60044,2,0,B|316:320|316:320|396:304,1,129.999994049073,2|0,0:0|0:0,0:0:0:0:
444,284,60490,1,8,0:0:0:0:
436,152,60787,2,0,P|393:133|360:133,1,64.9999970245363,6|0,0:0|0:0,0:0:0:0:
320,99,61084,2,0,P|288:104|259:119,1,64.9999970245363,6|0,0:0|0:0,0:0:0:0:
208,160,61381,1,6,0:0:0:0:
80,172,61678,1,8,0:0:0:0:
8,284,61975,6,0,B|52:272|52:272|92:283|148:288,1,129.999994049073,6|0,0:0|0:0,0:0:0:0:
196,304,62420,2,0,B|240:316|240:316|280:304|336:300,1,129.999994049073,6|0,0:0|0:0,0:0:0:0:
440,244,63014,1,0,0:0:0:0:
440,244,63163,2,0,B|445:178|445:178|426:112,1,129.999994049073,6|0,0:0|0:0,0:0:0:0:
408,52,63608,2,0,B|344:64|344:64|271:46,1,129.999994049073,6|0,0:0|0:0,0:0:0:0:
220,20,64054,1,2,0:0:0:0:
112,92,64351,6,0,P|128:186|120:236,1,129.999994049073,6|0,0:0|0:0,0:0:0:0:
87,272,64796,2,0,P|173:254|221:280,1,129.999994049073,6|0,0:0|0:0,0:0:0:0:
324,332,65391,1,0,0:0:0:0:
324,332,65539,2,0,B|372:333|372:333|408:320|408:320|458:321,1,129.999994049073,6|6,0:0|0:0,0:0:0:0:
500,204,66133,1,6,0:0:0:0:
396,124,66430,1,2,0:0:0:0:
267,147,66727,6,0,B|226:150|226:150|184:172|184:172|114:180,1,129.999994049073,4|2,0:0|3:0,0:0:0:0:
76,184,67173,1,6,0:0:0:0:
80,312,67470,1,6,0:0:0:0:
204,356,67767,1,6,0:0:0:0:
444,140,68509,2,0,B|456:184|456:184|492:228,2,86.6666626993817,2|2|2,0:0|0:0|0:0,0:0:0:0:
392,60,69103,6,0,P|348:64|260:60,1,129.999994049073,6|0,0:0|0:0,0:0:0:0:
200,44,69549,2,0,P|152:40|80:92,1,129.999994049073,6|0,0:0|0:0,0:0:0:0:
180,172,70143,2,0,L|200:312,2,129.999994049073,0|0|6,0:0|0:0|0:0,0:0:0:0:
180,172,71480,6,0,L|336:184,1,129.999994049073,6|0,0:0|0:0,0:0:0:0:
352,232,71925,2,0,P|352:172|400:112,2,129.999994049073,6|0|0,0:0|0:0|0:0,0:0:0:0:
380,292,72668,2,0,P|312:280|256:304,1,129.999994049073,6|6,0:0|0:0,0:0:0:0:
136,344,73262,2,0,P|80:296|72:244,1,129.999994049073,6|6,0:0|0:0,0:0:0:0:
16,128,73856,6,0,P|60:124|148:128,1,129.999994049073,4|0,0:0|0:0,0:0:0:0:
204,156,74302,2,0,P|252:160|324:108,1,129.999994049073,6|0,0:0|0:0,0:0:0:0:
444,152,74896,2,0,L|424:12,2,129.999994049073,0|2|6,0:0|3:0|0:0,0:0:0:0:
180,340,76233,6,0,L|24:328,1,129.999994049073,6|0,0:0|0:0,0:0:0:0:
32,268,76678,2,0,P|32:208|80:148,2,129.999994049073,4|4|0,0:0|0:0|0:0,0:0:0:0:
50,330,77421,2,0,P|118:342|174:318,1,129.999994049073,6|0,0:0|0:0,0:0:0:0:
216,272,77866,2,0,P|275:248|338:261,1,129.999994049073,4|4,0:0|0:0,0:0:0:0:
512,176,78608,6,0,P|504:60|420:36,1,194.999991073609,4|4,0:0|0:0,0:0:0:0:
328,96,79351,1,4,0:0:0:0:
384,212,79648,2,0,B|248:175|248:175|188:128|188:128|140:56|64:48|8:72|-8:156,1,454.999979171754,4|0,0:0|0:0,0:0:0:0:
