osu file format v14

[General]
AudioFilename: audio.mp3
AudioLeadIn: 0
PreviewTime: 46603
Countdown: 0
SampleSet: Soft
StackLeniency: 0.7
Mode: 0
LetterboxInBreaks: 0
WidescreenStoryboard: 0

[Editor]
Bookmarks: 4945,56034,75044
DistanceSpacing: 1.3
BeatDivisor: 4
GridSize: 8
TimelineZoom: 2.199999

[Metadata]
Title:Responsibility Response
TitleUnicode:Responsibility Response
Artist:Izumi Akazawa (CV. Madoka Yonezawa)
ArtistUnicode:赤沢泉美(CV.米澤 円)
Creator:Shmiklak
Version:Waji's Extra
Source:Another
Tags:slayed fcl wajinshu -bakari- deppyforce salsa vanucik5656 themefisto fanteer yaleufeu lama_poluna lama poluna tropical collab collaboration vanucik
BeatmapID:1054503
BeatmapSetID:495332

[Difficulty]
HPDrainRate:6
CircleSize:4
OverallDifficulty:8.5
ApproachRate:9.3
SliderMultiplier:1.6
SliderTickRate:1

[Events]
//Background and Video events
0,0,"shmiklakgey.jpg",0,0
//Break Periods
//Storyboard Layer 0 (Background)
//Storyboard Layer 1 (Fail)
//Storyboard Layer 2 (Pass)
//Storyboard Layer 3 (Foreground)
//Storyboard Sound Samples

[TimingPoints]
193,297.029702970297,4,2,0,70,1,0
193,-133.333333333333,4,2,0,70,0,0
4945,-90.9090909090909,4,2,1,70,0,0
13856,-133.333333333333,4,2,1,70,0,0
14450,-100,4,2,1,70,0,0
33163,-181.818181818181,4,2,1,70,0,0
33460,-153.846153846153,4,2,0,70,0,0
38212,-100,4,2,1,70,0,0
46678,-153.846153846153,4,2,1,70,0,0
47717,-90.9090909090909,4,2,1,70,0,1
56925,-133.333333333333,4,2,1,70,0,1
57222,-90.9090909090909,4,2,1,70,0,1
61975,-83.3333333333333,4,2,1,70,0,1
67767,-200,4,2,1,70,0,1
68509,-133.333333333333,4,2,1,70,0,0
69103,-100,4,2,1,70,0,0
79648,-66.6666666666667,4,2,1,70,0,0

[Colours]
Combo1 : 17,254,176
Combo2 : 173,255,95
Combo3 : 255,88,100
Combo4 : 255,94,55

[HitObjects]
248,152,193,5,2,0:0:0:0:
291,44,341,1,0,0:0:0:0:
390,192,490,1,2,0:0:0:0:
248,152,638,2,0,P|192:155|113:150,1,120.000004577637,2|2,0:0|0:0,0:0:0:0:
41,93,1084,1,0,0:0:0:0:
122,239,1232,6,0,P|136:280|142:322,1,60.0000022888184,2|0,0:0|0:0,0:0:0:0:
249,369,1529,2,0,P|255:339|266:311,1,60.0000022888184,2|0,0:0|0:0,0:0:0:0:
358,218,1826,2,0,P|360:102|363:73,1,120.000004577637,2|0,0:0|0:0,0:0:0:0:
478,195,2272,1,2,0:0:0:0:
360,98,2420,1,0,0:0:0:0:
212,48,2569,6,0,P|106:48|72:44,1,120.000004577637,2|2,0:0|0:0,0:0:0:0:
0,146,3014,2,0,P|106:146|140:150,1,120.000004577637,2|2,0:0|0:0,0:0:0:0:
212,210,3460,1,0,0:0:0:0:
284,301,3608,6,0,P|400:298|430:291,1,120.000004577637,2|2,0:0|0:0,0:0:0:0:
482,195,4054,1,2,3:0:0:0:
449,368,4202,1,2,3:0:0:0:
346,186,4351,5,2,3:0:0:0:
316,197,4648,1,0,0:0:0:0:
287,209,4945,6,0,P|321:280|268:351,1,176.000005371094,6|0,0:0|0:0,0:0:0:0:
193,200,5391,2,0,P|225:130|316:119,1,176.000005371094,6|0,0:0|0:0,0:0:0:0:
236,274,5836,2,0,P|192:282|147:270,1,88.000002685547,6|0,0:0|0:0,0:0:0:0:
63,171,6133,6,0,P|26:102|79:21,1,176.000005371094,6|0,0:0|0:0,0:0:0:0:
282,94,6579,2,0,B|188:70|188:131|111:100,1,176.000005371094,6|0,0:0|0:0,0:0:0:0:
45,197,7024,1,0,3:0:0:0:
45,197,7173,1,0,3:0:0:0:
165,303,7321,6,0,B|216:327|285:294|285:294|234:267,1,176.000005371094,6|0,0:0|0:0,0:0:0:0:
94,196,7767,2,0,P|54:220|46:348,1,176.000005371094,6|0,0:0|0:0,0:0:0:0:
176,229,8212,2,0,P|179:177|165:142,1,88.000002685547,6|0,0:0|0:0,0:0:0:0:
82,20,8509,5,6,0:0:0:0:
224,88,8658,1,0,3:0:0:0:
224,88,8732,1,0,3:0:0:0:
224,88,8806,1,8,3:0:0:0:
346,75,8955,1,4,0:0:0:0:
387,181,9103,2,0,P|379:245|390:292,1,88.000002685547,10|0,3:0|0:0,0:0:0:0:
488,216,9400,2,0,P|491:172|483:129,1,88.000002685547,10|10,3:0|3:0,0:0:0:0:
315,325,9697,6,0,P|384:357|463:304,1,176.000005371094,6|0,0:0|0:0,0:0:0:0:
378,120,10143,2,0,P|341:186|388:269,1,176.000005371094,6|0,0:0|0:0,0:0:0:0:
467,85,10589,1,6,0:0:0:0:
467,85,10737,1,0,0:0:0:0:
299,45,10886,6,0,B|216:72|216:8|123:45,1,176.000005371094,6|0,0:0|0:0,0:0:0:0:
176,256,11331,2,0,P|216:184|160:104,1,176.000005371094,6|0,0:0|0:0,0:0:0:0:
80,256,11777,2,0,P|94:306|128:336,1,88.000002685547,6|0,0:0|0:0,0:0:0:0:
290,274,12074,6,0,P|374:231|458:218,1,176.000005371094,6|0,0:0|0:0,0:0:0:0:
322,95,12519,2,0,P|238:52|154:39,1,176.000005371094,6|0,0:0|0:0,0:0:0:0:
8,109,12965,1,6,0:0:0:0:
435,52,13856,6,0,P|428:111|430:182,1,120.000004577637,0|0,0:0|0:0,0:0:0:0:
457,256,14301,1,0,0:0:0:0:
329,324,14450,6,0,B|240:296|240:352|147:316,1,160,2|0,0:0|0:0,0:0:0:0:
64,256,14895,2,0,P|71:200|71:171,1,80,2|0,0:0|0:0,0:0:0:0:
168,88,15192,2,0,P|169:127|175:167,1,80,0|8,0:0|0:0,0:0:0:0:
257,244,15490,1,0,0:0:0:0:
415,229,15638,6,0,P|445:151|402:64,1,160,2|0,0:0|0:0,0:0:0:0:
321,188,16084,1,2,0:0:0:0:
208,251,16232,2,0,P|185:197|185:146,1,80,0|0,0:0|0:0,0:0:0:0:
348,114,16529,2,0,P|340:153|322:188,1,80,8|0,0:0|0:0,0:0:0:0:
305,29,16826,6,0,P|357:19|441:101,1,160,2|0,0:0|0:0,0:0:0:0:
503,190,17272,2,0,P|449:185|395:194,1,80,2|0,0:0|0:0,0:0:0:0:
319,262,17569,2,0,P|358:259|398:264,1,80,0|8,0:0|0:0,0:0:0:0:
357,368,17866,1,0,0:0:0:0:
217,272,18014,6,0,P|195:202|198:169,1,80,2|0,0:0|0:0,0:0:0:0:
360,72,18311,2,0,P|354:111|337:147,1,80,2|0,0:0|0:0,0:0:0:0:
134,114,18608,2,0,P|188:94|231:102,1,80,2|0,0:0|0:0,0:0:0:0:
351,235,18905,2,0,P|302:229|275:212,1,80,8|0,0:0|0:0,0:0:0:0:
402,142,19202,6,0,P|437:173|435:299,1,160,2|0,0:0|0:0,0:0:0:0:
312,384,19648,1,2,0:0:0:0:
351,235,19796,1,0,0:0:0:0:
418,369,19945,1,0,0:0:0:0:
266,294,20093,1,8,0:0:0:0:
446,280,20242,1,0,0:0:0:0:
272,176,20391,6,0,P|134:191|86:192,1,160,2|0,0:0|0:0,0:0:0:0:
48,303,20836,2,0,P|127:292|207:287,1,160,2|0,0:0|0:0,0:0:0:0:
327,306,21282,1,8,0:0:0:0:
327,306,21430,1,0,0:0:0:0:
402,175,21579,6,0,P|468:168|516:170,1,80,2|0,0:0|0:0,0:0:0:0:
385,52,21876,1,0,0:0:0:0:
385,52,22024,2,0,P|345:46|305:44,1,80,2|0,0:0|0:0,0:0:0:0:
234,149,22321,2,0,P|236:197|234:240,1,80,0|8,0:0|0:0,0:0:0:0:
138,294,22618,1,0,0:0:0:0:
45,116,22767,5,2,0:0:0:0:
234,149,22915,1,0,0:0:0:0:
138,294,23064,1,2,0:0:0:0:
120,168,23212,1,0,0:0:0:0:
275,291,23361,2,0,B|332:294|332:294|372:293,1,80,2|2,0:0|3:0,0:0:0:0:
388,280,23584,1,2,3:0:0:0:
388,280,23658,1,2,3:0:0:0:
467,213,23806,1,2,3:0:0:0:
374,112,23955,6,0,P|319:118|267:114,1,80,2|0,0:0|0:0,0:0:0:0:
168,72,24252,1,0,0:0:0:0:
128,203,24400,2,0,P|126:252|130:303,1,80,2|0,0:0|0:0,0:0:0:0:
294,197,24697,2,0,P|295:157|293:117,1,80,0|8,0:0|0:0,0:0:0:0:
168,72,24994,1,0,0:0:0:0:
255,272,25143,6,0,P|298:279|358:257,1,80,2|0,0:0|0:0,0:0:0:0:
459,164,25440,1,0,0:0:0:0:
294,197,25589,1,2,0:0:0:0:
435,295,25737,1,0,0:0:0:0:
435,295,25886,1,0,0:0:0:0:
363,152,26034,2,0,P|360:100|363:65,1,80,8|0,0:0|0:0,0:0:0:0:
225,152,26331,6,0,P|227:191|224:231,1,80,2|0,0:0|0:0,0:0:0:0:
145,323,26628,1,0,0:0:0:0:
268,377,26777,2,0,L|363:372,1,80,2|0,0:0|0:0,0:0:0:0:
488,292,27074,2,0,L|408:287,1,80,0|8,0:0|0:0,0:0:0:0:
331,209,27371,1,0,0:0:0:0:
394,96,27519,6,0,P|392:54|389:15,1,80,2|0,0:0|0:0,0:0:0:0:
239,177,27816,2,0,P|241:219|244:258,1,80,2|0,0:0|0:0,0:0:0:0:
88,96,28113,2,0,P|86:54|83:15,2,80,2|0|8,0:0|0:0|0:0,0:0:0:0:
24,188,28559,1,0,0:0:0:0:
125,322,28707,6,0,B|181:334|181:334|299:329,1,160,2|0,0:0|0:0,0:0:0:0:
418,174,29153,1,2,0:0:0:0:
408,339,29301,1,0,0:0:0:0:
310,202,29450,1,0,0:0:0:0:
479,250,29598,1,8,0:0:0:0:
313,314,29747,1,0,0:0:0:0:
224,192,29895,6,0,P|214:145|215:108,1,80,2|0,0:0|0:0,0:0:0:0:
310,54,30193,1,0,0:0:0:0:
399,182,30341,2,0,P|459:178|489:183,1,80,2|0,0:0|0:0,0:0:0:0:
389,283,30638,2,0,P|329:287|299:282,1,80,0|8,0:0|0:0,0:0:0:0:
239,196,30935,1,0,0:0:0:0:
370,80,31084,6,0,L|358:-6,1,80,2|0,0:0|0:0,0:0:0:0:
491,102,31381,1,0,0:0:0:0:
491,102,31529,2,0,L|479:181,1,80,2|0,0:0|0:0,0:0:0:0:
395,269,31826,1,0,0:0:0:0:
286,298,31975,2,0,P|242:301|185:289,1,80,8|0,0:0|0:0,0:0:0:0:
89,175,32272,6,0,P|90:214|86:254,1,80,2|0,0:0|0:0,0:0:0:0:
250,96,32569,2,0,P|249:135|253:175,1,80,2|2,0:0|3:0,0:0:0:0:
458,120,32866,1,2,3:0:0:0:
453,135,32940,1,0,0:0:0:0:
449,150,33014,1,2,3:0:0:0:
444,165,33089,1,0,0:0:0:0:
440,180,33163,6,0,P|435:226|437:261,1,66.0000020141602,2|0,3:0|0:0,0:0:0:0:
459,314,33460,6,0,P|392:294|339:298,1,103.999995239258,4|0,0:0|0:0,0:0:0:0:
273,318,33905,2,0,P|216:325|159:315,1,103.999995239258,2|0,0:0|0:0,0:0:0:0:
92,275,34351,1,2,0:0:0:0:
66,257,34648,6,0,B|61:200|65:151,1,103.999995239258,2|0,0:0|0:0,0:0:0:0:
138,105,35093,2,0,P|192:116|261:98,1,103.999995239258,2|0,0:0|0:0,0:0:0:0:
323,81,35539,2,0,P|320:120|320:143,1,51.999997619629,2|0,0:0|0:0,0:0:0:0:
353,215,35836,6,0,P|298:205|230:226,1,103.999995239258,2|0,0:0|0:0,0:0:0:0:
280,299,36282,2,0,P|334:310|403:292,1,103.999995239258,2|0,0:0|0:0,0:0:0:0:
455,253,36727,1,2,0:0:0:0:
204,194,37024,5,2,0:0:0:0:
204,194,38212,6,0,P|355:174|398:174,1,160,6|0,0:0|0:0,0:0:0:0:
460,224,38658,2,0,P|472:158|420:82,1,160,2|0,0:0|0:0,0:0:0:0:
312,97,39103,2,0,P|314:20|312:-1,1,80,2|0,0:0|0:0,0:0:0:0:
222,92,39400,6,0,P|231:138|354:179,1,160,2|0,0:0|0:0,0:0:0:0:
431,249,39846,2,0,P|347:269|269:315,1,160,2|0,0:0|0:0,0:0:0:0:
182,351,40292,2,0,P|150:356|90:347,1,80,2|0,0:0|0:0,0:0:0:0:
32,252,40589,6,0,P|-4:179|57:104,1,160,2|0,0:0|0:0,0:0:0:0:
224,178,41034,2,0,B|145:154|145:218|69:183,1,160,2|0,0:0|0:0,0:0:0:0:
158,78,41480,2,0,P|199:73|259:85,1,80,2|0,0:0|0:0,0:0:0:0:
342,157,41777,6,0,P|381:86|351:6,1,160,2|0,0:0|0:0,0:0:0:0:
237,78,42222,1,2,0:0:0:0:
281,241,42371,2,0,P|344:239|387:237,1,80,0|0,0:0|0:0,0:0:0:0:
236,345,42668,2,0,P|173:343|130:341,1,80,2|0,0:0|0:0,0:0:0:0:
262,164,42965,6,0,P|280:223|278:262,1,80,2|0,0:0|0:0,0:0:0:0:
115,156,43262,2,0,P|118:116|133:79,1,80,0|2,0:0|0:0,0:0:0:0:
280,240,43559,2,0,P|320:237|360:239,1,80,0|0,0:0|0:0,0:0:0:0:
504,360,43856,2,0,P|464:363|424:361,1,80,2|0,0:0|0:0,0:0:0:0:
456,162,44153,6,0,P|455:121|451:70,1,80,2|0,0:0|0:0,0:0:0:0:
325,264,44450,2,4,P|320:304|317:355,1,80,0|2,0:0|0:0,0:0:0:0:
219,157,44747,2,0,P|218:116|214:65,1,80,0|0,0:0|0:0,0:0:0:0:
113,259,45044,2,4,P|108:299|105:350,1,80,2|0,0:0|0:0,0:0:0:0:
32,135,45341,5,6,0:0:0:0:
212,238,45489,1,0,0:0:0:0:
0,312,45638,1,6,0:0:0:0:
160,107,45786,1,0,0:0:0:0:
297,343,45935,1,6,0:0:0:0:
122,222,46084,1,0,0:0:0:0:
297,95,46232,1,6,0:0:0:0:
337,94,46678,6,0,L|343:205,1,103.999995239258,0|0,0:0|0:0,0:0:0:0:
342,197,47123,1,2,0:3:0:0:
342,197,47717,6,0,L|149:192,1,176.000005371094,4|0,0:0|0:0,0:0:0:0:
26,62,48163,2,0,L|219:57,1,176.000005371094,4|0,0:0|0:0,0:0:0:0:
343,198,48608,1,8,0:0:0:0:
241,304,48757,1,0,0:0:0:0:
119,144,48905,5,2,0:0:0:0:
119,144,49054,2,0,P|171:141|224:139,1,88.000002685547,0|0,0:0|0:0,0:0:0:0:
362,239,49351,1,2,0:0:0:0:
241,304,49499,1,0,0:0:0:0:
359,117,49648,1,0,0:0:0:0:
475,303,49796,1,8,0:0:0:0:
475,303,49945,1,0,0:0:0:0:
259,198,50093,6,0,P|257:104|259:-1,1,176.000005371094,2|0,0:0|0:0,0:0:0:0:
419,214,50539,2,0,P|375:222|325:212,1,88.000002685547,2|0,0:0|0:0,0:0:0:0:
488,23,50836,1,0,0:0:0:0:
508,201,50985,1,8,0:0:0:0:
379,113,51133,1,0,0:0:0:0:
250,238,51282,6,0,P|255:309|257:350,1,88.000002685547,6|0,0:0|0:0,0:0:0:0:
75,196,51579,1,6,0:0:0:0:
253,120,51727,1,0,0:0:0:0:
253,120,51801,1,0,0:0:0:0:
253,120,51876,1,6,0:0:0:0:
120,329,52024,1,0,0:0:0:0:
129,110,52173,1,8,0:0:0:0:
310,231,52321,1,0,0:0:0:0:
491,96,52470,6,0,P|485:195|479:293,1,176.000005371094,2|0,0:0|0:0,0:0:0:0:
362,26,52915,2,0,P|356:125|350:223,1,176.000005371094,2|0,0:0|0:0,0:0:0:0:
215,376,53361,1,8,0:0:0:0:
352,337,53509,1,0,0:0:0:0:
193,238,53658,5,2,0:0:0:0:
193,238,53806,2,0,P|184:191|184:124,1,88.000002685547,0|0,0:0|0:0,0:0:0:0:
320,0,54103,1,2,0:0:0:0:
142,23,54252,1,0,0:0:0:0:
320,190,54400,1,0,0:0:0:0:
419,1,54549,1,8,0:0:0:0:
271,93,54697,1,0,0:0:0:0:
483,256,54846,6,0,P|489:152|492:53,1,176.000005371094,2|0,0:0|0:0,0:0:0:0:
332,0,55292,1,2,0:0:0:0:
221,218,55440,1,0,0:0:0:0:
399,123,55589,1,0,0:0:0:0:
181,56,55737,1,8,0:0:0:0:
378,261,55886,1,0,0:0:0:0:
296,23,56034,5,4,0:0:0:0:
276,310,56183,1,0,0:0:0:0:
399,29,56331,5,4,0:0:0:0:
196,258,56480,1,2,3:0:0:0:
196,258,56554,1,0,0:0:0:0:
196,258,56628,1,4,0:0:0:0:
455,166,56777,5,0,0:0:0:0:
209,50,56925,1,4,0:0:0:0:
188,82,57222,6,0,L|196:273,1,176.000005371094,6|0,0:0|0:0,0:0:0:0:
467,218,57668,2,0,P|380:184|290:224,1,176.000005371094,2|0,0:0|0:0,0:0:0:0:
381,307,58113,1,8,0:0:0:0:
472,117,58262,1,0,0:0:0:0:
296,48,58410,5,2,0:0:0:0:
296,48,58559,2,0,P|245:42|199:49,1,88.000002685547,0|0,0:0|0:0,0:0:0:0:
72,179,58856,1,2,0:0:0:0:
144,350,59004,1,0,0:0:0:0:
248,186,59153,1,0,0:0:0:0:
84,265,59301,1,8,0:0:0:0:
242,347,59450,1,0,0:0:0:0:
415,251,59598,6,0,P|452:183|379:179,1,176.000005371094,2|0,0:0|0:0,0:0:0:0:
488,329,60044,1,2,0:0:0:0:
328,251,60192,2,0,P|276:246|222:251,1,88.000002685547,0|0,0:0|0:0,0:0:0:0:
121,333,60490,1,8,0:0:0:0:
148,182,60638,1,0,0:0:0:0:
412,333,60787,5,6,0:0:0:0:
375,182,60935,1,0,0:0:0:0:
317,365,61084,1,6,0:0:0:0:
251,157,61232,1,0,0:0:0:0:
251,157,61306,1,0,0:0:0:0:
251,157,61381,1,6,0:0:0:0:
209,384,61529,1,0,0:0:0:0:
134,115,61678,1,8,0:0:0:0:
68,313,61826,1,0,0:0:0:0:
231,249,61975,6,0,B|319:273|319:225|423:249,1,191.999994140625,6|0,0:0|0:0,0:0:0:0:
196,171,62420,2,0,P|148:227|204:331,1,191.999994140625,6|0,0:0|0:0,0:0:0:0:
292,371,62866,2,0,P|353:367|397:371,1,95.9999970703126,2|0,0:0|0:0,0:0:0:0:
460,238,63163,6,0,P|524:186|450:131,1,191.999994140625,6|0,0:0|0:0,0:0:0:0:
292,163,63608,2,0,B|180:139|204:227|76:163,1,191.999994140625,6|0,0:0|0:0,0:0:0:0:
142,9,64054,2,0,L|153:116,1,95.9999970703126,2|0,0:0|0:0,0:0:0:0:
258,254,64351,6,0,P|335:266|393:158,1,191.999994140625,6|0,0:0|0:0,0:0:0:0:
241,166,64796,2,0,P|165:223|213:331,1,191.999994140625,6|0,0:0|0:0,0:0:0:0:
289,355,65242,2,0,P|336:361|384:356,1,95.9999970703126,2|0,0:0|0:0,0:0:0:0:
512,219,65539,5,6,0:0:0:0:
338,263,65688,1,0,0:0:0:0:
490,99,65836,1,6,0:0:0:0:
445,304,65985,1,2,3:0:0:0:
445,304,66059,1,0,0:0:0:0:
445,304,66133,1,6,0:0:0:0:
388,79,66282,1,0,0:0:0:0:
294,202,66430,2,0,P|223:205|176:193,1,95.9999970703126,2|0,0:0|0:0,0:0:0:0:
64,45,66727,6,0,L|64:103,1,47.9999985351563,4|0,0:0|0:0,0:0:0:0:
83,191,66876,1,2,3:0:0:0:
84,214,66950,1,2,3:0:0:0:
86,238,67024,1,2,3:0:0:0:
208,295,67173,5,6,0:0:0:0:
240,311,67470,1,6,0:0:0:0:
272,327,67767,6,0,P|381:309|436:295,1,160,6|0,0:0|0:0,0:0:0:0:
442,196,68509,6,0,L|431:94,2,80,2|2|2,0:0|0:0|0:0,0:0:0:0:
133,300,69103,6,0,L|122:198,1,80,6|0,0:0|0:0,0:0:0:0:
95,40,69400,1,0,0:0:0:0:
289,106,69549,1,6,0:0:0:0:
124,220,69697,1,0,0:0:0:0:
199,10,69846,1,0,0:0:0:0:
310,222,69994,1,8,0:0:0:0:
409,25,70143,1,0,0:0:0:0:
310,222,70292,6,0,P|261:222|217:219,1,80,6|0,0:0|0:0,0:0:0:0:
144,104,70589,1,0,0:0:0:0:
339,144,70737,2,0,P|377:87|297:78,1,160,6|0,0:0|0:0,0:0:0:0:
230,220,71183,1,8,0:0:0:0:
59,316,71331,1,0,0:0:0:0:
148,113,71480,5,6,0:0:0:0:
339,144,71628,1,0,0:0:0:0:
104,243,71777,1,0,0:0:0:0:
107,11,71925,1,6,0:0:0:0:
260,150,72074,2,0,L|358:143,1,80,0|0,0:0|0:0,0:0:0:0:
244,312,72371,2,0,L|146:305,1,80,8|0,0:0|0:0,0:0:0:0:
48,64,72668,5,6,0:0:0:0:
248,32,72816,1,0,0:0:0:0:
176,216,72965,1,6,0:0:0:0:
8,48,73113,5,2,3:0:0:0:
245,141,73261,1,6,0:0:0:0:
0,237,73410,1,0,0:0:0:0:
142,3,73559,1,6,0:0:0:0:
212,246,73707,1,0,0:0:0:0:
336,136,73856,6,0,L|440:128,1,80,4|0,0:0|0:0,0:0:0:0:
304,256,74153,1,0,0:0:0:0:
184,72,74301,2,0,L|360:56,1,160,6|0,0:0|0:0,0:0:0:0:
503,163,74747,1,8,0:0:0:0:
430,34,74895,1,0,0:0:0:0:
405,255,75044,5,6,0:0:0:0:
305,156,75193,1,2,3:0:0:0:
305,156,75267,1,2,3:0:0:0:
305,156,75341,1,2,3:0:0:0:
271,366,75490,1,6,0:0:0:0:
175,233,75638,5,0,3:0:0:0:
160,332,75787,1,2,0:0:0:0:
305,156,75935,5,2,0:0:0:0:
336,253,76084,1,2,0:0:0:0:
190,40,76232,6,0,L|80:32,1,80,6|0,0:0|0:0,0:0:0:0:
331,0,76529,1,0,0:0:0:0:
394,153,76678,6,0,L|400:256,1,80,4|0,0:0|0:0,0:0:0:0:
182,119,76975,2,0,L|192:16,1,80,4|0,0:0|0:0,0:0:0:0:
307,202,77272,1,0,0:0:0:0:
175,331,77420,5,6,0:0:0:0:
348,348,77569,1,0,0:0:0:0:
193,217,77717,1,0,0:0:0:0:
403,169,77866,6,0,L|512:168,1,80,4|0,0:0|0:0,0:0:0:0:
315,64,78163,2,0,L|201:55,1,80,4|2,0:0|0:0,0:0:0:0:
71,72,78460,1,0,0:0:0:0:
167,248,78608,5,4,0:0:0:0:
323,144,78757,6,0,L|312:32,1,80,4|0,0:0|0:0,0:0:0:0:
480,256,79054,2,0,L|485:147,1,80,4|0,0:0|0:0,0:0:0:0:
338,346,79351,2,0,L|328:240,1,80,4|0,0:0|0:0,0:0:0:0:
223,121,79648,6,0,B|175:134|134:104|134:104|79:82|71:40|93:-14|149:-20|183:28|181:68|146:95|146:95|79:139|61:202|61:202|-2:140|-3:100,1,600.000022888184,4|0,0:0|0:0,0:0:0:0:
