osu file format v14

[General]
AudioFilename: audio.mp3
AudioLeadIn: 0
PreviewTime: 46603
Countdown: 0
SampleSet: Soft
StackLeniency: 0.3
Mode: 0
LetterboxInBreaks: 0
WidescreenStoryboard: 0

[Editor]
Bookmarks: 4945,12074,45341,56034,64796,75044
DistanceSpacing: 1.5
BeatDivisor: 4
GridSize: 8
TimelineZoom: 1.9

[Metadata]
Title:Responsibility Response
TitleUnicode:Responsibility Response
Artist:Izumi Akazawa (CV. Madoka Yonezawa)
ArtistUnicode:赤沢泉美(CV.米澤 円)
Creator:Shmiklak
Version:TheMefisto's Extra
Source:Another
Tags:slayed fcl wajinshu -bakari- deppyforce salsa vanucik5656 themefisto fanteer yaleufeu lama_poluna lama poluna tropical collab collaboration vanucik
BeatmapID:1069111
BeatmapSetID:495332

[Difficulty]
HPDrainRate:7
CircleSize:4.3
OverallDifficulty:8.7
ApproachRate:9.3
SliderMultiplier:1.7
SliderTickRate:1

[Events]
//Background and Video events
0,0,"shmiklakgey.jpg",0,0
//Break Periods
//Storyboard Layer 0 (Background)
//Storyboard Layer 1 (Fail)
//Storyboard Layer 2 (Pass)
//Storyboard Layer 3 (Foreground)
//Storyboard Sound Samples

[TimingPoints]
193,297.029702970297,4,2,1,70,1,0
193,-125,4,2,1,70,0,0
4945,-90.9090909090909,4,2,1,70,0,0
12074,-80,4,2,1,70,0,0
13856,-125,4,2,1,70,0,0
14450,-99.9999999999999,4,2,1,70,0,0
33460,-142.857142857143,4,2,1,70,0,0
38212,-100,4,2,1,70,0,0
47717,-76.9230769230769,4,2,1,70,0,1
67767,-125,4,2,1,70,0,1
68509,-142.857142857143,4,2,1,70,0,0
69103,-100,4,2,1,70,0,0
76232,-76.9230769230769,4,2,1,70,0,0
79648,-125,4,2,1,70,0,0
80242,-100,4,2,1,50,0,0
80539,-100,4,2,1,35,0,0
80688,-100,4,2,1,20,0,0

[Colours]
Combo1 : 17,254,176
Combo2 : 173,255,95
Combo3 : 255,88,100
Combo4 : 255,94,55

[HitObjects]
315,175,193,5,2,0:0:0:0:
388,114,341,1,0,0:0:0:0:
299,80,490,1,2,0:0:0:0:
420,190,638,2,0,P|463:148|465:117,1,68,2|0,0:0|0:0,0:0:0:0:
315,175,935,2,0,P|272:217|270:248,1,68,2|0,0:0|0:0,0:0:0:0:
250,378,1232,6,0,L|173:342,1,68,2|0,0:0|0:0,0:0:0:0:
55,268,1529,2,0,L|116:239,1,68,2|0,0:0|0:0,0:0:0:0:
281,308,1826,2,0,L|407:365,1,136,2|0,0:0|0:0,0:0:0:0:
496,318,2272,1,2,0:0:0:0:
493,216,2420,1,0,0:0:0:0:
404,364,2569,5,2,0:0:0:0:
496,318,2717,1,0,0:0:0:0:
408,265,2866,1,2,0:0:0:0:
270,365,3014,2,0,P|242:375|180:362,1,68,2|0,0:0|0:0,0:0:0:0:
342,273,3311,2,0,P|370:263|432:276,1,68,2|0,0:0|0:0,0:0:0:0:
231,296,3608,2,0,L|174:228,1,68,2|0,0:0|0:0,0:0:0:0:
90,211,3905,5,2,0:0:0:0:
328,207,4054,1,2,3:0:0:0:
114,313,4202,1,2,3:0:0:0:
329,193,4351,2,0,P|340:153|320:109,1,68,2|0,3:0|0:0,0:0:0:0:
231,296,4648,2,0,P|220:336|240:380,1,68,0|0,0:0|0:0,0:0:0:0:
472,273,4945,6,0,L|286:337,1,187.000005706787,6|0,0:0|0:0,0:0:0:0:
154,201,5391,2,0,B|100:113|171:99|117:12,1,187.000005706787,6|0,0:0|0:0,0:0:0:0:
236,135,5836,2,0,P|257:195|244:240,1,93.5000028533936,6|0,0:0|0:0,0:0:0:0:
77,252,6133,6,0,P|38:169|46:77,1,187.000005706787,6|0,0:0|0:0,0:0:0:0:
196,51,6579,2,0,B|241:29|287:55|287:55|323:17|376:27,1,187.000005706787,6|0,0:0|0:0,0:0:0:0:
453,85,7024,1,0,3:0:0:0:
355,116,7173,1,0,0:0:0:0:
451,278,7321,6,0,P|451:354|396:298,1,187.000005706787,6|0,0:0|0:0,0:0:0:0:
355,116,7767,2,0,P|357:40|296:85,1,187.000005706787,6|0,0:0|0:0,0:0:0:0:
294,272,8212,2,0,P|259:297|190:293,1,93.5000028533936,6|0,0:0|0:0,0:0:0:0:
22,134,8509,5,6,0:0:0:0:
228,211,8658,1,0,3:0:0:0:
228,211,8732,1,0,3:0:0:0:
228,211,8806,1,8,3:0:0:0:
306,23,8955,1,4,0:0:0:0:
294,272,9103,1,10,3:0:0:0:
226,72,9252,1,0,0:0:0:0:
305,282,9400,1,10,3:0:0:0:
317,33,9549,1,10,3:0:0:0:
120,240,9697,6,0,P|44:210|26:81,1,187.000005706787,6|0,0:0|0:0,0:0:0:0:
237,12,10143,2,0,P|208:97|124:130,1,187.000005706787,6|0,0:0|0:0,0:0:0:0:
280,184,10589,2,0,L|383:213,1,93.5000028533936,6|0,0:0|0:0,0:0:0:0:
193,301,10886,6,0,L|65:349,1,93.5000028533936,6|0,0:0|0:0,0:0:0:0:
315,337,11183,1,0,0:0:0:0:
94,255,11331,2,0,L|6:287,1,93.5000028533936,6|0,0:0|0:0,0:0:0:0:
122,129,11628,1,0,0:0:0:0:
193,301,11777,2,0,P|235:297|279:262,1,93.5000028533936,6|0,0:0|0:0,0:0:0:0:
337,62,12074,6,0,L|366:187,1,106.25,6|0,0:0|0:0,0:0:0:0:
402,319,12371,1,0,0:0:0:0:
474,108,12519,2,0,L|430:233,1,106.25,6|0,0:0|0:0,0:0:0:0:
381,355,12816,1,0,0:0:0:0:
243,84,12965,1,6,0:0:0:0:
79,193,13856,6,0,L|55:266,1,68,0|0,0:0|0:0,0:0:0:0:
25,354,14153,1,0,0:0:0:0:
123,329,14301,1,0,0:0:0:0:
23,134,14450,6,0,P|66:111|123:129,1,85,2|0,0:0|0:0,0:0:0:0:
212,181,14747,1,0,0:0:0:0:
300,13,14895,2,0,L|310:101,1,85,2|0,0:0|0:0,0:0:0:0:
401,186,15192,1,0,0:0:0:0:
309,97,15341,1,8,0:0:0:0:
212,181,15490,1,0,0:0:0:0:
426,59,15638,5,0,0:0:0:0:
401,186,15787,1,0,0:0:0:0:
309,97,15935,1,0,0:0:0:0:
398,325,16084,1,2,0:0:0:0:
475,222,16232,2,0,P|483:180|463:131,2,85,0|0|8,0:0|0:0|0:0,0:0:0:0:
351,255,16678,1,0,0:0:0:0:
208,67,16826,6,0,P|172:47|117:52,1,85,2|0,0:0|0:0,0:0:0:0:
13,104,17123,1,0,0:0:0:0:
73,320,17272,2,0,L|93:215,1,85,2|0,0:0|0:0,0:0:0:0:
151,125,17569,1,0,0:0:0:0:
217,232,17717,1,8,0:0:0:0:
88,236,17866,1,0,0:0:0:0:
280,121,18014,5,2,0:0:0:0:
164,340,18163,1,0,0:0:0:0:
151,125,18311,1,2,0:0:0:0:
260,295,18460,1,0,0:0:0:0:
212,53,18608,2,0,P|184:36|110:39,1,85,2|0,0:0|0:0,0:0:0:0:
19,97,18905,1,8,0:0:0:0:
132,32,19054,1,0,0:0:0:0:
98,210,19202,6,0,L|127:301,1,85,2|0,0:0|0:0,0:0:0:0:
239,346,19499,1,0,0:0:0:0:
26,242,19648,1,2,0:0:0:0:
76,360,19796,2,0,P|118:375|172:357,2,85,0|0|8,0:0|0:0|0:0,0:0:0:0:
26,242,20242,1,0,0:0:0:0:
267,248,20391,6,0,P|305:236|346:188,1,85,2|0,0:0|0:0,0:0:0:0:
363,80,20688,1,0,0:0:0:0:
354,307,20836,1,2,0:0:0:0:
268,168,20985,1,0,0:0:0:0:
188,267,21133,1,0,0:0:0:0:
161,142,21282,2,0,P|177:103|235:65,1,85,8|0,0:0|0:0,0:0:0:0:
443,11,21579,6,0,L|464:109,1,85,2|0,0:0|0:0,0:0:0:0:
374,188,21876,1,0,0:0:0:0:
493,345,22024,2,0,P|454:368|389:355,1,85,2|0,0:0|0:0,0:0:0:0:
307,299,22321,1,0,0:0:0:0:
432,274,22470,1,8,0:0:0:0:
333,382,22618,1,0,0:0:0:0:
236,176,22767,5,2,0:0:0:0:
432,274,22915,1,0,0:0:0:0:
183,325,23064,1,2,0:0:0:0:
368,183,23212,1,0,0:0:0:0:
384,162,23287,1,0,0:0:0:0:
386,136,23361,2,0,L|379:88,1,42.5,2|0,0:0|0:0,0:0:0:0:
208,82,23509,1,2,3:0:0:0:
183,87,23584,1,2,3:0:0:0:
164,104,23658,2,0,L|138:152,1,42.5,2|0,3:0|0:0,0:0:0:0:
132,273,23806,1,2,3:0:0:0:
67,110,23955,6,0,L|29:10,1,85,2|0,0:0|0:0,0:0:0:0:
9,198,24252,1,0,0:0:0:0:
122,44,24400,2,0,P|152:20|206:13,1,85,2|0,0:0|0:0,0:0:0:0:
313,64,24697,1,0,0:0:0:0:
194,112,24846,1,8,0:0:0:0:
291,193,24994,1,0,0:0:0:0:
164,315,25143,6,0,L|180:232,1,85,0|0,0:0|0:0,0:0:0:0:
193,111,25440,1,0,0:0:0:0:
275,305,25589,1,2,0:0:0:0:
172,218,25737,2,0,P|138:200|87:203,1,85,0|0,0:0|0:0,0:0:0:0:
21,312,26034,1,8,0:0:0:0:
21,312,26183,1,0,0:0:0:0:
30,109,26331,6,0,P|63:91|114:94,1,85,2|0,0:0|0:0,0:0:0:0:
229,155,26628,1,0,0:0:0:0:
408,27,26777,2,0,L|399:121,1,85,2|0,0:0|0:0,0:0:0:0:
344,245,27074,1,0,0:0:0:0:
310,118,27222,1,8,0:0:0:0:
436,204,27371,1,0,0:0:0:0:
319,346,27519,5,2,0:0:0:0:
454,191,27668,1,0,0:0:0:0:
251,273,27816,1,2,0:0:0:0:
458,305,27965,1,0,0:0:0:0:
372,94,28113,2,0,P|401:73|467:67,1,85,2|0,0:0|0:0,0:0:0:0:
454,191,28410,1,8,0:0:0:0:
454,191,28559,1,0,0:0:0:0:
251,90,28707,6,0,L|146:103,1,85,2|0,0:0|0:0,0:0:0:0:
48,149,29004,1,0,0:0:0:0:
188,24,29153,1,2,0:0:0:0:
211,166,29301,2,0,P|206:217|179:248,1,85,0|0,0:0|0:0,0:0:0:0:
70,293,29598,1,8,0:0:0:0:
137,184,29747,1,0,0:0:0:0:
242,373,29895,6,0,L|326:360,1,85,2|0,0:0|0:0,0:0:0:0:
178,320,30193,1,0,0:0:0:0:
371,282,30341,2,0,P|403:311|413:372,1,85,2|0,0:0|0:0,0:0:0:0:
326,360,30638,1,0,0:0:0:0:
475,285,30787,1,8,0:0:0:0:
475,285,30935,1,0,0:0:0:0:
262,267,31084,6,0,L|176:254,1,85,2|0,0:0|0:0,0:0:0:0:
47,231,31381,1,0,0:0:0:0:
192,376,31529,1,2,0:0:0:0:
262,267,31678,2,0,P|274:231|260:176,1,85,0|0,0:0|0:0,0:0:0:0:
200,36,31975,1,8,0:0:0:0:
316,86,32123,1,0,0:0:0:0:
75,50,32272,5,2,0:0:0:0:
277,17,32420,1,0,0:0:0:0:
52,76,32569,1,2,0:0:0:0:
261,152,32717,5,2,3:0:0:0:
283,164,32791,1,0,0:0:0:0:
308,169,32865,1,2,3:0:0:0:
333,167,32939,1,0,0:0:0:0:
356,158,33014,1,2,3:0:0:0:
376,142,33088,1,0,0:0:0:0:
391,121,33163,2,0,L|399:60,1,42.5,2|0,3:0|0:0,0:0:0:0:
492,230,33311,2,0,L|497:272,1,42.5,0|0,0:0|0:0,0:0:0:0:
338,245,33460,6,0,P|262:284|247:376,1,178.499994552612,4|2,0:0|0:0,0:0:0:0:
338,343,34054,1,0,0:0:0:0:
170,282,34351,1,2,0:0:0:0:
112,113,34648,6,0,B|100:170|100:170|53:216|53:216|43:269,1,178.499994552612,2|2,0:0|0:0,0:0:0:0:
96,350,35242,1,0,0:0:0:0:
30,134,35539,2,0,L|42:75,1,59.4999981842042,2|0,0:0|0:0,0:0:0:0:
176,173,35836,6,0,P|231:179|326:104,1,178.499994552612,2|2,0:0|0:0,0:0:0:0:
331,11,36430,1,0,0:0:0:0:
383,181,36727,1,2,0:0:0:0:
216,61,37024,6,0,B|142:36|83:100|83:100|15:70|39:10,1,237.999992736817,2|0,0:0|0:0,0:0:0:0:
176,173,37915,1,2,0:0:0:0:
176,173,38212,6,0,L|148:253,2,85,6|0|0,0:0|0:0|0:0,0:0:0:0:
360,278,38658,2,0,P|407:280|450:228,1,85,2|0,0:0|0:0,0:0:0:0:
492,143,38955,1,0,0:0:0:0:
290,245,39103,2,0,P|291:313|315:342,1,85,2|0,0:0|0:0,0:0:0:0:
492,143,39400,6,0,L|506:43,1,85,2|0,0:0|0:0,0:0:0:0:
389,2,39697,1,0,0:0:0:0:
433,230,39846,2,0,L|444:314,1,85,2|0,0:0|0:0,0:0:0:0:
330,371,40143,1,0,0:0:0:0:
352,139,40292,1,2,0:0:0:0:
433,230,40440,1,0,0:0:0:0:
224,322,40589,6,0,B|145:359|135:308|51:358,1,170,2|0,0:0|0:0,0:0:0:0:
169,231,41034,2,0,B|164:155|220:113|220:113|209:165,1,170,2|0,0:0|0:0,0:0:0:0:
50,168,41480,2,0,P|27:143|31:73,1,85,2|0,0:0|0:0,0:0:0:0:
239,23,41777,6,0,L|325:68,1,85,2|0,0:0|0:0,0:0:0:0:
418,137,42074,1,0,0:0:0:0:
212,147,42222,1,2,0:0:0:0:
416,53,42371,2,0,B|461:62|461:62|499:107,1,85,0|0,0:0|0:0,0:0:0:0:
420,221,42668,2,0,B|375:212|375:212|337:167,1,85,2|0,0:0|0:0,0:0:0:0:
207,62,42965,6,0,L|213:169,1,85,2|0,0:0|0:0,0:0:0:0:
251,268,43262,1,0,0:0:0:0:
418,137,43410,1,2,0:0:0:0:
211,146,43559,2,0,P|166:166|136:214,1,85,0|0,0:0|0:0,0:0:0:0:
227,349,43856,2,0,L|260:236,1,85,2|0,0:0|0:0,0:0:0:0:
47,161,44153,6,0,L|70:242,1,85,2|0,0:0|0:0,0:0:0:0:
116,91,44450,1,0,0:0:0:0:
0,271,44598,1,2,0:0:0:0:
191,211,44747,2,0,P|230:186|293:187,1,85,0|0,0:0|0:0,0:0:0:0:
122,331,45044,2,0,P|83:356|20:355,1,85,2|0,0:0|0:0,0:0:0:0:
55,124,45341,5,6,0:0:0:0:
287,181,45490,1,0,0:0:0:0:
60,263,45638,5,6,0:0:0:0:
307,181,45787,1,0,0:0:0:0:
36,150,45935,5,6,0:0:0:0:
327,181,46084,1,0,0:0:0:0:
41,237,46232,5,6,0:0:0:0:
363,327,46678,6,0,P|397:350|441:352,1,85,0|0,0:0|0:0,0:0:0:0:
506,286,46975,1,0,0:0:0:0:
475,197,47123,1,2,0:3:0:0:
495,11,47420,1,0,0:0:0:0:
363,327,47717,6,0,B|315:352|315:352|243:344,1,110.499994941712,4|0,0:0|0:0,0:0:0:0:
179,268,48014,1,0,0:0:0:0:
398,223,48163,2,0,L|279:285,1,110.499994941712,4|0,0:0|0:0,0:0:0:0:
119,177,48460,1,0,0:0:0:0:
308,180,48608,1,8,0:0:0:0:
179,268,48757,1,0,0:0:0:0:
329,74,48905,5,2,0:0:0:0:
379,280,49054,2,0,P|365:322|275:355,1,110.499994941712,0|0,0:0|0:0,0:0:0:0:
81,270,49351,1,2,0:0:0:0:
233,374,49499,1,0,0:0:0:0:
34,343,49648,1,0,0:0:0:0:
207,183,49796,1,8,0:0:0:0:
300,274,49945,1,0,0:0:0:0:
111,176,50093,6,0,P|145:108|203:89,1,110.499994941712,2|0,0:0|0:0,0:0:0:0:
288,94,50391,1,0,0:0:0:0:
30,142,50539,1,2,0:0:0:0:
207,183,50688,1,0,0:0:0:0:
86,294,50836,1,0,0:0:0:0:
173,93,50985,1,8,0:0:0:0:
310,194,51133,1,0,0:0:0:0:
213,6,51282,5,6,0:0:0:0:
213,6,51430,1,0,0:0:0:0:
270,281,51579,1,6,0:0:0:0:
270,281,51727,1,0,0:0:0:0:
349,34,51876,1,6,0:0:0:0:
261,100,52024,1,0,0:0:0:0:
364,269,52173,2,0,P|356:322|320:363,1,110.499994941712,8|0,0:0|0:0,0:0:0:0:
193,200,52470,6,0,L|289:301,1,110.499994941712,2|0,0:0|0:0,0:0:0:0:
218,378,52767,1,0,0:0:0:0:
308,202,52915,2,0,P|358:181|411:193,1,110.499994941712,2|0,0:0|0:0,0:0:0:0:
510,291,53212,1,0,0:0:0:0:
388,94,53361,1,8,0:0:0:0:
364,269,53509,1,0,0:0:0:0:
456,46,53658,5,2,0:0:0:0:
296,221,53806,2,0,P|246:242|193:230,1,110.499994941712,0|0,0:0|0:0,0:0:0:0:
69,35,54103,1,2,0:0:0:0:
88,262,54252,1,0,0:0:0:0:
4,190,54400,1,0,0:0:0:0:
238,152,54549,2,0,P|295:134|362:118,1,110.499994941712,8|0,0:0|0:0,0:0:0:0:
194,288,54846,6,0,P|135:275|69:255,1,110.499994941712,2|0,0:0|0:0,0:0:0:0:
4,190,55143,1,0,0:0:0:0:
256,229,55292,1,2,0:0:0:0:
199,43,55440,2,0,P|144:80|123:141,1,110.499994941712,0|0,0:0|0:0,0:0:0:0:
194,288,55737,1,8,0:0:0:0:
340,208,55886,1,0,0:0:0:0:
126,119,56034,5,4,0:0:0:0:
373,90,56183,1,0,0:0:0:0:
270,282,56331,5,4,0:0:0:0:
306,33,56480,1,2,3:0:0:0:
73,44,56628,5,4,0:0:0:0:
387,5,56777,1,0,0:0:0:0:
358,260,56925,6,0,P|357:316|298:373,1,110.499994941712,4|0,0:0|0:0,0:0:0:0:
273,131,57222,6,0,P|274:75|333:18,1,110.499994941712,6|0,0:0|0:0,0:0:0:0:
184,60,57519,1,0,0:0:0:0:
385,159,57668,2,0,L|496:198,1,110.499994941712,2|0,0:0|0:0,0:0:0:0:
509,304,57965,1,0,0:0:0:0:
437,91,58113,1,8,0:0:0:0:
440,257,58262,1,0,0:0:0:0:
496,33,58410,5,2,0:0:0:0:
356,183,58559,2,0,L|245:222,1,110.499994941712,0|0,0:0|0:0,0:0:0:0:
39,177,58856,1,2,0:0:0:0:
10,70,59004,2,0,P|70:69|129:115,1,110.499994941712,0|0,0:0|0:0,0:0:0:0:
193,317,59301,1,8,0:0:0:0:
88,278,59450,1,0,0:0:0:0:
284,259,59598,6,0,P|330:230|355:182,1,110.499994941712,2|0,0:0|0:0,0:0:0:0:
248,154,59895,1,0,0:0:0:0:
298,364,60044,1,2,0:0:0:0:
193,317,60192,2,0,L|163:189,1,110.499994941712,0|0,0:0|0:0,0:0:0:0:
217,4,60490,1,8,0:0:0:0:
114,44,60638,1,0,0:0:0:0:
326,99,60787,5,6,0:0:0:0:
326,99,60935,1,0,0:0:0:0:
98,145,61084,1,6,0:0:0:0:
98,145,61232,1,0,0:0:0:0:
308,207,61381,1,6,0:0:0:0:
215,266,61529,1,0,0:0:0:0:
388,268,61678,2,0,P|406:227|390:148,1,110.499994941712,8|0,0:0|0:0,0:0:0:0:
207,111,61975,6,0,B|135:106|43:130|43:130|125:152,1,220.999989883423,6|0,0:0|0:0,0:0:0:0:
289,196,62420,2,0,B|360:200|452:176|452:176|370:154,1,220.999989883423,6|0,0:0|0:0,0:0:0:0:
302,106,62866,1,2,0:0:0:0:
401,59,63014,1,0,0:0:0:0:
344,272,63163,6,0,B|310:321|255:308|255:308|224:328|224:328|177:303|121:339,1,220.999989883423,6|0,0:0|0:0,0:0:0:0:
71,228,63608,2,0,B|109:179|92:125|92:125|69:58|107:6,1,220.999989883423,6|0,0:0|0:0,0:0:0:0:
0,159,64054,1,2,0:0:0:0:
180,75,64202,1,0,0:0:0:0:
151,262,64351,6,0,P|203:327|350:306,1,220.999989883423,6|0,0:0|0:0,0:0:0:0:
450,132,64796,2,0,B|393:153|393:153|360:191|360:191|309:190|309:190|257:230,1,220.999989883423,6|0,0:0|0:0,0:0:0:0:
103,364,65242,1,2,0:0:0:0:
151,262,65391,1,0,0:0:0:0:
354,346,65539,5,6,0:0:0:0:
328,118,65688,1,0,0:0:0:0:
244,295,65836,5,6,0:0:0:0:
269,64,65985,1,2,3:0:0:0:
314,282,66133,5,6,0:0:0:0:
390,62,66282,1,0,0:0:0:0:
204,231,66430,5,2,0:0:0:0:
339,202,66579,1,0,0:0:0:0:
139,147,66727,6,0,P|95:114|93:31,1,110.499994941712,4|2,0:0|3:0,0:0:0:0:
92,42,66950,1,2,3:0:0:0:
108,26,67024,1,2,3:0:0:0:
31,240,67173,1,6,0:0:0:0:
462,337,67470,1,6,0:0:0:0:
130,275,67767,6,0,B|104:242|112:209|112:209|69:186|41:143|41:143|2:184|42:266,1,272,6|0,0:0|0:0,0:0:0:0:
188,223,68509,6,0,P|220:199|236:164,2,79.3333309122722,2|2|2,0:0|0:0|0:0,0:0:0:0:
332,336,69103,6,0,L|422:367,1,85,6|0,0:0|0:0,0:0:0:0:
510,335,69400,1,0,0:0:0:0:
364,179,69549,1,6,0:0:0:0:
455,58,69697,2,0,L|441:172,1,85,0|0,0:0|0:0,0:0:0:0:
312,256,69994,1,8,0:0:0:0:
329,72,70143,1,0,0:0:0:0:
237,299,70292,6,0,P|217:332|146:356,2,85,6|0|0,0:0|0:0|0:0,0:0:0:0:
107,195,70737,2,0,L|159:278,1,85,6|0,0:0|0:0,0:0:0:0:
98,379,71034,1,0,0:0:0:0:
230,223,71183,1,8,0:0:0:0:
107,195,71331,1,0,0:0:0:0:
263,331,71480,6,0,P|299:355|373:346,1,85,6|0,0:0|0:0,0:0:0:0:
459,309,71777,1,0,0:0:0:0:
341,174,71925,2,0,L|326:327,1,85,6|0,0:0|0:0,0:0:0:0:
226,371,72222,1,0,0:0:0:0:
230,223,72371,1,8,0:0:0:0:
339,358,72519,1,0,0:0:0:0:
138,303,72668,5,6,0:0:0:0:
332,258,72816,1,0,0:0:0:0:
152,236,72965,5,6,0:0:0:0:
341,174,73113,1,2,3:0:0:0:
134,168,73262,5,6,0:0:0:0:
317,89,73410,1,0,0:0:0:0:
82,123,73559,6,0,L|27:189,1,85,6|0,0:0|0:0,0:0:0:0:
138,303,73856,6,0,P|172:324|225:320,1,85,4|0,0:0|0:0,0:0:0:0:
328,263,74153,1,0,0:0:0:0:
149,219,74301,6,0,P|109:221|68:256,2,85,6|0|0,0:0|0:0|0:0,0:0:0:0:
301,357,74747,1,8,0:0:0:0:
246,242,74895,1,0,0:0:0:0:
12,319,75044,5,6,0:0:0:0:
215,323,75193,1,2,3:0:0:0:
215,323,75267,1,2,3:0:0:0:
215,323,75341,1,2,3:0:0:0:
79,151,75490,1,6,0:0:0:0:
117,376,75638,1,0,3:0:0:0:
221,148,75787,1,2,0:0:0:0:
102,366,75935,1,2,0:0:0:0:
64,141,76083,1,2,0:0:0:0:
215,323,76232,6,0,P|319:326|445:256,1,220.999989883423,6|0,0:0|0:0,0:0:0:0:
225,227,76678,2,0,B|171:239|171:239|125:282,1,110.499994941712,4|0,0:0|0:0,0:0:0:0:
199,112,76975,2,0,B|252:99|252:99|298:56,1,110.499994941712,4|0,0:0|0:0,0:0:0:0:
205,12,77272,1,0,0:0:0:0:
339,142,77420,6,0,B|355:197|320:247|320:247|380:238|423:277,1,220.999989883423,6|0,0:0|0:0,0:0:0:0:
241,179,77866,2,0,L|116:194,1,110.499994941712,4|0,0:0|0:0,0:0:0:0:
292,60,78163,2,0,L|401:73,1,110.499994941712,4|2,0:0|0:0,0:0:0:0:
469,145,78460,1,0,0:0:0:0:
346,350,78608,5,4,0:0:0:0:
241,179,78757,1,4,0:0:0:0:
66,361,79054,1,4,0:0:0:0:
387,226,79351,1,4,0:0:0:0:
19,300,79648,6,0,B|3:237|51:191|51:191|33:151|33:151|51:111,1,204,4|0,0:0|0:0,0:0:0:0:
115,269,80242,6,0,P|208:305|162:213,1,255,0|0,0:0|0:0,0:0:0:0:
