osu file format v14

[General]
AudioFilename: audio.mp3
AudioLeadIn: 0
PreviewTime: 46603
Countdown: 0
SampleSet: Soft
StackLeniency: 0.7
Mode: 0
LetterboxInBreaks: 0
WidescreenStoryboard: 0

[Editor]
DistanceSpacing: 2.5
BeatDivisor: 4
GridSize: 4
TimelineZoom: 1.4

[Metadata]
Title:Responsibility Response
TitleUnicode:Responsibility Response
Artist:Izumi Akazawa (CV. Madoka Yonezawa)
ArtistUnicode:赤沢泉美(CV.米澤 円)
Creator:Shmiklak
Version:Slayed's Extra
Source:Another
Tags:slayed fcl wajinshu -bakari- deppyforce salsa vanucik5656 themefisto fanteer yaleufeu lama_poluna lama poluna tropical collab collaboration vanucik
BeatmapID:1110483
BeatmapSetID:495332

[Difficulty]
HPDrainRate:6
CircleSize:4
OverallDifficulty:8.5
ApproachRate:9.2
SliderMultiplier:1.5
SliderTickRate:1

[Events]
//Background and Video events
0,0,"shmiklakgey.jpg",0,0
//Break Periods
2,33660,37642
//Storyboard Layer 0 (Background)
//Storyboard Layer 1 (Fail)
//Storyboard Layer 2 (Pass)
//Storyboard Layer 3 (Foreground)
//Storyboard Sound Samples

[TimingPoints]
193,297.029702970297,4,2,0,70,1,0
193,-111.111111111111,4,2,0,70,0,0
4945,-100,4,2,1,70,0,0
14450,-116.279069767442,4,2,1,70,0,0
33460,-200,4,2,1,70,0,0
38212,-111.111111111111,4,2,1,70,0,0
42891,-100,4,2,1,70,0,0
46678,-200,4,2,1,70,0,0
47717,-71.4285714285714,4,2,1,70,0,1
48163,-100,4,2,1,70,0,1
52024,-133.333333333333,4,2,1,70,0,1
52470,-71.4285714285714,4,2,1,70,0,1
52915,-100,4,2,1,70,0,1
57222,-71.4285714285714,4,2,1,70,0,1
57668,-100,4,2,1,70,0,1
61529,-133.333333333333,4,2,1,70,0,1
61975,-71.4285714285714,4,2,1,70,0,1
62420,-100,4,2,1,70,0,1
63608,-90.9090909090909,4,2,1,70,0,1
64351,-71.4285714285714,4,2,1,70,0,1
64648,-100,4,2,1,70,0,1
69103,-100,4,2,1,70,0,0
76232,-200,4,2,1,70,0,0
76678,-58.8235294117647,4,2,1,70,0,0
77420,-100,4,2,1,70,0,0
77717,-58.8235294117647,4,2,1,70,0,0
79796,-66.6666666666667,4,2,1,70,0,0
80242,-100,4,2,1,70,0,0

[Colours]
Combo1 : 17,254,176
Combo2 : 173,255,95
Combo3 : 255,88,100
Combo4 : 255,94,55

[HitObjects]
191,31,193,6,0,P|193:56|199:114,1,67.4999979400635,2|0,0:0|0:0,0:0:0:0:
212,263,490,1,2,0:0:0:0:
141,197,638,2,0,P|206:168|282:199,1,134.999995880127,2|2,0:0|0:0,0:0:0:0:
342,98,1084,1,0,0:0:0:0:
212,263,1232,2,0,P|135:254|46:244,2,134.999995880127,2|2|2,0:0|0:0|0:0,0:0:0:0:
447,78,2272,1,2,0:0:0:0:
429,180,2420,1,0,0:0:0:0:
464,47,2569,6,0,P|409:41|371:33,1,67.4999979400635,2|0,0:0|0:0,0:0:0:0:
512,173,2866,1,2,0:0:0:0:
346,252,3014,2,0,P|258:257|199:264,1,134.999995880127,2|2,0:0|0:0,0:0:0:0:
50,48,3608,2,0,P|99:79|96:173,1,134.999995880127,2|2,0:0|0:0,0:0:0:0:
34,125,4054,1,2,3:0:0:0:
206,55,4202,2,0,P|271:48|300:47,1,67.4999979400635,2|2,3:0|3:0,0:0:0:0:
355,100,4499,1,0,0:0:0:0:
187,240,4648,2,0,P|137:248|66:214,1,101.249996910095,0|0,0:0|0:0,0:0:0:0:
77,218,4945,6,0,P|121:217|237:202,1,150,6|0,0:0|0:0,0:0:0:0:
455,340,5391,2,0,P|380:329|305:326,1,150,6|0,0:0|0:0,0:0:0:0:
441,146,5836,2,0,P|456:193|449:236,1,75,6|0,0:0|0:0,0:0:0:0:
192,92,6133,6,0,P|139:85|37:78,1,150,6|0,0:0|0:0,0:0:0:0:
320,92,6579,2,0,P|373:85|475:78,1,150,6|0,0:0|0:0,0:0:0:0:
249,265,7024,2,0,P|252:214|254:187,1,75,0|0,3:0|3:0,0:0:0:0:
317,352,7321,6,0,P|264:374|161:324,1,150,6|0,0:0|0:0,0:0:0:0:
406,141,7767,2,0,P|396:215|384:298,1,150,6|0,0:0|0:0,0:0:0:0:
157,132,8212,2,0,P|151:85|145:43,1,75,6|0,0:0|0:0,0:0:0:0:
170,243,8509,5,6,0:0:0:0:
301,82,8658,1,0,3:0:0:0:
301,82,8732,1,0,3:0:0:0:
301,82,8806,1,8,3:0:0:0:
51,59,8955,1,4,0:0:0:0:
265,189,9103,2,0,P|296:186|347:182,1,75,10|0,3:0|0:0,0:0:0:0:
128,335,9400,2,0,P|90:332|53:328,1,75,10|10,3:0|3:0,0:0:0:0:
249,182,9697,6,0,P|243:236|232:347,1,150,6|0,0:0|0:0,0:0:0:0:
30,175,10143,2,0,P|86:142|174:168,1,150,6|0,0:0|0:0,0:0:0:0:
350,47,10589,2,0,P|300:48|258:40,1,75,6|0,0:0|0:0,0:0:0:0:
417,183,10886,6,0,P|463:247|462:340,1,150,6|0,0:0|0:0,0:0:0:0:
198,149,11331,2,0,P|285:149|367:137,1,150,6|0,0:0|0:0,0:0:0:0:
143,289,11777,2,0,P|99:286|38:285,1,75,6|0,0:0|0:0,0:0:0:0:
263,225,12074,6,0,P|249:356|245:402,1,150,6|0,0:0|0:0,0:0:0:0:
376,161,12519,2,0,P|362:292|358:338,1,150,6|0,0:0|0:0,0:0:0:0:
178,122,12965,1,6,0:0:0:0:
406,73,13113,1,0,0:0:0:0:
406,73,14450,6,0,P|305:86|261:93,1,129.000001968384,2|0,0:0|0:0,0:0:0:0:
131,13,14895,2,0,P|158:42|181:90,1,64.5000009841919,2|0,0:0|0:0,0:0:0:0:
39,158,15192,2,0,P|62:124|82:102,1,64.5000009841919,0|8,0:0|0:0,0:0:0:0:
127,192,15490,1,0,0:0:0:0:
64,310,15638,6,0,P|33:303|-12:295,1,64.5000009841919,2|0,0:0|0:0,0:0:0:0:
169,353,15935,1,0,0:0:0:0:
169,353,16084,1,2,0:0:0:0:
127,192,16232,2,0,P|138:248|141:273,1,64.5000009841919,0|0,0:0|0:0,0:0:0:0:
277,143,16529,2,0,P|270:194|264:224,1,64.5000009841919,8|0,0:0|0:0,0:0:0:0:
149,82,16826,6,0,P|204:78|300:66,1,129.000001968384,2|0,0:0|0:0,0:0:0:0:
368,28,17272,1,2,0:0:0:0:
446,258,17569,1,0,0:0:0:0:
368,28,17866,1,0,0:0:0:0:
277,143,18014,6,0,P|223:137|197:135,1,64.5000009841919,2|0,0:0|0:0,0:0:0:0:
446,258,18311,2,0,P|407:266|370:274,1,64.5000009841919,2|0,0:0|0:0,0:0:0:0:
458,137,18608,1,2,0:0:0:0:
458,137,18757,1,0,0:0:0:0:
262,234,18905,1,8,0:0:0:0:
262,234,19054,1,0,0:0:0:0:
470,360,19202,6,0,P|478:309|494:208,1,129.000001968384,2|0,0:0|0:0,0:0:0:0:
458,137,19648,1,2,0:0:0:0:
325,242,19796,2,0,P|273:235|246:233,1,64.5000009841919,0|0,0:0|0:0,0:0:0:0:
172,282,20093,1,8,0:0:0:0:
287,365,20242,1,0,0:0:0:0:
325,242,20391,6,0,P|333:156|340:86,1,129.000001968384,2|0,0:0|0:0,0:0:0:0:
391,33,20836,1,2,0:0:0:0:
200,91,20985,1,0,0:0:0:0:
294,25,21133,1,0,0:0:0:0:
246,187,21282,2,0,P|173:173|134:177,1,96.7500014762879,8|0,0:0|0:0,0:0:0:0:
137,183,21579,6,0,P|67:176|-8:167,1,129.000001968384,2|0,0:0|0:0,0:0:0:0:
343,182,22024,2,0,P|413:175|488:166,1,129.000001968384,2|0,0:0|0:0,0:0:0:0:
256,312,22618,1,0,0:0:0:0:
246,187,22767,5,2,0:0:0:0:
394,298,22915,1,0,0:0:0:0:
176,372,23064,1,2,0:0:0:0:
323,261,23212,1,0,0:0:0:0:
121,175,23361,2,0,P|97:178|72:182,3,32.250000492096,2|0|2|2,0:0|0:0|3:0|3:0,0:0:0:0:
75,170,23658,2,0,P|68:123|58:79,1,64.5000009841919,2|2,3:0|3:0,0:0:0:0:
184,256,23955,6,0,P|110:251|53:249,1,129.000001968384,2|0,0:0|0:0,0:0:0:0:
291,349,24400,2,0,P|349:348|396:285,1,129.000001968384,2|0,0:0|0:0,0:0:0:0:
243,172,24846,2,0,P|246:192|255:242,1,64.5000009841919,8|0,0:0|0:0,0:0:0:0:
419,212,25143,6,0,P|381:204|346:200,1,64.5000009841919,2|0,0:0|0:0,0:0:0:0:
446,38,25440,1,0,0:0:0:0:
416,125,25589,1,2,0:0:0:0:
285,16,25737,2,0,P|302:50|311:85,1,64.5000009841919,0|0,0:0|0:0,0:0:0:0:
112,26,26034,1,8,0:0:0:0:
208,58,26183,1,0,0:0:0:0:
124,171,26331,6,0,P|43:163|-21:158,1,129.000001968384,2|0,0:0|0:0,0:0:0:0:
112,264,26777,2,0,P|156:258|192:258,1,64.5000009841919,2|0,0:0|0:0,0:0:0:0:
245,142,27074,2,0,P|249:172|255:219,1,64.5000009841919,0|8,0:0|0:0,0:0:0:0:
323,296,27371,1,0,0:0:0:0:
131,362,27519,5,2,0:0:0:0:
131,362,27668,1,0,0:0:0:0:
36,186,27816,1,2,0:0:0:0:
36,186,27965,1,0,0:0:0:0:
247,234,28113,1,2,0:0:0:0:
247,234,28262,1,0,0:0:0:0:
55,304,28410,2,0,P|19:298|-14:275,1,64.5000009841919,8|0,0:0|0:0,0:0:0:0:
154,159,28707,6,0,P|150:204|142:303,1,129.000001968384,2|0,0:0|0:0,0:0:0:0:
218,354,29153,1,2,0:0:0:0:
320,303,29301,2,0,P|373:293|406:291,1,64.5000009841919,0|0,0:0|0:0,0:0:0:0:
236,170,29598,2,0,P|241:201|248:244,1,64.5000009841919,8|0,0:0|0:0,0:0:0:0:
327,102,29895,6,0,P|231:129|190:108,1,129.000001968384,2|0,0:0|0:0,0:0:0:0:
127,57,30341,1,2,0:0:0:0:
227,234,30490,2,0,P|290:223|306:221,1,64.5000009841919,0|0,0:0|0:0,0:0:0:0:
400,262,30787,1,8,0:0:0:0:
288,363,30935,1,0,0:0:0:0:
140,214,31084,6,0,P|165:171|266:154,1,129.000001968384,2|0,0:0|0:0,0:0:0:0:
227,234,31529,1,2,0:0:0:0:
55,121,31678,2,0,P|65:158|70:184,1,64.5000009841919,0|0,0:0|0:0,0:0:0:0:
176,16,31975,2,0,P|166:53|161:79,1,64.5000009841919,8|0,0:0|0:0,0:0:0:0:
57,25,32272,5,2,0:0:0:0:
267,78,32420,1,0,0:0:0:0:
140,214,32569,1,2,0:0:0:0:
379,177,32717,1,2,3:0:0:0:
161,78,32866,2,0,P|170:102|174:120,3,32.250000492096,2|0|2|0,3:0|0:0|3:0|0:0,0:0:0:0:
163,122,33163,2,0,P|106:118|54:117,1,96.7500014762879,2|0,3:0|0:0,0:0:0:0:
55,121,33460,5,4,0:0:0:0:
26,168,38212,6,0,P|68:164|171:147,1,134.999995880127,6|0,0:0|0:0,0:0:0:0:
276,57,38658,2,0,P|249:107|256:195,1,134.999995880127,2|0,0:0|0:0,0:0:0:0:
335,274,39103,1,2,0:0:0:0:
335,274,39400,6,0,P|258:298|188:336,1,134.999995880127,2|0,0:0|0:0,0:0:0:0:
346,167,39846,2,0,P|423:191|493:229,1,134.999995880127,2|0,0:0|0:0,0:0:0:0:
224,216,40292,2,0,P|235:148|239:119,1,67.4999979400635,2|0,0:0|0:0,0:0:0:0:
32,109,40589,6,0,B|62:134|135:136|175:117,1,134.999995880127,2|0,0:0|0:0,0:0:0:0:
345,166,41034,2,0,B|373:153|446:155|476:180,1,134.999995880127,2|0,0:0|0:0,0:0:0:0:
258,29,41480,2,0,P|268:73|269:99,1,67.4999979400635,2|0,0:0|0:0,0:0:0:0:
172,320,41777,5,2,0:0:0:0:
127,108,42074,1,0,0:0:0:0:
339,63,42371,1,0,0:0:0:0:
384,275,42668,1,2,0:0:0:0:
5,245,42965,6,0,P|64:240|154:224,1,150,2|0,0:0|0:0,0:0:0:0:
153,224,43410,1,2,0:0:0:0:
358,224,43559,2,0,P|431:237|506:245,1,150,0|2,0:0|0:0,0:0:0:0:
189,56,44153,6,0,P|203:101|204:134,1,75,2|0,0:0|0:0,0:0:0:0:
291,314,44450,2,0,P|277:269|276:236,1,75,0|2,0:0|0:0,0:0:0:0:
215,48,44747,2,0,P|193:85|157:112,1,75,0|0,0:0|0:0,0:0:0:0:
297,336,45044,2,0,P|319:299|355:272,1,75,2|0,0:0|0:0,0:0:0:0:
166,201,45341,5,6,0:0:0:0:
380,154,45490,1,0,0:0:0:0:
252,239,45638,1,6,0:0:0:0:
318,53,45787,1,0,0:0:0:0:
453,218,45935,1,6,0:0:0:0:
247,147,46084,1,0,0:0:0:0:
490,78,46232,1,6,0:0:0:0:
490,78,46678,6,0,P|483:117|476:161,1,75,0|0,0:0|0:0,0:0:0:0:
400,233,47123,2,0,P|407:272|414:316,1,75,2|0,0:3|0:0,0:0:0:0:
412,306,47717,6,0,B|284:322|335:242|198:264,1,209.999993591309,4|0,0:0|0:0,0:0:0:0:
336,90,48163,2,0,P|377:136|372:225,1,150,4|0,0:0|0:0,0:0:0:0:
295,173,48608,1,8,0:0:0:0:
425,54,48757,1,0,0:0:0:0:
374,220,48905,6,0,P|260:206|193:199,1,150,2|0,0:0|0:0,0:0:0:0:
130,242,49351,1,2,0:0:0:0:
63,88,49499,2,0,P|84:123|98:173,1,75,0|0,0:0|0:0,0:0:0:0:
227,37,49796,2,0,P|218:87|197:131,1,75,8|0,0:0|0:0,0:0:0:0:
130,242,50093,6,0,P|52:244|-3:319,1,150,2|0,0:0|0:0,0:0:0:0:
231,190,50539,2,0,P|220:242|217:282,1,75,2|0,0:0|0:0,0:0:0:0:
312,237,50836,1,0,0:0:0:0:
166,159,50985,1,8,0:0:0:0:
224,352,51133,1,0,0:0:0:0:
415,253,51282,5,6,0:0:0:0:
204,265,51430,1,0,0:0:0:0:
399,136,51579,5,6,0:0:0:0:
353,352,51727,1,0,0:0:0:0:
166,159,51876,5,6,0:0:0:0:
415,253,52024,2,0,P|454:249|489:246,2,56.2500021457673,0|8|0,0:0|0:0|0:0,0:0:0:0:
415,253,52470,6,0,B|421:170|426:94|426:94|408:122|392:148,1,209.999993591309,2|0,0:0|0:0,0:0:0:0:
289,269,52915,2,0,P|208:271|131:262,1,150,2|0,0:0|0:0,0:0:0:0:
39,316,53361,1,8,0:0:0:0:
172,358,53509,1,0,0:0:0:0:
116,173,53658,6,0,P|63:215|68:318,1,150,2|0,0:0|0:0,0:0:0:0:
5,62,54103,2,0,P|19:104|25:145,1,75,2|0,0:0|0:0,0:0:0:0:
226,35,54400,1,0,0:0:0:0:
114,73,54549,1,8,0:0:0:0:
306,116,54697,1,0,0:0:0:0:
306,116,54846,6,0,P|351:111|466:102,1,150,2|0,0:0|0:0,0:0:0:0:
219,198,55292,2,0,P|174:193|59:184,1,150,2|0,0:0|0:0,0:0:0:0:
167,11,55737,2,0,P|189:46|191:104,1,75,8|0,0:0|0:0,0:0:0:0:
69,184,56034,5,4,0:0:0:0:
111,355,56183,1,0,0:0:0:0:
162,135,56331,5,4,0:0:0:0:
206,345,56480,1,2,3:0:0:0:
384,247,56628,5,4,0:0:0:0:
143,223,56777,1,0,0:0:0:0:
411,157,56925,5,4,0:0:0:0:
116,124,57074,1,0,0:0:0:0:
302,353,57222,6,0,B|430:369|379:289|516:311,1,209.999993591309,6|0,0:0|0:0,0:0:0:0:
314,126,57668,2,0,P|337:242|343:288,1,150,2|0,0:0|0:0,0:0:0:0:
203,140,58113,1,8,0:0:0:0:
256,238,58262,1,0,0:0:0:0:
116,124,58410,6,0,P|152:67|245:65,1,150,2|0,0:0|0:0,0:0:0:0:
386,195,58856,2,0,P|444:186|493:181,1,75,2|0,0:0|0:0,0:0:0:0:
376,317,59153,1,0,0:0:0:0:
306,174,59301,2,0,P|299:131|291:77,1,75,8|0,0:0|0:0,0:0:0:0:
82,201,59598,6,0,P|120:227|229:189,1,150,2|0,0:0|0:0,0:0:0:0:
149,147,60044,1,2,0:0:0:0:
160,313,60192,2,0,P|162:341|165:396,1,75,0|0,0:0|0:0,0:0:0:0:
333,245,60490,2,0,P|331:273|328:328,1,75,8|0,0:0|0:0,0:0:0:0:
241,150,60787,5,6,0:0:0:0:
444,232,60935,1,0,0:0:0:0:
238,278,61084,1,6,0:0:0:0:
379,118,61232,1,0,0:0:0:0:
452,324,61381,5,6,0:0:0:0:
155,221,61529,2,0,P|114:227|91:233,2,56.2500021457673,0|8|0,0:0|0:0|0:0,0:0:0:0:
155,221,61975,6,0,B|149:138|144:62|144:62|161:90|178:116,1,209.999993591309,6|0,0:0|0:0,0:0:0:0:
378,202,62420,2,0,P|331:230|241:191,1,150,6|0,0:0|0:0,0:0:0:0:
313,149,62866,1,2,0:0:0:0:
384,314,63014,6,0,P|435:302|476:300,1,75,0|6,0:0|0:0,0:0:0:0:
155,221,63311,2,0,P|104:209|63:207,1,75,0|0,0:0|0:0,0:0:0:0:
366,301,63608,6,0,P|382:348|399:379,1,82.5000025177003,6|0,0:0|0:0,0:0:0:0:
164,204,63905,2,0,P|148:251|132:282,1,82.5000025177003,0|2,0:0|0:0,0:0:0:0:
310,135,64351,6,0,B|441:130|375:209|527:191,1,209.999993591309,6|0,0:0|0:0,0:0:0:0:
342,357,64796,2,0,P|316:298|349:216,1,150,6|0,0:0|0:0,0:0:0:0:
198,63,65242,2,0,P|212:117|212:154,1,75,2|0,0:0|0:0,0:0:0:0:
37,113,65539,5,6,0:0:0:0:
126,324,65688,1,0,0:0:0:0:
131,91,65836,5,6,0:0:0:0:
44,284,65985,1,2,3:0:0:0:
296,211,66133,5,6,0:0:0:0:
32,192,66282,1,0,0:0:0:0:
321,301,66430,5,2,0:0:0:0:
44,284,66579,1,0,0:0:0:0:
270,127,66727,5,4,0:0:0:0:
225,337,66876,2,0,L|216:378,2,37.5,2|2|2,3:0|3:0|3:0,0:0:0:0:
152,178,67173,5,6,0:0:0:0:
446,139,67470,1,6,0:0:0:0:
152,178,67767,1,6,0:0:0:0:
152,178,68361,1,0,0:0:0:0:
222,118,68509,2,0,P|241:168|223:240,2,100,2|2|2,0:0|0:0|0:0,0:0:0:0:
152,178,69103,6,0,P|114:172|69:168,1,75,6|0,0:0|0:0,0:0:0:0:
309,290,69400,2,0,P|274:295|219:305,1,75,0|6,0:0|0:0,0:0:0:0:
300,156,69697,1,0,0:0:0:0:
403,258,69846,2,0,P|400:287|394:348,1,75,0|8,0:0|0:0,0:0:0:0:
152,178,70143,6,0,P|99:173|61:171,1,75,0|6,0:0|0:0,0:0:0:0:
246,32,70440,2,0,P|228:93|225:129,1,75,0|0,0:0|0:0,0:0:0:0:
261,286,70737,2,0,P|249:232|235:197,1,75,6|0,0:0|0:0,0:0:0:0:
165,284,71034,1,0,0:0:0:0:
313,359,71183,2,0,P|348:355|407:348,1,75,8|0,0:0|0:0,0:0:0:0:
508,193,71480,5,6,0:0:0:0:
291,150,71628,1,0,0:0:0:0:
510,120,71777,1,0,0:0:0:0:
309,65,71925,1,6,0:0:0:0:
437,236,72074,2,0,P|478:232|518:225,1,75,0|0,0:0|0:0,0:0:0:0:
266,142,72371,2,0,P|249:184|240:223,1,75,8|0,0:0|0:0,0:0:0:0:
313,359,72668,5,6,0:0:0:0:
474,311,72816,1,0,0:0:0:0:
241,212,72965,1,6,0:0:0:0:
423,133,73114,1,2,3:0:0:0:
423,133,73188,1,0,0:0:0:0:
423,133,73262,2,0,P|416:86|408:25,1,75,6|0,0:0|0:0,0:0:0:0:
183,288,73559,2,0,P|187:325|193:362,1,75,6|0,0:0|0:0,0:0:0:0:
18,161,73856,6,0,P|55:181|82:214,1,75,4|0,0:0|0:0,0:0:0:0:
211,73,74153,2,0,P|204:123|186:167,1,75,0|6,0:0|0:0,0:0:0:0:
109,76,74450,1,0,0:0:0:0:
317,182,74598,1,0,0:0:0:0:
183,288,74747,2,0,P|143:282|97:275,1,75,8|0,0:0|0:0,0:0:0:0:
407,148,75044,5,6,0:0:0:0:
279,302,75193,1,2,3:0:0:0:
279,302,75267,1,2,3:0:0:0:
279,302,75341,1,2,3:0:0:0:
486,370,75490,1,6,0:0:0:0:
317,182,75638,5,0,3:0:0:0:
178,374,75787,1,2,0:0:0:0:
408,278,75935,5,2,0:0:0:0:
116,194,76084,1,2,0:0:0:0:
295,33,76232,6,0,P|286:85|285:121,1,75,6|0,0:0|0:0,0:0:0:0:
284,107,76678,6,0,P|360:89|417:126,1,127.50000243187,4|0,0:0|0:0,0:0:0:0:
175,258,76975,2,0,P|116:280|57:260,1,127.50000243187,4|0,0:0|0:0,0:0:0:0:
57,260,77420,6,0,P|71:315|76:345,1,75,6|0,0:0|0:0,0:0:0:0:
74,332,77866,6,0,P|175:331|229:336,1,127.50000243187,4|0,0:0|0:0,0:0:0:0:
383,198,78163,2,0,P|319:201|255:198,1,127.50000243187,4|2,0:0|0:0,0:0:0:0:
84,142,78608,5,4,0:0:0:0:
84,142,78757,1,4,0:0:0:0:
84,142,79054,6,0,P|50:212|85:303,1,127.50000243187,4|0,0:0|0:0,0:0:0:0:
180,109,79351,2,0,P|124:53|60:46,1,127.50000243187,4|0,0:0|0:0,0:0:0:0:
145,218,79648,2,0,P|237:205|321:199,1,127.50000243187,4|0,0:0|0:0,0:0:0:0:
271,201,80242,6,0,L|267:245,2,37.5,0|0|0,0:0|0:0|0:0,0:0:0:0:
