osu file format v14

[General]
AudioFilename: audio.mp3
AudioLeadIn: 0
PreviewTime: 46603
Countdown: 0
SampleSet: Soft
StackLeniency: 0.7
Mode: 0
LetterboxInBreaks: 0
WidescreenStoryboard: 0

[Editor]
Bookmarks: 4945,49796,57668,71777
DistanceSpacing: 0.5
BeatDivisor: 4
GridSize: 4
TimelineZoom: 1.6

[Metadata]
Title:Responsibility Response
TitleUnicode:Responsibility Response
Artist:Izumi Akazawa (CV. Madoka Yonezawa)
ArtistUnicode:赤沢泉美(CV.米澤 円)
Creator:Shmiklak
Version:Slayed's Answer
Source:Another
Tags:slayed fcl wajinshu -bakari- deppyforce salsa vanucik5656 themefisto fanteer yaleufeu lama_poluna lama poluna tropical collab collaboration vanucik
BeatmapID:1055147
BeatmapSetID:495332

[Difficulty]
HPDrainRate:6
CircleSize:3.8
OverallDifficulty:9
ApproachRate:9.4
SliderMultiplier:1.9
SliderTickRate:1

[Events]
//Background and Video events
0,0,"shmiklakgey.jpg",0,0
//Break Periods
//Storyboard Layer 0 (Background)
//Storyboard Layer 1 (Fail)
//Storyboard Layer 2 (Pass)
//Storyboard Layer 3 (Foreground)
//Storyboard Sound Samples

[TimingPoints]
193,297.029702970297,4,2,0,70,1,0
193,-111.111111111111,4,2,0,70,0,0
4945,-100,4,2,1,70,0,0
14450,-116.279069767442,4,2,1,70,0,0
33460,-125,4,2,0,70,0,0
38212,-111.111111111111,4,2,1,70,0,0
42891,-100,4,2,1,70,0,0
46678,-133.333333333333,4,2,1,70,0,0
47717,-93.4579439252336,4,2,1,70,0,1
69103,-100,4,2,1,70,0,0

[Colours]
Combo1 : 17,254,176
Combo2 : 173,255,95
Combo3 : 255,88,100
Combo4 : 255,94,55

[HitObjects]
87,213,193,5,2,0:0:0:0:
158,109,341,1,0,0:0:0:0:
0,219,490,1,2,0:0:0:0:
181,257,638,2,0,P|256:244|354:233,1,170.999994781494,2|2,0:0|0:0,0:0:0:0:
484,161,1084,1,0,0:0:0:0:
389,82,1232,6,0,P|401:122|402:183,1,85.4999973907472,2|0,0:0|0:0,0:0:0:0:
260,262,1529,2,0,P|260:215|272:168,1,85.4999973907472,2|0,0:0|0:0,0:0:0:0:
349,309,1826,2,0,P|310:352|184:325,1,170.999994781494,2|0,0:0|0:0,0:0:0:0:
118,171,2272,1,2,0:0:0:0:
260,262,2420,1,0,0:0:0:0:
51,337,2569,5,2,0:0:0:0:
170,253,2717,1,0,0:0:0:0:
8,217,2866,1,2,0:0:0:0:
172,347,3014,2,0,B|294:382|216:302|366:339,1,170.999994781494,2|2,0:0|0:0,0:0:0:0:
474,275,3460,1,0,0:0:0:0:
349,162,3608,6,0,P|341:246|333:359,1,170.999994781494,2|2,0:0|0:0,0:0:0:0:
258,171,4054,1,2,3:0:0:0:
474,275,4202,1,2,3:0:0:0:
241,348,4351,2,0,P|190:337|126:325,1,85.4999973907472,2|0,3:0|0:0,0:0:0:0:
368,186,4648,2,0,P|386:237|386:275,1,85.4999973907472,0|0,0:0|0:0,0:0:0:0:
245,141,4945,6,0,P|292:70|395:73,1,190,6|0,0:0|0:0,0:0:0:0:
352,208,5391,2,0,P|264:196|154:185,1,190,6|0,0:0|0:0,0:0:0:0:
68,248,5836,1,6,0:0:0:0:
55,221,6133,6,0,P|42:111|33:31,1,190,6|0,0:0|0:0,0:0:0:0:
219,156,6579,2,0,P|208:256|199:349,1,190,6|0,0:0|0:0,0:0:0:0:
130,190,7024,1,0,3:0:0:0:
154,207,7321,6,0,B|291:246|198:162|349:191,1,190,6|0,0:0|0:0,0:0:0:0:
142,103,7767,2,0,P|73:120|51:231,1,190,6|0,0:0|0:0,0:0:0:0:
167,350,8212,2,0,P|159:275|152:197,1,142.5,6|0,0:0|0:0,0:0:0:0:
231,147,8509,5,6,0:0:0:0:
55,297,8658,1,0,3:0:0:0:
55,297,8732,1,0,3:0:0:0:
55,297,8806,1,8,3:0:0:0:
285,345,8955,1,4,0:0:0:0:
86,150,9103,5,10,3:0:0:0:
167,350,9252,1,0,0:0:0:0:
337,222,9400,1,10,3:0:0:0:
55,297,9549,1,10,3:0:0:0:
285,345,9697,6,0,B|422:384|340:298|481:321,1,190,6|0,0:0|0:0,0:0:0:0:
374,122,10143,2,0,P|313:170|345:279,1,190,6|0,0:0|0:0,0:0:0:0:
475,138,10589,1,6,0:0:0:0:
487,108,10886,6,0,P|334:90|281:77,1,190,6|0,0:0|0:0,0:0:0:0:
189,215,11331,2,0,P|95:196|1:188,1,190,6|0,0:0|0:0,0:0:0:0:
175,120,11777,1,6,0:0:0:0:
202,139,12074,6,0,P|293:131|323:24,1,190,6|0,0:0|0:0,0:0:0:0:
119,98,12519,2,0,P|127:189|135:297,1,190,6|0,0:0|0:0,0:0:0:0:
294,188,12965,2,0,P|297:134|302:85,1,95,6|0,0:0|0:0,0:0:0:0:
295,98,14450,6,0,P|323:243|328:284,1,163.400002493286,2|0,0:0|0:0,0:0:0:0:
201,344,14895,2,0,P|206:296|217:244,1,81.7000012466431,2|0,0:0|0:0,0:0:0:0:
393,190,15192,2,0,P|400:230|404:270,1,81.7000012466431,0|8,0:0|0:0,0:0:0:0:
257,186,15490,6,0,P|184:184|127:256,1,163.400002493286,0|0,0:0|0:0,0:0:0:0:
311,347,15935,1,0,0:0:0:0:
211,267,16084,1,2,0:0:0:0:
393,190,16232,2,0,P|402:227|402:274,1,81.7000012466431,0|0,0:0|0:0,0:0:0:0:
243,102,16529,2,0,P|251:53|275:8,1,81.7000012466431,8|0,0:0|0:0,0:0:0:0:
393,190,16826,6,0,P|308:199|218:210,1,163.400002493286,2|0,0:0|0:0,0:0:0:0:
378,91,17272,2,0,P|293:100|203:111,1,163.400002493286,2|0,0:0|0:0,0:0:0:0:
51,78,17717,1,8,0:0:0:0:
161,19,17866,1,0,0:0:0:0:
116,144,18014,6,0,P|106:194|112:247,1,81.7000012466431,2|0,0:0|0:0,0:0:0:0:
296,324,18311,2,0,P|306:274|300:221,1,81.7000012466431,2|0,0:0|0:0,0:0:0:0:
176,356,18608,1,2,0:0:0:0:
398,325,18757,1,0,0:0:0:0:
177,253,18905,1,8,0:0:0:0:
427,306,19054,1,0,0:0:0:0:
176,356,19202,6,0,B|54:391|132:311|-12:346,1,163.400002493286,2|0,0:0|0:0,0:0:0:0:
132,271,19648,1,2,0:0:0:0:
34,173,19796,2,0,P|22:206|17:283,1,81.7000012466431,0|0,0:0|0:0,0:0:0:0:
231,111,20093,2,0,P|224:70|207:30,1,81.7000012466431,8|0,0:0|0:0,0:0:0:0:
145,175,20391,6,0,P|262:211|309:178,1,163.400002493286,2|0,0:0|0:0,0:0:0:0:
170,20,20836,1,2,0:0:0:0:
354,70,20985,1,0,0:0:0:0:
143,106,21133,1,0,0:0:0:0:
378,205,21282,2,0,P|433:199|473:180,1,81.7000012466431,8|0,0:0|0:0,0:0:0:0:
324,344,21579,6,0,P|249:328|137:322,1,163.400002493286,2|0,0:0|0:0,0:0:0:0:
386,111,22024,2,0,P|451:151|458:251,1,163.400002493286,2|0,0:0|0:0,0:0:0:0:
324,344,22470,2,0,P|329:301|339:249,1,81.7000012466431,8|0,0:0|0:0,0:0:0:0:
371,32,22767,5,2,0:0:0:0:
239,222,22915,1,0,0:0:0:0:
219,55,23064,5,2,0:0:0:0:
437,203,23212,1,0,0:0:0:0:
490,34,23361,5,2,0:0:0:0:
251,142,23509,1,2,3:0:0:0:
251,142,23584,1,2,3:0:0:0:
251,142,23658,1,2,3:0:0:0:
453,282,23806,1,2,3:0:0:0:
161,238,23955,6,0,P|90:229|-15:217,1,163.400002493286,2|0,0:0|0:0,0:0:0:0:
208,149,24400,2,0,P|166:130|109:125,1,81.7000012466431,2|0,0:0|0:0,0:0:0:0:
249,338,24697,2,0,P|289:341|340:330,1,81.7000012466431,0|8,0:0|0:0,0:0:0:0:
473,200,24994,6,0,P|390:212|323:167,1,163.400002493286,0|0,0:0|0:0,0:0:0:0:
268,36,25440,1,0,0:0:0:0:
402,108,25589,1,2,0:0:0:0:
208,149,25737,2,0,P|167:142|126:136,1,81.7000012466431,0|0,0:0|0:0,0:0:0:0:
364,282,26034,2,0,P|402:277|444:269,1,81.7000012466431,8|0,0:0|0:0,0:0:0:0:
307,365,26331,6,0,P|309:284|317:198,1,163.400002493286,2|0,0:0|0:0,0:0:0:0:
151,22,26777,2,0,P|160:92|164:198,1,163.400002493286,2|0,0:0|0:0,0:0:0:0:
249,74,27222,1,8,0:0:0:0:
61,130,27371,1,0,0:0:0:0:
248,222,27519,6,0,P|289:210|333:205,1,81.7000012466431,2|0,0:0|0:0,0:0:0:0:
160,340,27816,2,0,P|129:309|117:260,1,81.7000012466431,2|0,0:0|0:0,0:0:0:0:
210,77,28113,1,2,0:0:0:0:
301,130,28262,1,0,0:0:0:0:
248,222,28410,1,8,0:0:0:0:
156,168,28559,1,0,0:0:0:0:
338,233,28707,6,0,B|460:268|382:188|526:223,1,163.400002493286,2|0,0:0|0:0,0:0:0:0:
512,110,29153,1,2,0:0:0:0:
339,152,29301,2,0,P|330:114|329:65,1,81.7000012466431,0|0,0:0|0:0,0:0:0:0:
501,245,29598,2,0,P|500:282|491:328,1,81.7000012466431,8|0,0:0|0:0,0:0:0:0:
299,358,29895,6,0,P|236:349|136:340,1,163.400002493286,2|0,0:0|0:0,0:0:0:0:
367,142,30341,1,2,0:0:0:0:
268,255,30490,1,0,0:0:0:0:
162,154,30638,1,0,0:0:0:0:
421,257,30787,2,0,P|464:255|525:232,1,81.7000012466431,8|0,0:0|0:0,0:0:0:0:
285,92,31084,6,0,P|277:157|265:286,1,163.400002493286,2|0,0:0|0:0,0:0:0:0:
191,82,31529,2,0,P|257:2|346:16,1,163.400002493286,2|0,0:0|0:0,0:0:0:0:
178,237,31975,2,0,P|140:231|89:224,1,81.7000012466431,8|0,0:0|0:0,0:0:0:0:
377,77,32272,5,2,0:0:0:0:
114,111,32420,1,0,0:0:0:0:
354,235,32569,5,2,0:0:0:0:
245,17,32717,1,2,3:0:0:0:
86,208,32866,6,0,L|11:192,1,40.8500006233215,2|0,3:0|0:0,0:0:0:0:
359,149,33014,2,0,L|410:138,1,40.8500006233215,2|0,3:0|0:0,0:0:0:0:
182,67,33163,2,0,P|153:107|183:207,1,122.550001869965,2|0,3:0|0:0,0:0:0:0:
238,137,33460,6,0,P|144:125|53:111,1,152,4|0,0:0|0:0,0:0:0:0:
173,233,33905,2,0,P|248:242|323:253,1,152,0|0,0:0|0:0,0:0:0:0:
420,191,34351,2,0,P|440:147|430:103,1,76,2|0,0:0|0:0,0:0:0:0:
376,22,34648,6,0,P|304:30|200:41,1,152,2|0,0:0|0:0,0:0:0:0:
129,112,35093,2,0,P|195:101|250:179,1,152,0|0,0:0|0:0,0:0:0:0:
155,251,35539,2,0,P|164:203|177:170,1,76,2|0,0:0|0:0,0:0:0:0:
318,39,35836,6,0,P|312:101|304:194,1,152,2|0,0:0|0:0,0:0:0:0:
230,287,36282,2,0,P|166:241|76:254,1,152,0|0,0:0|0:0,0:0:0:0:
17,92,36727,2,0,P|11:129|9:167,1,76,2|0,0:0|0:0,0:0:0:0:
121,18,37024,6,0,P|113:90|104:184,2,152,2|0|0,0:0|0:0|0:0,0:0:0:0:
263,183,37915,2,0,P|256:222|247:285,1,76,2|0,0:0|0:0,0:0:0:0:
337,348,38212,6,0,B|462:384|381:303|531:329,1,170.999994781494,6|0,0:0|0:0,0:0:0:0:
423,148,38658,2,0,P|347:184|366:292,1,170.999994781494,2|0,0:0|0:0,0:0:0:0:
502,210,39103,2,0,P|507:166|511:120,1,85.4999973907472,2|0,0:0|0:0,0:0:0:0:
340,14,39400,6,0,P|347:91|355:193,1,170.999994781494,2|0,0:0|0:0,0:0:0:0:
216,129,39846,2,0,P|138:120|77:192,1,170.999994781494,2|0,0:0|0:0,0:0:0:0:
245,210,40292,1,2,0:0:0:0:
152,260,40440,1,0,0:0:0:0:
284,349,40589,6,0,P|369:333|486:313,1,170.999994781494,2|0,0:0|0:0,0:0:0:0:
394,167,41034,2,0,P|290:186|269:274,1,170.999994781494,2|0,0:0|0:0,0:0:0:0:
458,291,41480,1,2,0:0:0:0:
353,239,41628,1,0,0:0:0:0:
208,308,41777,6,0,P|124:328|24:333,1,170.999994781494,2|0,0:0|0:0,0:0:0:0:
292,228,42222,1,2,0:0:0:0:
292,228,42371,2,0,P|451:255|485:256,1,170.999994781494,0|2,0:0|0:0,0:0:0:0:
285,330,42816,1,0,0:0:0:0:
405,152,42965,6,0,P|398:196|386:263,1,95,2|0,0:0|0:0,0:0:0:0:
174,158,43262,2,0,P|159:98|159:57,1,95,0|2,0:0|0:0,0:0:0:0:
305,196,43559,1,0,0:0:0:0:
72,269,43707,1,0,0:0:0:0:
318,234,43856,1,2,0:0:0:0:
57,105,44004,1,0,0:0:0:0:
196,342,44153,6,0,P|202:290|210:235,1,95,2|0,0:0|0:0,0:0:0:0:
392,57,44450,2,0,P|398:102|404:151,1,95,0|2,0:0|0:0,0:0:0:0:
121,39,44747,1,0,0:0:0:0:
305,196,44895,1,0,0:0:0:0:
72,269,45044,1,2,0:0:0:0:
262,91,45193,1,0,0:0:0:0:
424,306,45341,5,6,0:0:0:0:
97,193,45490,1,0,0:0:0:0:
447,222,45638,5,6,0:0:0:0:
144,123,45787,1,0,0:0:0:0:
467,141,45935,5,6,0:0:0:0:
190,55,46084,1,0,0:0:0:0:
269,309,46232,6,0,P|277:263|286:210,1,95,6|0,0:0|0:0,0:0:0:0:
291,184,46678,6,0,P|303:256|318:348,1,142.500005435944,0|0,0:0|0:0,0:0:0:0:
191,359,47123,2,0,P|202:296|208:265,1,71.2500027179719,2|0,0:3|0:0,0:0:0:0:
372,189,47420,2,0,P|382:235|388:278,1,71.2500027179719,0|0,0:0|0:0,0:0:0:0:
222,90,47717,6,0,P|111:99|66:179,1,203.299993795777,4|0,0:0|0:0,0:0:0:0:
272,331,48163,2,0,P|277:272|285:203,1,101.649996897888,4|0,0:0|0:0,0:0:0:0:
431,97,48460,1,0,0:0:0:0:
222,90,48608,1,8,0:0:0:0:
423,232,48757,1,0,0:0:0:0:
201,206,48905,6,0,P|55:224|-10:239,1,203.299993795777,2|0,0:0|0:0,0:0:0:0:
311,167,49351,1,2,0:0:0:0:
123,101,49499,1,0,0:0:0:0:
335,153,49648,1,0,0:0:0:0:
190,309,49796,2,0,P|149:302|86:295,1,101.649996897888,8|0,0:0|0:0,0:0:0:0:
512,176,50093,6,0,P|472:137|332:157,1,203.299993795777,2|0,0:0|0:0,0:0:0:0:
459,33,50539,1,2,0:0:0:0:
244,137,50688,2,0,P|237:84|230:23,1,101.649996897888,0|0,0:0|0:0,0:0:0:0:
423,232,50985,2,0,P|417:281|410:332,1,101.649996897888,8|0,0:0|0:0,0:0:0:0:
123,77,51282,5,6,0:0:0:0:
185,286,51430,1,0,0:0:0:0:
231,36,51579,5,6,0:0:0:0:
79,268,51727,1,0,0:0:0:0:
322,173,51876,5,6,0:0:0:0:
36,102,52024,1,0,0:0:0:0:
338,149,52173,1,8,0:0:0:0:
79,268,52321,1,0,0:0:0:0:
314,348,52470,6,0,P|421:354|486:287,1,203.299993795777,2|0,0:0|0:0,0:0:0:0:
241,143,52915,2,0,P|226:198|222:246,1,101.649996897888,2|0,0:0|0:0,0:0:0:0:
452,137,53212,2,0,P|450:80|432:37,1,101.649996897888,0|8,0:0|0:0,0:0:0:0:
329,213,53509,1,0,0:0:0:0:
139,94,53658,5,2,0:0:0:0:
220,345,53806,2,0,P|230:242|240:137,1,203.299993795777,0|2,0:0|0:0,0:0:0:0:
360,289,54252,1,0,0:0:0:0:
122,231,54400,1,0,0:0:0:0:
351,143,54549,2,0,P|402:134|455:137,1,101.649996897888,8|0,0:0|0:0,0:0:0:0:
220,345,54846,6,0,B|74:385|162:297|11:318,1,203.299993795777,2|0,0:0|0:0,0:0:0:0:
182,167,55292,2,0,P|176:211|169:282,1,101.649996897888,2|0,0:0|0:0,0:0:0:0:
74,123,55589,1,0,0:0:0:0:
286,221,55737,1,8,0:0:0:0:
24,268,55886,1,0,0:0:0:0:
163,80,56034,5,4,0:0:0:0:
300,299,56183,1,0,0:0:0:0:
276,63,56331,5,4,0:0:0:0:
183,339,56480,1,2,3:0:0:0:
395,110,56628,5,4,0:0:0:0:
118,263,56777,1,0,0:0:0:0:
413,277,56925,5,4,0:0:0:0:
111,110,57074,1,0,0:0:0:0:
397,79,57222,6,0,B|364:220|433:141|410:291,1,203.299993795777,6|0,0:0|0:0,0:0:0:0:
182,364,57668,2,0,B|161:228|230:307|197:166,1,203.299993795777,2|0,0:0|0:0,0:0:0:0:
268,324,58113,1,8,0:0:0:0:
90,245,58262,1,0,0:0:0:0:
309,164,58410,6,0,P|407:154|533:146,1,203.299993795777,2|0,0:0|0:0,0:0:0:0:
276,79,58856,1,2,0:0:0:0:
380,260,59004,2,0,P|429:248|500:238,1,101.649996897888,0|0,0:0|0:0,0:0:0:0:
132,260,59301,2,0,P|83:248|11:238,1,101.649996897888,8|0,0:0|0:0,0:0:0:0:
282,121,59598,6,0,P|272:220|267:338,1,203.299993795777,2|0,0:0|0:0,0:0:0:0:
168,167,60044,1,2,0:0:0:0:
356,241,60192,1,0,0:0:0:0:
146,288,60341,1,0,0:0:0:0:
418,384,60490,2,0,P|426:331|428:275,1,101.649996897888,8|0,0:0|0:0,0:0:0:0:
215,190,60787,5,6,0:0:0:0:
444,70,60935,1,0,0:0:0:0:
199,156,61084,1,6,0:0:0:0:
441,256,61232,1,0,0:0:0:0:
160,255,61381,5,6,0:0:0:0:
475,160,61529,1,0,0:0:0:0:
160,255,61678,1,8,0:0:0:0:
475,160,61826,1,0,0:0:0:0:
295,366,61975,6,0,B|149:406|237:318|86:339,1,203.299993795777,6|0,0:0|0:0,0:0:0:0:
183,128,62420,2,0,P|239:155|232:294,1,203.299993795777,6|0,0:0|0:0,0:0:0:0:
83,165,62866,2,0,P|87:112|104:51,1,101.649996897888,2|0,0:0|0:0,0:0:0:0:
243,282,63163,6,0,P|240:191|227:75,1,203.299993795777,6|0,0:0|0:0,0:0:0:0:
151,283,63608,2,0,P|181:355|321:340,1,203.299993795777,6|0,0:0|0:0,0:0:0:0:
477,257,64054,2,0,P|431:251|368:245,1,101.649996897888,2|0,0:0|0:0,0:0:0:0:
230,125,64351,6,0,B|376:165|288:77|439:98,1,203.299993795777,6|0,0:0|0:0,0:0:0:0:
257,36,64796,2,0,P|165:55|152:174,1,203.299993795777,6|0,0:0|0:0,0:0:0:0:
311,219,65242,2,0,P|365:208|420:204,1,101.649996897888,2|0,0:0|0:0,0:0:0:0:
148,342,65539,5,6,0:0:0:0:
57,74,65687,1,0,0:0:0:0:
229,328,65836,5,6,0:0:0:0:
181,16,65985,1,2,3:0:0:0:
311,337,66133,5,6,0:0:0:0:
342,20,66282,1,0,0:0:0:0:
510,236,66430,1,2,0:0:0:0:
218,152,66579,1,0,0:0:0:0:
478,40,66727,5,4,0:0:0:0:
325,249,66876,1,2,3:0:0:0:
325,249,66950,1,2,3:0:0:0:
325,249,67024,1,2,3:0:0:0:
181,16,67173,1,6,0:0:0:0:
510,236,67470,1,6,0:0:0:0:
174,384,67767,1,6,0:0:0:0:
174,384,68361,5,0,0:0:0:0:
88,268,68509,2,0,P|75:204|63:123,2,135.533329197184,2|2|2,0:0|0:0|0:0,0:0:0:0:
198,358,69103,6,0,P|244:341|319:348,1,95,6|0,0:0|0:0,0:0:0:0:
489,226,69400,2,0,P|436:222|397:199,1,95,0|6,0:0|0:0,0:0:0:0:
310,62,69697,1,0,0:0:0:0:
468,128,69846,1,0,0:0:0:0:
317,237,69994,2,0,P|309:183|302:132,1,95,8|0,0:0|0:0,0:0:0:0:
370,307,70292,6,0,B|230:345|312:259|165:284,1,190,6|0,0:0|0:0,0:0:0:0:
72,105,70737,1,6,0:0:0:0:
246,166,70886,1,0,0:0:0:0:
99,218,71034,1,0,0:0:0:0:
215,73,71183,2,0,P|266:64|332:62,1,95,8|0,0:0|0:0,0:0:0:0:
30,263,71480,6,0,P|21:318|25:359,1,95,6|0,0:0|0:0,0:0:0:0:
321,295,71777,2,0,P|330:240|326:199,1,95,0|6,0:0|0:0,0:0:0:0:
122,326,72074,1,0,0:0:0:0:
331,379,72222,1,0,0:0:0:0:
125,194,72371,2,0,P|76:188|14:182,1,95,8|0,0:0|0:0,0:0:0:0:
204,370,72668,5,6,0:0:0:0:
92,78,72816,1,0,0:0:0:0:
316,269,72965,5,6,0:0:0:0:
21,162,73113,1,2,3:0:0:0:
325,89,73262,1,6,0:0:0:0:
16,190,73410,1,0,0:0:0:0:
255,348,73559,5,6,0:0:0:0:
184,17,73707,1,0,0:0:0:0:
394,229,73856,6,0,P|399:177|404:133,1,95,4|0,0:0|0:0,0:0:0:0:
198,291,74153,2,0,P|192:239|188:195,1,95,0|6,0:0|0:0,0:0:0:0:
338,363,74450,1,0,0:0:0:0:
100,330,74598,1,0,0:0:0:0:
300,239,74747,2,0,P|346:232|403:229,1,95,8|0,0:0|0:0,0:0:0:0:
207,108,75044,5,6,0:0:0:0:
489,220,75193,1,2,3:0:0:0:
489,220,75267,1,2,3:0:0:0:
489,220,75341,1,2,3:0:0:0:
198,291,75490,1,6,0:0:0:0:
380,90,75638,5,0,3:0:0:0:
338,363,75787,1,2,0:0:0:0:
380,90,75935,1,2,0:0:0:0:
338,363,76084,1,2,0:0:0:0:
177,189,76232,6,0,P|72:173|15:248,1,190,6|0,0:0|0:0,0:0:0:0:
187,351,76678,2,0,B|336:379|223:301|392:317,1,190,4|4,0:0|0:0,0:0:0:0:
476,363,77123,1,0,0:0:0:0:
500,346,77420,5,6,0:0:0:0:
360,201,77569,1,0,0:0:0:0:
512,257,77717,1,0,0:0:0:0:
358,318,77866,2,0,P|275:326|162:316,1,190,4|4,0:0|0:0,0:0:0:0:
35,237,78311,1,2,0:0:0:0:
11,218,78608,5,4,0:0:0:0:
177,35,78757,1,4,0:0:0:0:
294,351,79054,5,4,0:0:0:0:
507,163,79351,5,4,0:0:0:0:
272,240,79648,6,0,B|187:267|111:253|96:170|127:120|201:139|193:216,1,285,4|0,0:0|0:0,0:0:0:0:
87,315,80242,2,0,P|61:310|30:307,2,47.5,0|0|0,0:0|0:0|0:0,0:0:0:0:
