osu file format v14

[General]
AudioFilename: audio.mp3
AudioLeadIn: 0
PreviewTime: 46603
Countdown: 0
SampleSet: Soft
StackLeniency: 0.7
Mode: 0
LetterboxInBreaks: 0
WidescreenStoryboard: 0

[Editor]
Bookmarks: 4945,33460,38212,42965,79648,80688
DistanceSpacing: 1
BeatDivisor: 4
GridSize: 4
TimelineZoom: 2.5

[Metadata]
Title:Responsibility Response
TitleUnicode:Responsibility Response
Artist:Izumi Akazawa (CV. Madoka Yonezawa)
ArtistUnicode:赤沢泉美(CV.米澤 円)
Creator:Shmiklak
Version:LP's Extra
Source:Another
Tags:slayed fcl wajinshu -bakari- deppyforce salsa vanucik5656 themefisto fanteer yaleufeu lama_poluna lama poluna tropical collab collaboration vanucik
BeatmapID:1077991
BeatmapSetID:495332

[Difficulty]
HPDrainRate:6
CircleSize:3.8
OverallDifficulty:9
ApproachRate:9.4
SliderMultiplier:1.8
SliderTickRate:2

[Events]
//Background and Video events
0,0,"shmiklakgey.jpg",0,0
0,0,"shmiklakgey.jpg",0,0
//Break Periods
//Storyboard Layer 0 (Background)
//Storyboard Layer 1 (Fail)
//Storyboard Layer 2 (Pass)
//Storyboard Layer 3 (Foreground)
//Storyboard Sound Samples

[TimingPoints]
193,297.029702970297,4,2,0,70,1,0
193,-111.111111111111,4,2,0,70,0,0
4945,-100,4,2,1,70,0,0
14450,-133.333333333333,4,2,1,70,0,0
33163,-200,4,2,1,70,0,0
33460,-133.333333333333,4,2,0,70,0,0
38212,-100,4,2,1,70,0,0
45564,-100,4,2,1,5,0,0
45638,-100,4,2,1,70,0,0
45861,-100,4,2,1,5,0,0
45935,-100,4,2,1,70,0,0
46158,-100,4,2,1,5,0,0
46232,-100,4,2,1,70,0,0
47717,-90.9090909090909,4,2,1,70,0,1
52173,-200,4,2,1,70,0,1
52470,-90.9090909090909,4,2,1,70,0,1
56034,-66.6666666666667,4,2,1,70,0,1
56257,-66.6666666666667,4,2,1,5,0,1
56331,-80,4,2,1,70,0,1
56554,-80,4,2,1,5,0,1
56628,-100,4,2,1,70,0,1
56851,-100,4,2,1,5,0,1
56925,-200,4,2,1,70,0,1
57222,-90.9090909090909,4,2,1,70,0,1
61678,-200,4,2,1,70,0,1
61900,-200,4,2,1,5,0,1
61975,-90.9090909090909,4,2,1,70,0,1
65539,-66.6666666666667,4,2,1,70,0,1
65762,-66.6666666666667,4,2,1,5,0,1
65836,-80,4,2,1,70,0,1
66059,-80,4,2,1,5,0,1
66133,-100,4,2,1,70,0,1
66356,-100,4,2,1,5,0,1
66430,-200,4,2,1,70,0,1
66653,-200,4,2,1,5,0,1
66727,-90.9090909090909,4,2,1,70,0,1
67767,-200,4,2,1,70,0,1
69103,-100,4,2,1,70,0,0
72891,-100,4,2,1,5,0,0
72965,-100,4,2,1,70,0,0
73188,-100,4,2,1,5,0,0
73262,-100,4,2,1,70,0,0
73485,-100,4,2,1,5,0,0
73559,-200,4,2,1,70,0,0
73782,-200,4,2,1,5,0,0
73856,-100,4,2,1,70,0,0
78608,-66.6666666666667,4,2,1,70,0,0
78683,-66.6666666666667,4,2,1,5,0,0
78757,-100,4,2,1,70,0,0
78980,-100,4,2,1,5,0,0
79054,-100,4,2,1,70,0,0
79277,-100,4,2,1,5,0,0
79351,-100,4,2,1,70,0,0
79574,-100,4,2,1,5,0,0
79648,-200,4,2,1,70,0,0
79796,-66.6666666666667,4,2,1,70,0,0

[Colours]
Combo1 : 17,254,176
Combo2 : 173,255,95
Combo3 : 255,88,100
Combo4 : 255,94,55

[HitObjects]
396,184,193,6,0,L|484:176,1,80.9999975280763,2|0,0:0|0:0,0:0:0:0:
328,328,490,1,2,0:0:0:0:
328,328,638,2,0,L|160:320,1,161.999995056153,2|2,0:0|0:0,0:0:0:0:
128,160,1084,1,0,0:0:0:0:
32,188,1232,2,0,P|40:120|120:60,1,161.999995056153,2|2,0:0|0:0,0:0:0:0:
224,352,1678,1,0,0:0:0:0:
264,256,1826,2,0,B|200:248|200:248|176:264|176:264|108:256,1,161.999995056153,2|0,0:0|0:0,0:0:0:0:
328,340,2272,2,0,L|408:328,1,80.9999975280763,2|0,0:0|0:0,0:0:0:0:
512,160,2569,5,2,0:0:0:0:
436,76,2717,1,0,0:0:0:0:
324,68,2866,1,2,0:0:0:0:
236,140,3014,2,0,P|168:184|72:160,1,161.999995056153,2|2,0:0|0:0,0:0:0:0:
80,24,3460,1,0,0:0:0:0:
0,104,3608,2,0,L|16:272,1,161.999995056153,2|2,0:0|0:0,0:0:0:0:
28,364,4054,5,2,3:0:0:0:
128,276,4202,1,2,3:0:0:0:
304,368,4351,1,2,3:0:0:0:
468,368,4945,6,0,B|492:316|492:316|464:192,1,180,6|0,0:0|0:0,0:0:0:0:
200,304,5391,2,0,B|272:292|272:292|304:312|304:312|388:296,1,180,6|0,0:0|0:0,0:0:0:0:
340,88,5836,2,0,L|332:192,1,90,6|0,0:0|0:0,0:0:0:0:
184,168,6133,6,0,P|124:124|16:148,1,180,6|0,0:0|0:0,0:0:0:0:
108,312,6579,2,0,L|300:288,1,180,6|0,0:0|0:0,0:0:0:0:
452,356,7024,1,0,3:0:0:0:
452,356,7321,6,0,P|448:272|424:176,1,180,6|0,0:0|0:0,0:0:0:0:
232,268,7767,2,0,P|280:332|336:268,1,180,6|0,0:0|0:0,0:0:0:0:
172,152,8212,2,0,P|117:223|78:304,1,180,6|6,0:0|0:0,0:0:0:0:
292,176,8658,5,0,3:0:0:0:
292,176,8732,1,0,3:0:0:0:
292,176,8806,1,8,3:0:0:0:
72,108,8955,1,4,0:0:0:0:
256,72,9103,1,10,3:0:0:0:
40,112,9400,1,10,3:0:0:0:
12,116,9697,6,0,L|192:128,1,180,6|0,0:0|0:0,0:0:0:0:
216,308,10143,2,0,L|396:296,1,180,6|0,0:0|0:0,0:0:0:0:
488,140,10589,2,0,P|480:88|452:48,1,90,6|0,0:0|0:0,0:0:0:0:
324,176,10886,6,0,B|316:244|316:244|336:276|336:276|320:364,1,180,6|0,0:0|0:0,0:0:0:0:
96,124,11331,2,0,P|144:76|260:112,1,180,6|0,0:0|0:0,0:0:0:0:
128,308,11777,2,0,L|0:296,1,90,6|0,0:0|0:0,0:0:0:0:
336,184,12074,6,0,P|424:208|532:192,1,180,6|0,0:0|0:0,0:0:0:0:
188,316,12519,2,0,P|100:340|-8:324,1,180,6|0,0:0|0:0,0:0:0:0:
384,96,12965,2,0,P|427:108|481:99,1,90,6|0,0:0|0:0,0:0:0:0:
471,102,14450,6,0,L|307:94,1,135.000005149842,2|0,0:0|0:0,0:0:0:0:
220,168,14895,2,0,B|192:124|192:124|212:16,1,135.000005149842,2|0,0:0|0:0,0:0:0:0:
328,208,15341,2,0,L|312:300,1,67.5000025749208,8|0,0:0|0:0,0:0:0:0:
124,360,15638,6,0,P|56:368|-8:308,1,135.000005149842,2|0,0:0|0:0,0:0:0:0:
32,200,16084,2,0,P|100:192|164:252,1,135.000005149842,2|0,0:0|0:0,0:0:0:0:
244,324,16529,2,0,L|340:316,1,67.5000025749208,8|0,0:0|0:0,0:0:0:0:
500,208,16826,6,0,B|460:180|460:180|356:188,1,135.000005149842,2|0,0:0|0:0,0:0:0:0:
288,292,17272,2,0,B|248:320|248:320|144:312,1,135.000005149842,2|0,0:0|0:0,0:0:0:0:
44,248,17717,2,0,P|52:200|72:168,1,67.5000025749208,8|0,0:0|0:0,0:0:0:0:
132,68,18014,5,2,0:0:0:0:
208,228,18163,1,0,0:0:0:0:
296,76,18311,5,2,0:0:0:0:
248,300,18460,1,0,0:0:0:0:
420,180,18608,5,2,0:0:0:0:
260,380,18757,1,0,0:0:0:0:
472,272,18905,2,0,L|456:344,1,67.5000025749208,8|0,0:0|0:0,0:0:0:0:
312,228,19202,6,0,P|308:164|348:88,1,135.000005149842,2|0,0:0|0:0,0:0:0:0:
175,100,19648,2,0,P|203:161|200:228,1,135.000005149842,2|0,0:0|0:0,0:0:0:0:
104,324,20093,2,0,L|28:312,1,67.5000025749208,8|0,0:0|0:0,0:0:0:0:
244,360,20391,6,0,L|400:348,1,135.000005149842,2|0,0:0|0:0,0:0:0:0:
468,248,20836,2,0,B|488:200|488:200|468:92,1,135.000005149842,2|0,0:0|0:0,0:0:0:0:
340,92,21282,2,0,L|352:176,1,67.5000025749208,8|0,0:0|0:0,0:0:0:0:
184,276,21579,6,0,P|112:284|56:228,1,135.000005149842,2|0,0:0|0:0,0:0:0:0:
92,116,22024,2,0,P|164:108|220:164,1,135.000005149842,2|0,0:0|0:0,0:0:0:0:
304,244,22470,2,0,P|352:256|396:244,1,67.5000025749208,8|0,0:0|0:0,0:0:0:0:
476,164,22767,5,2,0:0:0:0:
340,376,22915,1,0,0:0:0:0:
376,112,23064,5,2,0:0:0:0:
232,324,23212,1,0,0:0:0:0:
201,338,23286,1,0,0:0:0:0:
168,344,23360,1,2,0:0:0:0:
135,341,23434,1,0,0:0:0:0:
103,330,23509,1,2,3:0:0:0:
76,310,23583,1,2,3:0:0:0:
54,284,23657,1,2,3:0:0:0:
160,216,23806,1,2,3:0:0:0:
48,160,23955,6,0,B|32:116|32:116|52:24,1,135.000005149842,2|0,0:0|0:0,0:0:0:0:
164,100,24400,2,0,L|308:92,1,135.000005149842,2|0,0:0|0:0,0:0:0:0:
432,64,24846,2,0,L|416:160,1,67.5000025749208,8|0,0:0|0:0,0:0:0:0:
456,284,25143,6,0,B|404:244|404:244|328:272,1,135.000005149842,2|0,0:0|0:0,0:0:0:0:
224,340,25589,2,0,B|172:328|172:328|148:340|148:340|64:328,1,135.000005149842,2|0,0:0|0:0,0:0:0:0:
24,216,26034,2,0,P|36:184|72:144,1,67.5000025749208,8|0,0:0|0:0,0:0:0:0:
164,76,26331,6,0,L|312:92,1,135.000005149842,2|0,0:0|0:0,0:0:0:0:
364,208,26777,2,0,L|229:193,1,135.000005149842,2|0,0:0|0:0,0:0:0:0:
96,176,27222,2,0,L|108:268,1,67.5000025749208,8|0,0:0|0:0,0:0:0:0:
124,352,27519,5,2,0:0:0:0:
196,184,27668,1,0,0:0:0:0:
216,352,27816,5,2,0:0:0:0:
156,100,27965,1,0,0:0:0:0:
296,304,28113,5,2,0:0:0:0:
96,176,28262,1,0,0:0:0:0:
340,220,28410,2,0,L|412:216,1,67.5000025749208,8|0,0:0|0:0,0:0:0:0:
500,120,28707,6,0,P|448:96|368:92,1,135.000005149842,2|0,0:0|0:0,0:0:0:0:
248,148,29153,2,0,P|196:172|116:176,1,135.000005149842,2|0,0:0|0:0,0:0:0:0:
24,80,29598,2,0,L|40:8,1,67.5000025749208,8|0,0:0|0:0,0:0:0:0:
32,276,29895,6,0,B|76:304|76:304|184:288,1,135.000005149842,2|0,0:0|0:0,0:0:0:0:
280,352,30341,2,0,B|324:324|324:324|432:340,1,135.000005149842,2|0,0:0|0:0,0:0:0:0:
480,224,30787,2,0,L|400:212,1,67.5000025749208,8|0,0:0|0:0,0:0:0:0:
324,72,31084,6,0,P|264:108|188:104,1,135.000005149842,2|0,0:0|0:0,0:0:0:0:
76,56,31529,2,0,L|96:200,1,135.000005149842,2|0,0:0|0:0,0:0:0:0:
24,308,31975,2,0,L|96:320,1,67.5000025749208,8|0,0:0|0:0,0:0:0:0:
196,376,32272,5,2,0:0:0:0:
256,200,32420,1,0,0:0:0:0:
152,180,32569,5,2,0:0:0:0:
212,356,32717,1,2,3:0:0:0:
238,335,32791,1,0,0:0:0:0:
270,324,32865,1,2,3:0:0:0:
304,322,32939,1,0,0:0:0:0:
336,330,33014,1,2,3:0:0:0:
365,346,33088,1,0,0:0:0:0:
388,371,33163,6,0,L|464:360,1,67.5,2|0,3:0|0:0,0:0:0:0:
512,192,33460,6,0,P|468:220|304:100,2,270.000010299683,4|0|2,0:0|3:0|0:0,0:0:0:0:
0,192,35836,2,0,P|44:220|208:100,2,270.000010299683,2|0|2,0:0|3:0|0:0,0:0:0:0:
248,372,38212,6,0,L|268:172,1,180,6|0,0:0|0:0,0:0:0:0:
196,28,38658,2,0,P|128:44|84:140,1,180,2|0,0:0|0:0,0:0:0:0:
56,316,39103,2,0,L|180:300,1,90,2|0,0:0|0:0,0:0:0:0:
427,218,39400,6,0,B|391:178|391:178|251:194,1,180,2|0,0:0|0:0,0:0:0:0:
92,148,39846,2,0,B|64:236|64:236|124:320,1,180,2|0,0:0|0:0,0:0:0:0:
288,364,40292,2,0,L|276:260,1,90,2|0,0:0|0:0,0:0:0:0:
260,96,40589,6,0,B|328:88|328:88|360:108|360:108|448:96,1,180,2|0,0:0|0:0,0:0:0:0:
433,285,41034,2,0,B|360:276|360:276|328:296|328:296|260:288,1,180,2|0,0:0|0:0,0:0:0:0:
80,268,41480,2,0,P|40:192|104:104,2,180,2|2|0,0:0|0:0|0:0,0:0:0:0:
228,372,42222,1,2,0:0:0:0:
356,244,42371,2,0,L|344:140,1,90,0|0,0:0|0:0,0:0:0:0:
80,268,42668,2,0,L|68:372,1,90,2|0,0:0|0:0,0:0:0:0:
0,180,42965,6,0,B|56:152|56:152|188:172,1,180,2|0,0:0|0:0,0:0:0:0:
284,28,43410,2,0,P|356:124|356:216,1,180,2|0,0:0|0:0,0:0:0:0:
115,349,43856,2,0,P|84:292|79:245,1,90,2|0,0:0|0:0,0:0:0:0:
336,312,44153,6,0,B|404:304|404:304|444:328|444:328|540:316,1,180,2|0,0:0|0:0,0:0:0:0:
180,172,44598,2,0,B|112:164|112:164|72:188|72:188|-24:176,1,180,2|0,0:0|0:0,0:0:0:0:
384,112,45044,2,0,L|484:104,1,90,2|0,0:0|0:0,0:0:0:0:
131,55,45341,6,0,P|143:135|179:171,1,135,6|0,0:0|0:0,0:0:0:0:
437,152,45638,2,0,P|361:122|312:135,1,135,6|0,0:0|0:0,0:0:0:0:
199,368,45935,2,0,P|263:318|276:269,1,135,6|0,0:0|0:0,0:0:0:0:
256,192,46232,5,6,0:0:0:0:
76,352,47123,5,2,0:3:0:0:
76,352,47717,6,0,P|80:272|124:144,1,198.000006042481,4|0,0:0|0:0,0:0:0:0:
408,96,48163,1,4,0:0:0:0:
308,32,48311,2,0,L|288:156,1,99.0000030212403,0|0,0:0|0:0,0:0:0:0:
272,296,48608,2,0,B|328:332|328:332|488:292,1,198.000006042481,8|2,0:0|0:0,0:0:0:0:
440,196,49054,1,0,0:0:0:0:
168,368,49202,2,0,L|152:264,1,99.0000030212403,0|2,0:0|0:0,0:0:0:0:
344,104,49499,2,0,L|332:204,1,99.0000030212403,0|0,0:0|0:0,0:0:0:0:
132,136,49796,1,8,0:0:0:0:
304,328,49945,1,0,0:0:0:0:
32,372,50093,6,0,P|48:292|176:264,1,198.000006042481,2|0,0:0|0:0,0:0:0:0:
397,194,50539,1,2,0:0:0:0:
440,340,50688,2,0,L|332:348,1,99.0000030212403,0|0,0:0|0:0,0:0:0:0:
232,72,50985,2,0,L|340:80,1,99.0000030212403,8|0,0:0|0:0,0:0:0:0:
397,194,51282,5,6,0:0:0:0:
73,246,51430,1,0,0:0:0:0:
388,278,51579,5,6,0:0:0:0:
81,161,51727,1,0,0:0:0:0:
338,347,51876,5,6,0:0:0:0:
131,92,52024,1,0,0:0:0:0:
256,372,52173,6,0,L|252:296,1,67.5,8|0,0:0|0:0,0:0:0:0:
160,252,52470,6,0,B|276:212|232:308|376:260,1,198.000006042481,2|0,0:0|0:0,0:0:0:0:
488,208,52915,1,2,0:0:0:0:
504,124,53064,2,0,P|496:64|472:24,1,99.0000030212403,0|0,0:0|0:0,0:0:0:0:
280,96,53361,2,0,P|288:156|312:196,1,99.0000030212403,8|0,0:0|0:0,0:0:0:0:
208,340,53658,2,0,L|-20:316,1,198.000006042481,2|0,0:0|0:0,0:0:0:0:
184,228,54103,1,2,0:0:0:0:
296,256,54252,2,0,P|324:308|320:376,1,99.0000030212403,0|0,0:0|0:0,0:0:0:0:
208,340,54549,1,8,0:0:0:0:
384,180,54697,1,0,0:0:0:0:
176,44,54846,6,0,B|148:100|148:100|184:240,1,198.000006042481,2|0,0:0|0:0,0:0:0:0:
324,12,55292,1,2,0:0:0:0:
384,100,55440,2,0,L|272:108,1,99.0000030212403,0|0,0:0|0:0,0:0:0:0:
396,360,55737,2,0,L|508:368,1,99.0000030212403,8|0,0:0|0:0,0:0:0:0:
432,228,56034,6,0,B|396:236|360:216|360:216|324:240|324:240|284:212|208:224,1,202.500007724762,4|0,0:0|0:0,0:0:0:0:
192,120,56331,6,0,B|140:148|128:212|128:212|96:200|88:160,1,168.75,4|0,0:0|0:0,0:0:0:0:
76,60,56628,6,0,P|120:20|204:4,1,135,4|0,0:0|0:0,0:0:0:0:
300,64,56925,6,0,L|380:60,1,67.5,4|0,0:0|0:0,0:0:0:0:
512,176,57222,6,0,B|444:164|444:164|408:188|408:188|304:172,1,198.000006042481,6|0,0:0|0:0,0:0:0:0:
384,268,57668,1,2,0:0:0:0:
448,348,57816,2,0,B|476:308|476:308|464:244,1,99.0000030212403,0|0,0:0|0:0,0:0:0:0:
156,196,58113,2,0,B|128:236|128:236|140:300,1,99.0000030212403,8|0,0:0|0:0,0:0:0:0:
300,364,58410,2,0,L|284:164,1,198.000006042481,2|0,0:0|0:0,0:0:0:0:
156,196,58856,1,2,0:0:0:0:
137,285,59004,2,0,P|81:301|29:309,1,99.0000030212403,0|0,0:0|0:0,0:0:0:0:
392,200,59301,2,0,P|440:208|488:222,1,99.0000030212403,8|0,0:0|0:0,0:0:0:0:
128,180,59598,6,0,P|112:120|228:36,1,198.000006042481,2|0,0:0|0:0,0:0:0:0:
240,212,60044,1,2,0:0:0:0:
168,292,60192,2,0,L|60:284,1,99.0000030212403,0|0,0:0|0:0,0:0:0:0:
392,200,60490,2,0,L|500:192,1,99.0000030212403,8|0,0:0|0:0,0:0:0:0:
316,352,60787,5,6,0:0:0:0:
204,120,60935,1,0,0:0:0:0:
136,316,61084,5,6,0:0:0:0:
404,92,61232,1,0,0:0:0:0:
56,176,61381,5,6,0:0:0:0:
476,276,61529,1,0,0:0:0:0:
207,52,61678,6,0,L|203:136,1,67.5,8|0,0:0|0:0,0:0:0:0:
292,156,61975,6,0,B|184:204|208:100|70:160,1,198.000006042481,6|0,0:0|0:0,0:0:0:0:
0,264,62420,1,6,0:0:0:0:
60,332,62569,2,0,L|164:320,1,99.0000030212403,0|0,0:0|0:0,0:0:0:0:
356,60,62866,2,0,L|252:48,1,99.0000030212403,2|0,0:0|0:0,0:0:0:0:
476,276,63163,6,0,B|504:216|504:216|452:64,1,198.000006042481,6|0,0:0|0:0,0:0:0:0:
144,248,63608,1,6,0:0:0:0:
208,336,63757,2,0,P|256:348|320:324,1,99.0000030212403,0|0,0:0|0:0,0:0:0:0:
184,72,64054,2,0,P|136:59|89:71,1,99.0000030212403,2|0,0:0|0:0,0:0:0:0:
32,228,64351,6,0,B|112:220|112:220|144:248|144:248|256:232,1,198.000006042481,6|0,0:0|0:0,0:0:0:0:
466,212,64796,1,6,0:0:0:0:
436,76,64945,2,0,B|400:44|400:44|320:52,1,99.0000030212403,0|0,0:0|0:0,0:0:0:0:
440,308,65242,2,0,L|472:192,1,99.0000030212403,2|0,0:0|0:0,0:0:0:0:
352,176,65539,6,0,P|292:232|168:212,1,202.500007724762,6|0,0:0|0:0,0:0:0:0:
124,128,65836,6,0,B|116:192|116:192|136:224|136:224|124:324,1,168.75,6|0,0:0|0:0,0:0:0:0:
32,380,66133,6,0,L|20:240,1,135,6|0,0:0|0:0,0:0:0:0:
36,64,66430,6,0,L|24:148,1,67.5,2|0,0:0|0:0,0:0:0:0:
20,245,66727,5,4,0:0:0:0:
356,228,66876,2,0,L|310:211,1,49.5000015106202,2|2,3:0|3:0,0:0:0:0:
136,152,67024,5,2,3:0:0:0:
433,262,67173,1,6,0:0:0:0:
258,50,67321,5,0,0:0:0:0:
311,364,67470,1,6,0:0:0:0:
407,106,67618,5,0,0:0:0:0:
162,308,67767,2,0,L|344:300,1,180,6|0,0:0|0:0,0:0:0:0:
436,260,68509,5,2,0:0:0:0:
436,260,68707,1,2,0:0:0:0:
436,260,68905,1,2,0:0:0:0:
436,260,69103,6,0,P|448:200|372:112,1,180,6|0,0:0|0:0,0:0:0:0:
248,28,69549,2,0,B|216:80|216:80|244:212,1,180,6|0,0:0|0:0,0:0:0:0:
172,332,69994,2,0,L|76:324,1,90,8|0,0:0|0:0,0:0:0:0:
8,188,70292,6,0,B|76:196|76:196|116:176|116:176|208:184,1,180,6|0,0:0|0:0,0:0:0:0:
288,288,70737,2,0,B|376:264|376:264|464:324,1,180,6|0,0:0|0:0,0:0:0:0:
448,104,71183,2,0,L|316:84,1,90,8|0,0:0|0:0,0:0:0:0:
192,20,71480,6,0,B|152:72|152:72|180:192,1,180,6|0,0:0|0:0,0:0:0:0:
312,384,71925,2,0,B|272:332|272:332|300:212,1,180,6|0,0:0|0:0,0:0:0:0:
132,296,72371,2,0,L|24:288,1,90,8|0,0:0|0:0,0:0:0:0:
8,144,72668,6,0,P|52:172|152:148,1,135,6|0,0:0|0:0,0:0:0:0:
256,144,72965,2,0,B|248:100|248:100|264:60|264:60|256:4,1,135,6|2,0:0|3:0,0:0:0:0:
380,163,73262,2,0,P|445:175|504:144,1,135,6|0,0:0|0:0,0:0:0:0:
472,268,73559,6,0,L|456:336,1,67.5,6|0,0:0|0:0,0:0:0:0:
344,292,73856,6,0,B|280:308|280:308|244:292|244:292|148:312,1,180,4|0,0:0|0:0,0:0:0:0:
24,344,74301,2,0,L|40:152,1,180,6|0,0:0|0:0,0:0:0:0:
192,64,74747,2,0,L|180:172,1,90,8|0,0:0|0:0,0:0:0:0:
170,307,75044,5,6,0:0:0:0:
456,168,75193,2,0,L|448:108,2,45,2|2|2,3:0|3:0|3:0,0:0:0:0:
436,20,75490,5,6,0:0:0:0:
344,292,75638,1,0,3:0:0:0:
182,153,75787,5,2,0:0:0:0:
488,308,75935,1,2,0:0:0:0:
308,372,76084,1,2,0:0:0:0:
256,64,76232,6,0,P|200:36|88:108,1,180,6|0,0:0|0:0,0:0:0:0:
16,208,76678,1,4,0:0:0:0:
496,176,76975,1,4,0:0:0:0:
172,48,77420,6,0,B|256:76|256:76|360:40,1,180,6|0,0:0|0:0,0:0:0:0:
256,360,77866,1,4,0:0:0:0:
256,72,78163,1,4,0:0:0:0:
307,139,78608,6,0,L|387:131,1,67.5000025749207,4|0,0:0|0:0,0:0:0:0:
512,224,78757,6,0,L|362:238,1,135,4|0,0:0|0:0,0:0:0:0:
204,372,79054,2,0,P|188:316|220:232,1,135,4|0,0:0|0:0,0:0:0:0:
308,12,79351,2,0,P|324:68|292:152,1,135,4|0,0:0|0:0,0:0:0:0:
209,244,79648,6,2,B|337:204|301:304|444:256,1,225,4|0,0:0|0:0,0:0:0:0:
