osu file format v14

[General]
AudioFilename: audio.mp3
AudioLeadIn: 0
PreviewTime: 46603
Countdown: 0
SampleSet: Soft
StackLeniency: 0.7
Mode: 0
LetterboxInBreaks: 0
WidescreenStoryboard: 0

[Editor]
Bookmarks: 193,14450,33460,57222,69103,79796
DistanceSpacing: 1.1
BeatDivisor: 4
GridSize: 4
TimelineZoom: 1.4

[Metadata]
Title:Responsibility Response
TitleUnicode:Responsibility Response
Artist:Izumi Akazawa (CV. Madoka Yonezawa)
ArtistUnicode:赤沢泉美(CV.米澤 円)
Creator:Shmiklak
Version:Fanteer's Normal
Source:Another
Tags:slayed fcl wajinshu -bakari- deppyforce salsa vanucik5656 themefisto fanteer yaleufeu lama_poluna lama poluna tropical collab collaboration vanucik
BeatmapID:1066058
BeatmapSetID:495332

[Difficulty]
HPDrainRate:2
CircleSize:3
OverallDifficulty:3
ApproachRate:4
SliderMultiplier:0.8
SliderTickRate:1

[Events]
//Background and Video events
0,0,"shmiklakgey.jpg",0,0
//Break Periods
//Storyboard Layer 0 (Background)
//Storyboard Layer 1 (Fail)
//Storyboard Layer 2 (Pass)
//Storyboard Layer 3 (Foreground)
//Storyboard Sound Samples

[TimingPoints]
193,297.029702970297,4,2,0,70,1,0
4945,-100,4,2,0,70,0,0
14450,-100,4,2,1,70,0,0
33460,-100,4,2,0,70,0,0
38212,-100,4,2,1,70,0,0
47717,-100,4,2,1,70,0,1
56925,-100,4,2,1,70,0,1
57222,-100,4,2,1,70,0,1
61975,-100,4,2,1,70,0,1
67767,-100,4,2,1,70,0,1
69103,-100,4,2,1,70,0,0
80539,-100,4,2,1,70,0,0

[Colours]
Combo1 : 17,254,176
Combo2 : 173,255,95
Combo3 : 255,88,100
Combo4 : 255,94,55

[HitObjects]
56,340,193,6,0,P|115:350|188:339,1,120,2|2,0:0|0:0,0:0:0:0:
246,290,935,1,2,0:0:0:0:
198,216,1232,2,0,P|193:178|195:137,1,80,2|2,0:0|0:0,0:0:0:0:
212,50,1826,1,2,0:0:0:0:
328,112,2272,5,2,0:0:0:0:
400,164,2569,2,0,P|412:220|392:280,1,120,2|2,0:0|0:0,0:0:0:0:
332,344,3311,2,0,P|290:350|253:343,1,80,2|2,0:0|0:0,0:0:0:0:
128,300,4054,2,0,P|86:299|47:309,2,80,2|2|0,3:0|3:0|0:0,0:0:0:0:
184,232,4945,6,0,P|186:190|181:149,1,80,6|0,0:0|0:0,0:0:0:0:
148,124,5391,1,6,0:0:0:0:
276,88,5836,1,6,0:0:0:0:
352,128,6133,2,0,P|394:133|445:127,1,80,6|0,0:0|0:0,0:0:0:0:
468,104,6579,1,6,0:0:0:0:
284,220,7321,6,0,P|281:264|285:308,1,80,6|0,0:0|0:0,0:0:0:0:
296,344,7767,1,6,0:0:0:0:
416,288,8212,1,6,0:0:0:0:
500,312,8509,2,0,P|504:275|490:229,1,80,6|8,0:0|3:0,0:0:0:0:
464,200,8955,1,4,0:0:0:0:
240,123,9697,6,0,P|195:128|150:126,1,80,6|0,0:0|0:0,0:0:0:0:
117,117,10143,1,6,0:0:0:0:
80,243,10589,1,6,0:0:0:0:
160,281,10886,2,0,P|201:288|253:283,1,80,6|0,0:0|0:0,0:0:0:0:
277,265,11331,1,6,0:0:0:0:
385,340,11777,6,0,P|429:345|474:333,1,80,6|6,0:0|0:0,0:0:0:0:
418,213,12519,1,6,0:0:0:0:
470,104,12965,1,6,0:0:0:0:
470,104,14450,6,0,P|397:86|313:98,1,160,2|0,0:0|0:0,0:0:0:0:
228,252,15638,2,0,P|301:270|385:258,1,160,2|0,0:0|0:0,0:0:0:0:
240,356,16826,2,0,P|164:338|85:362,1,160,2|0,0:0|0:0,0:0:0:0:
228,252,18014,1,2,0:0:0:0:
284,84,18608,1,2,0:0:0:0:
324,256,19202,6,0,P|289:325|204:348,1,160,2|0,0:0|0:0,0:0:0:0:
92,224,20391,2,0,P|81:142|94:58,1,160,2|0,0:0|0:0,0:0:0:0:
268,88,21579,2,0,P|347:101|424:75,1,160,2|0,0:0|0:0,0:0:0:0:
282,177,22767,1,2,0:0:0:0:
301,351,23361,1,2,0:0:0:0:
447,257,23955,6,0,P|467:180|450:103,1,160,2|0,0:0|0:0,0:0:0:0:
275,91,25143,2,0,P|196:105|115:89,1,160,2|0,0:0|0:0,0:0:0:0:
46,250,26331,2,0,P|124:236|202:250,1,160,2|0,0:0|0:0,0:0:0:0:
358,331,27519,1,2,0:0:0:0:
304,163,28113,1,2,0:0:0:0:
457,249,28707,6,0,P|478:173|455:81,1,160,2|0,0:0|0:0,0:0:0:0:
320,200,29895,2,0,P|304:277|325:354,1,160,2|0,0:0|0:0,0:0:0:0:
168,280,31084,2,0,L|152:116,1,160,2|0,0:0|0:0,0:0:0:0:
300,24,32272,1,2,0:0:0:0:
472,52,32866,1,2,3:0:0:0:
330,151,33460,6,0,B|244:122|170:171|170:171|124:99|29:106,1,320,4|2,0:0|0:0,0:0:0:0:
338,293,35836,6,0,P|415:318|414:142,1,320,2|2,0:0|0:0,0:0:0:0:
133,335,38212,6,0,P|152:258|138:165,1,160,6|0,0:0|0:0,0:0:0:0:
278,67,39400,2,0,P|355:84|440:49,1,160,2|0,0:0|0:0,0:0:0:0:
467,229,40589,2,0,P|406:237|342:228,1,120,2|2,0:0|0:0,0:0:0:0:
223,186,41480,1,2,0:0:0:0:
143,224,41777,2,0,P|124:287|128:347,1,120,2|2,0:0|0:0,0:0:0:0:
54,132,42965,6,0,P|46:92|52:40,1,80,2|0,0:0|0:0,0:0:0:0:
136,41,43559,2,0,P|177:43|215:39,1,80,0|2,0:0|0:0,0:0:0:0:
303,44,44153,2,0,P|346:37|390:39,1,80,2|0,0:0|0:0,0:0:0:0:
456,86,44747,2,0,P|466:128|460:166,1,80,0|2,0:0|0:0,0:0:0:0:
422,243,45341,5,6,0:0:0:0:
360,306,45638,1,6,0:0:0:0:
297,243,45935,1,6,0:0:0:0:
360,181,46232,1,6,0:0:0:0:
360,181,47717,6,0,P|295:170|227:180,1,120,4|4,0:0|0:0,0:0:0:0:
201,301,48608,1,8,0:0:0:0:
150,229,48905,2,0,P|137:189|141:143,1,80,2|0,0:0|0:0,0:0:0:0:
190,80,49499,2,0,P|233:79|281:59,1,80,0|8,0:0|0:0,0:0:0:0:
355,76,50093,6,0,P|379:132|372:202,1,120,2|2,0:0|0:0,0:0:0:0:
369,233,50688,2,0,P|407:245|459:245,2,80,0|8|6,0:0|0:0|0:0,0:0:0:0:
289,195,51579,1,6,0:0:0:0:
257,277,51876,1,6,0:0:0:0:
169,288,52173,1,8,0:0:0:0:
93,243,52470,6,0,P|80:183|99:116,1,120,2|2,0:0|0:0,0:0:0:0:
211,186,53361,1,8,0:0:0:0:
292,152,53658,2,0,P|351:141|411:149,1,120,2|2,0:0|0:0,0:0:0:0:
386,278,54549,1,8,0:0:0:0:
329,345,54846,6,0,P|268:352|200:348,2,120,2|2|8,0:0|0:0|0:0,0:0:0:0:
386,278,56034,1,4,0:0:0:0:
388,192,56331,1,4,0:0:0:0:
304,164,56628,1,4,0:0:0:0:
252,92,56925,1,4,0:0:0:0:
184,36,57222,6,0,P|244:4|308:24,1,120,6|2,0:0|0:0,0:0:0:0:
392,100,58113,1,8,0:0:0:0:
468,144,58410,2,0,L|486:263,1,120,2|2,0:0|0:0,0:0:0:0:
380,344,59301,1,8,0:0:0:0:
304,296,59598,6,0,P|249:286|173:308,1,120,2|2,0:0|0:0,0:0:0:0:
72,364,60490,1,8,0:0:0:0:
36,284,60787,2,0,P|24:214|35:152,1,120,6|0,0:0|0:0,0:0:0:0:
140,92,61678,1,8,0:0:0:0:
220,132,61975,6,0,P|281:139|341:121,1,120,6|6,0:0|0:0,0:0:0:0:
456,64,62866,1,2,0:0:0:0:
496,140,63163,2,0,L|488:264,1,120,6|6,0:0|0:0,0:0:0:0:
420,372,64054,1,2,0:0:0:0:
348,324,64351,6,0,P|284:316|218:328,1,120,6|6,0:0|0:0,0:0:0:0:
100,292,65242,1,2,0:0:0:0:
56,216,65539,2,0,L|57:86,1,120,6|2,0:0|3:0,0:0:0:0:
168,24,66430,1,2,0:0:0:0:
240,72,66727,6,0,P|299:85|363:73,1,120,4|6,0:0|0:0,0:0:0:0:
432,28,67470,1,6,0:0:0:0:
480,100,67767,2,0,L|466:263,1,160,6|0,0:0|0:0,0:0:0:0:
348,72,69103,6,0,P|289:64|222:77,1,120,6|6,0:0|0:0,0:0:0:0:
108,124,69994,1,8,0:0:0:0:
28,156,70292,2,0,L|20:276,1,120,6|6,0:0|0:0,0:0:0:0:
128,352,71183,1,8,0:0:0:0:
208,320,71480,6,0,L|333:310,2,120,6|6|8,0:0|0:0|0:0,0:0:0:0:
128,352,72668,1,6,0:0:0:0:
100,268,72965,1,6,0:0:0:0:
168,212,73262,1,6,0:0:0:0:
180,124,73559,1,6,0:0:0:0:
192,36,73856,6,0,L|321:27,1,120,4|6,0:0|0:0,0:0:0:0:
440,56,74747,1,8,0:0:0:0:
400,136,75044,2,0,L|280:128,1,120,6|6,0:0|0:0,0:0:0:0:
204,172,75787,2,0,L|213:251,1,80,2|2,0:0|0:0,0:0:0:0:
244,280,76232,6,0,P|181:275|117:288,1,120,6|4,0:0|0:0,0:0:0:0:
52,336,76975,1,4,0:0:0:0:
16,208,77420,2,0,L|20:80,1,120,6|4,0:0|0:0,0:0:0:0:
92,40,78163,1,4,0:0:0:0:
220,72,78608,6,0,L|231:158,1,80,4|0,0:0|0:0,0:0:0:0:
256,188,79054,1,4,0:0:0:0:
196,252,79351,1,4,0:0:0:0:
232,332,79648,2,0,B|288:304|348:328|348:328|404:308|404:308|468:316,1,240,4|0,0:0|0:0,0:0:0:0:
