osu file format v14

[General]
AudioFilename: audio.mp3
AudioLeadIn: 0
PreviewTime: 46603
Countdown: 0
SampleSet: Soft
StackLeniency: 0.7
Mode: 0
LetterboxInBreaks: 0
WidescreenStoryboard: 0

[Editor]
Bookmarks: 4945,69400
DistanceSpacing: 2.6
BeatDivisor: 4
GridSize: 4
TimelineZoom: 1.9

[Metadata]
Title:Responsibility Response
TitleUnicode:Responsibility Response
Artist:Izumi Akazawa (CV. Madoka Yonezawa)
ArtistUnicode:赤沢泉美(CV.米澤 円)
Creator:Shmiklak
Version:FCL's Extreme
Source:Another
Tags:slayed fcl wajinshu -bakari- deppyforce salsa vanucik5656 themefisto fanteer yaleufeu lama_poluna lama poluna tropical collab collaboration vanucik
BeatmapID:1054501
BeatmapSetID:495332

[Difficulty]
HPDrainRate:7
CircleSize:4
OverallDifficulty:8.7
ApproachRate:9.4
SliderMultiplier:1.9
SliderTickRate:1

[Events]
//Background and Video events
0,0,"shmiklakgey.jpg",0,0
//Break Periods
//Storyboard Layer 0 (Background)
//Storyboard Layer 1 (Fail)
//Storyboard Layer 2 (Pass)
//Storyboard Layer 3 (Foreground)
//Storyboard Sound Samples

[TimingPoints]
193,297.029702970297,4,2,0,70,1,0
193,-111.111111111111,4,2,0,70,0,0
4945,-83.3333333333333,4,2,1,70,0,0
5836,-125,4,2,1,70,0,0
6133,-76.9230769230769,4,2,1,70,0,0
8212,-111.111111111111,4,2,1,70,0,0
8509,-71.4285714285714,4,2,1,70,0,0
10589,-100,4,2,1,70,0,0
10886,-66.6666666666667,4,2,1,70,0,0
11777,-90.9090909090909,4,2,1,70,0,0
12074,-62.5,4,2,1,70,0,0
12965,-500,4,2,1,70,0,0
14450,-111.111111111111,4,2,1,70,0,0
33460,-166.666666666667,4,2,0,70,0,0
38212,-111.111111111111,4,2,1,70,0,0
42891,-100,4,2,1,70,0,0
47717,-90.9090909090909,4,2,1,70,0,1
61975,-83.3333333333333,4,2,1,70,0,1
63163,-76.9230769230769,4,2,1,70,0,1
64351,-71.4285714285714,4,2,1,70,0,1
67173,-90.9090909090909,4,2,1,70,0,1
67767,-200,4,2,1,70,0,1
69103,-100,4,2,1,70,0,0
76232,-90.9090909090909,4,2,1,70,0,0
77420,-83.3333333333333,4,2,1,70,0,0
79648,-100,4,2,1,70,0,0
79796,-66.6666666666667,4,2,1,70,0,0

[Colours]
Combo1 : 17,254,176
Combo2 : 173,255,95
Combo3 : 255,88,100
Combo4 : 255,94,55

[HitObjects]
126,103,193,6,0,L|21:109,2,85.4999973907472,2|0|2,0:0|0:0|0:0,0:0:0:0:
303,183,638,2,0,P|230:219|157:158,1,170.999994781494,2|2,0:0|0:0,0:0:0:0:
162,172,1084,1,0,0:0:0:0:
327,316,1232,2,0,B|355:336|354:353|354:353|374:205,1,170.999994781494,2|2,0:0|0:0,0:0:0:0:
370,230,1678,1,0,0:0:0:0:
279,79,1826,2,0,L|99:73,1,170.999994781494,2|0,0:0|0:0,0:0:0:0:
48,199,2272,1,2,0:0:0:0:
108,73,2420,1,0,0:0:0:0:
170,229,2569,6,0,P|176:270|165:315,2,85.4999973907472,2|0|2,0:0|0:0|0:0,0:0:0:0:
279,79,3014,2,0,P|321:58|446:93,1,170.999994781494,2|2,0:0|0:0,0:0:0:0:
436,84,3460,1,0,0:0:0:0:
301,344,3608,2,0,L|298:139,1,170.999994781494,2|2,0:0|0:0,0:0:0:0:
192,64,4054,5,2,3:0:0:0:
121,149,4202,1,2,3:0:0:0:
141,258,4351,2,0,P|197:264|240:257,1,85.4999973907472,2|0,3:0|0:0,0:0:0:0:
383,170,4648,2,0,P|327:176|284:169,1,85.4999973907472,0|0,0:0|0:0,0:0:0:0:
141,258,4945,6,0,B|87:247|6:268|6:268|55:254|86:204,1,227.999993041992,6|0,0:0|0:0,0:0:0:0:
203,338,5391,2,0,B|171:301|192:266|192:266|143:257|143:257|175:196|113:140,1,227.999993041992,6|0,0:0|0:0,0:0:0:0:
223,46,5836,2,0,P|273:40|322:44,1,76,6|0,0:0|0:0,0:0:0:0:
239,193,6133,6,0,B|219:132|257:85|257:85|237:20|237:20|303:42,1,246.999988693238,6|0,0:0|0:0,0:0:0:0:
378,260,6579,2,0,B|329:269|329:269|289:251|289:251|257:281|179:279|165:208,1,246.999988693238,6|0,0:0|0:0,0:0:0:0:
341,134,7024,1,0,3:0:0:0:
294,255,7173,1,0,3:0:0:0:
78,335,7321,6,0,B|50:274|82:214|82:214|115:154|74:91,1,246.999988693238,6|0,0:0|0:0,0:0:0:0:
239,193,7767,2,0,P|226:117|58:129,1,246.999988693238,6|0,0:0|0:0,0:0:0:0:
262,31,8212,2,0,L|381:28,1,85.4999973907472,6|0,0:0|0:0,0:0:0:0:
494,158,8509,5,6,0:0:0:0:
284,235,8658,1,0,3:0:0:0:
284,235,8732,1,0,3:0:0:0:
284,235,8806,1,8,3:0:0:0:
451,307,8955,1,4,0:0:0:0:
374,109,9103,1,10,3:0:0:0:
433,201,9252,1,0,0:0:0:0:
322,361,9400,1,10,3:0:0:0:
346,253,9549,1,10,3:0:0:0:
168,220,9697,6,0,B|156:83|156:83|196:31|196:31|206:135,1,265.999991882324,6|0,0:0|0:0,0:0:0:0:
86,299,10143,2,0,B|79:203|79:203|57:168|57:168|86:134|86:134|78:38,1,265.999991882324,6|0,0:0|0:0,0:0:0:0:
168,220,10589,2,0,P|208:205|291:228,1,95,6|0,0:0|0:0,0:0:0:0:
424,316,10886,6,0,P|475:258|343:237,1,285.000010871888,6|0,0:0|0:0,0:0:0:0:
154,256,11331,2,0,B|200:234|266:251|266:251|291:228|291:228|312:262|355:270|355:270|429:243,1,285.000010871888,6|0,0:0|0:0,0:0:0:0:
205,159,11777,2,0,L|209:47,1,104.500003189087,6|0,0:0|0:0,0:0:0:0:
456,153,12074,6,0,B|397:175|361:128|361:128|329:172|329:172|307:144|307:144|241:191|150:132,1,304,6|0,0:0|0:0,0:0:0:0:
198,261,12519,2,0,B|268:278|312:246|312:246|349:268|349:268|381:230|381:230|434:244|490:222,1,304,6|0,0:0|0:0,0:0:0:0:
208,45,12965,6,0,P|204:71|204:159,1,114,6|0,0:0|0:0,0:0:0:0:
66,149,14450,6,0,L|242:140,1,170.999994781494,2|0,0:0|0:0,0:0:0:0:
137,330,14895,2,0,P|102:273|162:174,1,170.999994781494,2|0,0:0|0:0,0:0:0:0:
97,72,15341,1,8,0:0:0:0:
31,218,15490,1,0,0:0:0:0:
218,341,15638,6,0,P|224:292|221:225,1,85.4999973907472,2|0,0:0|0:0,0:0:0:0:
298,110,15935,1,0,0:0:0:0:
298,110,16084,1,2,0:0:0:0:
155,158,16232,1,0,0:0:0:0:
303,189,16381,1,0,0:0:0:0:
137,176,16529,1,8,0:0:0:0:
342,263,16678,1,0,0:0:0:0:
146,335,16826,6,0,B|21:340|21:340|86:301,1,170.999994781494,2|0,0:0|0:0,0:0:0:0:
255,226,17272,2,0,P|288:186|244:72,1,170.999994781494,2|0,0:0|0:0,0:0:0:0:
378,194,17717,1,8,0:0:0:0:
255,226,17866,1,0,0:0:0:0:
410,104,18014,5,2,0:0:0:0:
361,315,18163,1,0,0:0:0:0:
280,38,18311,5,2,0:0:0:0:
329,249,18460,1,0,0:0:0:0:
155,134,18608,5,2,0:0:0:0:
328,154,18757,1,0,0:0:0:0:
144,117,18905,1,8,0:0:0:0:
329,249,19054,1,0,0:0:0:0:
163,329,19202,6,0,B|124:316|80:338|80:338|36:305|-23:334,1,170.999994781494,2|0,0:0|0:0,0:0:0:0:
162,243,19648,2,0,P|221:229|350:261,1,170.999994781494,2|0,0:0|0:0,0:0:0:0:
380,346,20093,1,8,0:0:0:0:
356,132,20242,1,0,0:0:0:0:
246,257,20391,6,0,L|150:241,2,85.4999973907472,2|0|0,0:0|0:0|0:0,0:0:0:0:
425,204,20836,2,0,P|437:248|427:310,1,85.4999973907472,2|0,0:0|0:0,0:0:0:0:
453,108,21133,1,0,0:0:0:0:
278,159,21282,1,8,0:0:0:0:
278,159,21430,1,0,0:0:0:0:
434,287,21579,6,0,B|365:268|365:268|250:287,1,170.999994781494,2|0,0:0|0:0,0:0:0:0:
85,324,22024,2,0,P|91:275|80:220,1,85.4999973907472,2|0,0:0|0:0,0:0:0:0:
39,101,22321,1,0,0:0:0:0:
172,225,22470,1,8,0:0:0:0:
193,116,22618,1,0,0:0:0:0:
221,306,22767,5,2,0:0:0:0:
259,78,22915,1,0,0:0:0:0:
294,384,23064,5,2,0:0:0:0:
256,156,23212,1,0,0:0:0:0:
256,156,23287,1,0,0:0:0:0:
256,156,23361,5,2,0:0:0:0:
455,260,23509,1,2,3:0:0:0:
455,260,23583,1,2,3:0:0:0:
455,260,23658,2,0,L|394:255,1,42.7499986953736,2|0,3:0|0:0,0:0:0:0:
259,242,23806,1,2,3:0:0:0:
194,14,23955,6,0,L|207:184,1,170.999994781494,2|0,0:0|0:0,0:0:0:0:
104,266,24400,2,0,P|166:228|276:254,1,170.999994781494,2|0,0:0|0:0,0:0:0:0:
429,357,24846,2,0,L|432:260,1,85.4999973907472,8|0,0:0|0:0,0:0:0:0:
319,85,25143,6,0,P|275:95|212:76,1,85.4999973907472,2|0,0:0|0:0,0:0:0:0:
88,22,25440,1,0,0:0:0:0:
52,140,25589,1,2,0:0:0:0:
187,23,25737,1,0,0:0:0:0:
187,23,25886,1,0,0:0:0:0:
208,200,26034,1,8,0:0:0:0:
72,118,26183,1,0,0:0:0:0:
263,77,26331,6,0,B|386:74|386:74|364:84|334:124,1,170.999994781494,2|0,0:0|0:0,0:0:0:0:
427,308,26777,2,0,B|411:247|411:247|428:193|428:193|411:134,1,170.999994781494,2|0,0:0|0:0,0:0:0:0:
279,32,27222,1,8,0:0:0:0:
430,47,27371,1,0,0:0:0:0:
244,144,27519,5,2,0:0:0:0:
43,101,27668,1,0,0:0:0:0:
160,273,27816,5,2,0:0:0:0:
203,72,27965,1,0,0:0:0:0:
291,221,28113,5,2,0:0:0:0:
324,37,28262,1,0,0:0:0:0:
291,221,28410,1,8,0:0:0:0:
324,37,28559,1,0,0:0:0:0:
456,215,28707,6,0,B|406:237|406:237|265:217,1,170.999994781494,2|0,0:0|0:0,0:0:0:0:
132,308,29153,2,0,P|89:317|3:224,1,170.999994781494,2|0,0:0|0:0,0:0:0:0:
79,369,29598,1,8,0:0:0:0:
127,218,29747,1,0,0:0:0:0:
241,357,29895,6,0,P|246:309|243:260,2,85.4999973907472,2|0|0,0:0|0:0|0:0,0:0:0:0:
308,159,30341,2,0,L|395:152,1,85.4999973907472,2|0,0:0|0:0,0:0:0:0:
229,165,30638,1,0,0:0:0:0:
319,82,30787,1,8,0:0:0:0:
244,271,30935,1,0,0:0:0:0:
139,60,31084,6,0,B|149:119|149:119|136:152|136:152|158:183|137:254,1,170.999994781494,2|0,0:0|0:0,0:0:0:0:
296,270,31529,2,0,B|254:213|195:235|195:235|174:223|174:223|117:227,1,170.999994781494,2|0,0:0|0:0,0:0:0:0:
41,327,31975,1,8,0:0:0:0:
144,225,32123,1,0,0:0:0:0:
205,371,32272,5,2,0:0:0:0:
230,156,32420,1,0,0:0:0:0:
324,313,32569,5,2,0:0:0:0:
299,98,32717,1,2,3:0:0:0:
299,98,32792,1,0,0:0:0:0:
299,98,32866,5,2,3:0:0:0:
99,300,33014,1,2,3:0:0:0:
99,300,33088,1,0,0:0:0:0:
99,300,33163,2,0,P|64:274|54:205,1,85.4999973907472,2|0,3:0|0:0,0:0:0:0:
285,214,33460,6,0,B|234:204|234:204|191:223|162:212|162:212|126:232|126:232|141:142|141:142|90:123|82:68,1,341.999989562989,4|2,0:0|0:0,0:0:0:0:
317,278,34648,2,0,B|368:269|385:197|358:149|308:129|266:138|266:138|313:108|321:79,1,284.999991302491,2|0,0:0|0:0,0:0:0:0:
439,67,35539,2,0,P|439:28|425:-4,1,56.9999982604981,2|0,0:0|0:0,0:0:0:0:
343,13,35836,6,0,B|370:67|332:125|332:125|430:149|430:149|379:198|408:284,1,341.999989562989,2|2,0:0|0:0,0:0:0:0:
345,281,37024,2,0,P|411:205|408:322,1,284.999991302491,2|0,0:0|0:0,0:0:0:0:
336,374,37915,2,0,P|300:372|260:369,1,56.9999982604981,2|0,0:0|0:0,0:0:0:0:
266,262,38212,6,0,L|162:258,2,85.4999973907472,6|0|0,0:0|0:0|0:0,0:0:0:0:
382,108,38658,2,0,L|486:104,2,85.4999973907472,2|0|0,0:0|0:0|0:0,0:0:0:0:
208,29,39103,1,2,0:0:0:0:
208,29,39252,1,0,0:0:0:0:
305,168,39400,6,0,P|314:208|306:266,1,85.4999973907472,2|0,0:0|0:0,0:0:0:0:
261,86,39697,1,0,0:0:0:0:
191,300,39846,2,0,P|151:309|93:301,1,85.4999973907472,2|0,0:0|0:0,0:0:0:0:
265,351,40143,1,0,0:0:0:0:
150,198,40292,2,0,L|156:105,1,85.4999973907472,2|0,0:0|0:0,0:0:0:0:
437,124,40589,6,0,P|404:173|289:136,1,170.999994781494,2|0,0:0|0:0,0:0:0:0:
116,36,41034,2,0,P|158:32|211:52,1,85.4999973907472,2|0,0:0|0:0,0:0:0:0:
356,18,41331,1,0,0:0:0:0:
303,159,41480,1,2,0:0:0:0:
303,159,41628,1,0,0:0:0:0:
155,112,41777,6,0,L|58:106,1,85.4999973907472,2|0,0:0|0:0,0:0:0:0:
292,241,42074,2,0,L|389:235,1,85.4999973907472,0|2,0:0|0:0,0:0:0:0:
152,342,42371,1,0,0:0:0:0:
152,342,42519,1,0,0:0:0:0:
228,153,42668,1,2,0:0:0:0:
228,153,42816,1,0,0:0:0:0:
316,297,42965,5,2,0:0:0:0:
143,241,43113,1,0,0:0:0:0:
233,362,43262,1,0,0:0:0:0:
298,186,43410,2,0,L|184:180,1,95,2|0,0:0|0:0,0:0:0:0:
278,102,43707,1,0,0:0:0:0:
338,272,43856,1,2,0:0:0:0:
338,272,44004,1,0,0:0:0:0:
103,255,44153,5,2,0:0:0:0:
298,186,44301,1,0,0:0:0:0:
204,339,44450,1,0,0:0:0:0:
125,119,44598,2,0,L|239:113,1,95,2|0,0:0|0:0,0:0:0:0:
162,38,44895,1,0,0:0:0:0:
208,201,45044,1,2,0:0:0:0:
208,201,45192,1,0,0:0:0:0:
417,58,45341,5,6,0:0:0:0:
361,357,45490,1,0,0:0:0:0:
255,53,45638,5,6,0:0:0:0:
271,346,45787,1,0,0:0:0:0:
117,76,45935,5,6,0:0:0:0:
185,350,46084,1,0,0:0:0:0:
5,139,46232,5,6,0:0:0:0:
493,322,47123,1,2,0:3:0:0:
285,182,47717,6,0,P|230:174|150:196,2,104.500003189087,4|0|0,0:0|0:0|0:0,0:0:0:0:
116,350,48163,2,0,L|112:226,1,104.500003189087,4|0,0:0|0:0,0:0:0:0:
39,73,48460,1,0,0:0:0:0:
156,113,48608,1,8,0:0:0:0:
34,246,48757,1,0,0:0:0:0:
208,333,48905,6,0,P|257:338|323:315,1,104.500003189087,2|0,0:0|0:0,0:0:0:0:
481,353,49202,1,0,0:0:0:0:
423,186,49351,1,2,0:0:0:0:
309,322,49499,1,0,0:0:0:0:
309,322,49648,1,0,0:0:0:0:
255,119,49796,1,8,0:0:0:0:
353,252,49945,1,0,0:0:0:0:
96,331,50093,6,0,B|90:249|90:249|58:213|58:213|55:104,1,209.000006378174,2|0,0:0|0:0,0:0:0:0:
304,0,50539,2,0,P|320:43|309:110,1,104.500003189087,2|0,0:0|0:0,0:0:0:0:
227,275,50836,1,0,0:0:0:0:
401,232,50985,1,8,0:0:0:0:
209,302,51133,1,0,0:0:0:0:
314,99,51282,5,6,0:0:0:0:
353,346,51430,1,0,0:0:0:0:
391,130,51579,5,6,0:0:0:0:
273,336,51727,2,0,L|265:275,1,52.2500015945435
234,108,51876,5,6,0:0:0:0:
77,152,52024,1,0,0:0:0:0:
266,284,52173,1,8,0:0:0:0:
206,20,52321,1,0,0:0:0:0:
143,302,52470,6,0,B|76:326|13:278|13:278|46:374,1,209.000006378174,2|0,0:0|0:0,0:0:0:0:
228,201,52915,2,0,L|234:90,1,104.500003189087,2|0,0:0|0:0,0:0:0:0:
280,271,53212,1,0,0:0:0:0:
142,206,53361,1,8,0:0:0:0:
370,147,53509,1,0,0:0:0:0:
341,319,53658,6,0,P|309:344|223:317,1,104.500003189087,2|0,0:0|0:0,0:0:0:0:
142,206,53955,1,0,0:0:0:0:
248,144,54103,1,2,0:0:0:0:
108,317,54252,1,0,0:0:0:0:
70,170,54400,1,0,0:0:0:0:
247,339,54549,2,0,P|299:326|374:337,1,104.500003189087,8|0,0:0|0:0,0:0:0:0:
470,139,54846,6,0,L|477:20,2,104.500003189087,2|0|0,0:0|0:0|0:0,0:0:0:0:
456,328,55292,1,2,0:0:0:0:
371,136,55440,1,0,0:0:0:0:
503,204,55589,1,0,0:0:0:0:
265,254,55737,1,8,0:0:0:0:
281,131,55886,1,0,0:0:0:0:
375,337,56034,5,4,0:0:0:0:
132,368,56183,1,0,0:0:0:0:
363,251,56331,5,4,0:0:0:0:
80,271,56480,2,0,L|144:257,1,52.2500015945435,2|0,3:0|0:0,0:0:0:0:
370,167,56628,5,4,0:0:0:0:
54,155,56777,1,0,0:0:0:0:
394,86,56925,5,4,0:0:0:0:
394,86,57222,6,0,B|252:58|325:124|173:86,1,209.000006378174,6|0,0:0|0:0,0:0:0:0:
90,319,57668,2,0,P|139:338|215:308,1,104.500003189087,2|0,0:0|0:0,0:0:0:0:
292,216,57965,1,0,0:0:0:0:
139,183,58113,1,8,0:0:0:0:
374,284,58262,1,0,0:0:0:0:
265,102,58410,6,0,P|257:56|261:-9,1,104.500003189087,2|0,0:0|0:0,0:0:0:0:
217,168,58707,1,0,0:0:0:0:
360,64,58856,1,2,0:0:0:0:
113,40,59004,1,0,0:0:0:0:
113,40,59153,1,0,0:0:0:0:
172,244,59301,1,8,0:0:0:0:
101,0,59450,1,0,0:0:0:0:
31,194,59598,6,0,B|14:244|14:244|24:306,2,104.500003189087,2|0|0,0:0|0:0|0:0,0:0:0:0:
111,353,60044,2,0,P|168:362|228:347,1,104.500003189087,2|0,0:0|0:0,0:0:0:0:
423,248,60341,1,0,0:0:0:0:
266,157,60490,1,8,0:0:0:0:
370,344,60638,1,0,0:0:0:0:
407,108,60787,5,6,0:0:0:0:
228,151,60935,1,0,0:0:0:0:
98,44,61084,5,6,0:0:0:0:
316,87,61232,1,0,0:0:0:0:
316,87,61306,1,0,0:0:0:0:
316,87,61381,1,6,0:0:0:0:
211,270,61529,5,0,0:0:0:0:
170,73,61678,1,8,0:0:0:0:
360,251,61826,1,0,0:0:0:0:
139,182,61975,6,0,B|92:176|48:211|48:211|82:69,1,227.999993041992,6|0,0:0|0:0,0:0:0:0:
66,308,62420,2,0,B|91:255|143:247|195:263|195:263|226:245|226:245|250:266|275:260,1,227.999993041992,6|0,0:0|0:0,0:0:0:0:
442,219,62866,1,2,0:0:0:0:
239,329,63014,1,0,0:0:0:0:
441,0,63163,6,0,B|431:54|431:54|469:92|469:92|445:120|445:120|465:147|433:251,1,246.999988693238,6|0,0:0|0:0,0:0:0:0:
143,317,63608,2,0,B|198:298|198:298|240:331|240:331|280:306|280:306|327:333|407:306,1,246.999988693238,6|0,0:0|0:0,0:0:0:0:
171,158,64054,1,2,0:0:0:0:
210,270,64202,1,0,0:0:0:0:
319,88,64351,6,0,B|355:61|414:59|414:59|383:61|348:41|348:41|307:17|235:43,1,265.999991882324,6|0,0:0|0:0,0:0:0:0:
60,79,64796,2,0,B|66:109|44:142|44:142|100:164|100:164|66:201|88:301,1,265.999991882324,6|0,0:0|0:0,0:0:0:0:
363,342,65242,1,2,0:0:0:0:
87,297,65391,1,0,0:0:0:0:
262,163,65539,5,6,0:0:0:0:
189,366,65688,1,0,0:0:0:0:
209,70,65836,5,6,0:0:0:0:
272,328,65985,1,2,3:0:0:0:
285,1,66133,5,6,0:0:0:0:
204,280,66282,1,0,0:0:0:0:
95,173,66430,5,2,0:0:0:0:
277,249,66579,1,0,0:0:0:0:
85,36,66727,1,4,0:0:0:0:
42,296,66876,1,2,3:0:0:0:
74,289,66950,1,2,3:0:0:0:
106,282,67024,1,2,3:0:0:0:
277,135,67173,6,0,P|285:78|272:17,1,104.500003189087,6|0,0:0|0:0,0:0:0:0:
106,282,67470,2,0,P|52:303|6:345,1,104.500003189087,6|0,0:0|0:0,0:0:0:0:
344,301,67767,2,0,P|389:336|474:356,1,142.5,6|0,0:0|0:0,0:0:0:0:
344,301,68361,1,0,0:0:0:0:
218,354,68509,5,2,0:0:0:0:
203,215,68707,1,2,0:0:0:0:
189,76,68905,1,2,0:0:0:0:
387,236,69103,6,0,P|446:240|502:231,1,95,6|0,0:0|0:0,0:0:0:0:
218,354,69400,2,0,P|159:358|103:349,1,95,0|6,0:0|0:0,0:0:0:0:
55,188,69697,1,0,0:0:0:0:
241,278,69846,1,0,0:0:0:0:
241,278,69994,1,8,0:0:0:0:
44,337,70143,1,0,0:0:0:0:
214,185,70292,6,0,B|208:125|220:52|220:52|214:86|192:111,1,190,6|0,0:0|0:0,0:0:0:0:
7,268,70737,2,0,B|53:253|53:253|91:269|91:269|119:256|199:269,1,190,6|0,0:0|0:0,0:0:0:0:
348,353,71183,1,8,0:0:0:0:
190,267,71331,1,0,0:0:0:0:
407,214,71480,6,0,L|415:103,1,95,6|0,0:0|0:0,0:0:0:0:
301,276,71777,1,0,0:0:0:0:
255,89,71925,2,0,P|199:79|147:88,1,95,6|0,0:0|0:0,0:0:0:0:
72,252,72222,1,0,0:0:0:0:
10,105,72371,2,0,L|19:7,1,95,8|0,0:0|0:0,0:0:0:0:
161,83,72668,5,6,0:0:0:0:
104,262,72816,1,0,0:0:0:0:
232,122,72965,5,6,0:0:0:0:
221,319,73113,1,2,3:0:0:0:
311,111,73262,5,6,0:0:0:0:
335,336,73410,1,0,0:0:0:0:
391,83,73559,5,6,0:0:0:0:
459,334,73707,1,0,0:0:0:0:
275,205,73856,6,0,L|154:196,1,95,4|0,0:0|0:0,0:0:0:0:
408,255,74153,2,0,P|429:192|411:130,1,95,0|6,0:0|0:0,0:0:0:0:
299,35,74450,1,0,0:0:0:0:
299,35,74598,1,0,0:0:0:0:
180,197,74747,2,0,P|184:138|179:90,1,95,8|0,0:0|0:0,0:0:0:0:
99,293,75044,5,6,0:0:0:0:
309,188,75193,1,2,3:0:0:0:
342,186,75267,1,2,3:0:0:0:
375,184,75341,1,2,3:0:0:0:
180,102,75490,1,6,0:0:0:0:
248,330,75638,1,0,3:0:0:0:
279,220,75787,1,2,0:0:0:0:
47,344,75935,1,2,0:0:0:0:
155,379,76084,1,2,0:0:0:0:
89,153,76232,6,0,P|76:100|87:48,1,104.500003189087,6|0,0:0|0:0,0:0:0:0:
65,253,76529,1,0,0:0:0:0:
226,56,76678,2,0,L|352:48,1,104.500003189087,4|0,0:0|0:0,0:0:0:0:
208,346,76975,2,0,L|312:352,1,104.500003189087,4|0,0:0|0:0,0:0:0:0:
134,287,77272,1,0,0:0:0:0:
382,204,77420,6,0,B|403:150|403:150|394:92,1,113.999996520996,6|0,0:0|0:0,0:0:0:0:
189,43,77717,1,0,0:0:0:0:
323,267,77866,2,0,P|370:284|461:251,1,113.999996520996,4|0,0:0|0:0,0:0:0:0:
225,176,78163,1,4,0:0:0:0:
268,360,78311,1,2,0:0:0:0:
319,118,78460,1,0,0:0:0:0:
40,242,78608,5,4,0:0:0:0:
488,208,78757,1,4,0:0:0:0:
194,27,79054,1,4,0:0:0:0:
268,360,79351,1,4,0:0:0:0:
465,85,79648,6,0,B|344:75|344:75|303:111|303:111|272:89|272:89|183:84,1,285,4|0,0:0|0:0,0:0:0:0:
102,197,80242,1,0,0:0:0:0:
115,164,80316,1,0,0:0:0:0:
119,128,80390,1,0,0:0:0:0:
