osu file format v14

[General]
AudioFilename: audio.mp3
AudioLeadIn: 0
PreviewTime: 46603
Countdown: 0
SampleSet: Soft
StackLeniency: 0.7
Mode: 0
LetterboxInBreaks: 0
WidescreenStoryboard: 0

[Editor]
Bookmarks: 4945,33460,38212,42965,79648,80688
DistanceSpacing: 2.3
BeatDivisor: 4
GridSize: 4
TimelineZoom: 2.5

[Metadata]
Title:Responsibility Response
TitleUnicode:Responsibility Response
Artist:Izumi Akazawa (CV. Madoka Yonezawa)
ArtistUnicode:赤沢泉美(CV.米澤 円)
Creator:Shmiklak
Version:FCL's Another
Source:Another
Tags:slayed fcl wajinshu -bakari- deppyforce salsa vanucik5656 themefisto fanteer yaleufeu lama_poluna lama poluna tropical collab collaboration vanucik
BeatmapID:1056931
BeatmapSetID:495332

[Difficulty]
HPDrainRate:7
CircleSize:5.3
OverallDifficulty:8
ApproachRate:9.2
SliderMultiplier:1.6
SliderTickRate:1

[Events]
//Background and Video events
0,0,"shmiklakgey.jpg",0,0
//Break Periods
2,33660,37642
//Storyboard Layer 0 (Background)
//Storyboard Layer 1 (Fail)
//Storyboard Layer 2 (Pass)
//Storyboard Layer 3 (Foreground)
//Storyboard Sound Samples

[TimingPoints]
193,297.029702970297,4,2,0,70,1,0
193,-111.111111111111,4,2,0,70,0,0
4945,-100,4,2,1,70,0,0
5836,-100,4,2,1,70,0,0
6133,-95.2380952380952,4,2,1,70,0,0
8212,-95.2380952380952,4,2,1,70,0,0
8509,-90.9090909090909,4,2,1,70,0,0
10589,-90.9090909090909,4,2,1,70,0,0
10886,-86.9565217391304,4,2,1,70,0,0
11777,-86.9565217391304,4,2,1,70,0,0
12074,-83.3333333333333,4,2,1,70,0,0
14450,-111.111111111111,4,2,1,70,0,0
33460,-166.666666666667,4,2,1,70,0,0
38212,-111.111111111111,4,2,1,70,0,0
42891,-100,4,2,1,70,0,0
44153,-90.9090909090909,4,2,1,70,0,0
45341,-83.3333333333333,4,2,1,70,0,0
47717,-90.9090909090909,4,2,1,70,0,1
56034,-83.3333333333333,4,2,1,70,0,1
56628,-83.3333333333333,4,2,1,70,0,1
57222,-90.9090909090909,4,2,1,70,0,1
61975,-86.9565217391304,4,2,1,70,0,1
63163,-83.3333333333333,4,2,1,70,0,1
64351,-80,4,2,1,70,0,1
65539,-76.9230769230769,4,2,1,70,0,1
67173,-90.9090909090909,4,2,1,70,0,1
67767,-200,4,2,1,70,0,1
69103,-100,4,2,1,70,0,0
76232,-95.2380952380952,4,2,1,70,0,0
77420,-90.9090909090909,4,2,1,70,0,0
78608,-86.9565217391304,4,2,1,70,0,0
79648,-100,4,2,1,70,0,0
79796,-66.6666666666667,4,2,1,70,0,0

[Colours]
Combo1 : 17,254,176
Combo2 : 173,255,95
Combo3 : 255,88,100
Combo4 : 255,94,55

[HitObjects]
395,84,193,6,0,L|292:77,1,71.9999978027344,2|0,0:0|0:0,0:0:0:0:
449,31,490,1,2,0:0:0:0:
334,138,638,2,0,P|271:113|273:45,1,143.999995605469,2|2,0:0|0:0,0:0:0:0:
208,13,1084,1,0,0:0:0:0:
143,110,1232,6,0,L|148:277,1,143.999995605469,2|2,0:0|0:0,0:0:0:0:
152,326,1678,1,0,0:0:0:0:
82,189,1826,2,0,B|79:100|79:100|92:59|132:46,1,143.999995605469,2|0,0:0|0:0,0:0:0:0:
12,163,2272,1,2,0:0:0:0:
167,186,2420,1,0,0:0:0:0:
38,302,2569,6,0,P|72:297|115:304,2,71.9999978027344,2|0|2,0:0|0:0|0:0,0:0:0:0:
229,344,3014,2,0,P|255:324|373:345,1,143.999995605469,2|2,0:0|0:0,0:0:0:0:
430,319,3460,1,0,0:0:0:0:
318,245,3608,6,0,B|314:143|314:143|326:163|348:178,1,143.999995605469,2|2,0:0|0:0,0:0:0:0:
481,215,4054,1,2,3:0:0:0:
441,154,4202,1,2,3:0:0:0:
454,280,4351,1,2,3:0:0:0:
488,42,4648,1,0,0:0:0:0:
333,137,4945,6,0,B|273:131|273:131|239:149|239:149|155:142,1,160,6|0,0:0|0:0,0:0:0:0:
96,239,5391,2,0,B|134:222|173:228|173:228|197:208|197:208|256:213,1,160,6|0,0:0|0:0,0:0:0:0:
385,93,5836,2,0,P|350:73|283:85,1,80,6|0,0:0|0:0,0:0:0:0:
153,72,6133,6,0,B|175:71|195:84|195:84|253:57|253:57|316:73,1,167.999994873047,6|0,0:0|0:0,0:0:0:0:
139,294,6579,2,0,B|145:241|145:241|162:209|162:209|147:174|147:174|155:115,1,167.999994873047,6|0,0:0|0:0,0:0:0:0:
311,72,7024,1,0,3:0:0:0:
311,72,7173,1,0,3:0:0:0:
211,257,7321,6,0,P|164:224|54:277,1,167.999994873047,6|0,0:0|0:0,0:0:0:0:
256,306,7767,2,0,B|284:271|282:228|237:195|237:195|262:206|303:195,1,167.999994873047,6|0,0:0|0:0,0:0:0:0:
435,84,8212,2,0,P|442:122|435:179,1,83.9999974365235,6|0,0:0|0:0,0:0:0:0:
377,258,8509,5,6,0:0:0:0:
252,123,8658,1,0,3:0:0:0:
267,95,8732,1,0,3:0:0:0:
282,66,8806,1,8,3:0:0:0:
312,189,8955,1,4,0:0:0:0:
163,131,9103,1,10,3:0:0:0:
148,60,9252,1,0,0:0:0:0:
190,200,9400,1,10,3:0:0:0:
118,190,9549,1,10,3:0:0:0:
205,324,9697,6,0,B|248:341|248:341|266:326|290:321|290:321|325:353|381:333,1,176.000005371094,6|0,0:0|0:0,0:0:0:0:
142,357,10143,2,0,P|144:295|268:287,1,176.000005371094,6|0,0:0|0:0,0:0:0:0:
423,177,10589,2,0,L|428:86,1,88.000002685547,6|0,0:0|0:0,0:0:0:0:
233,11,10886,6,0,B|272:48|272:48|261:111|261:111|295:85|357:119,1,184.000003509522,6|0,0:0|0:0,0:0:0:0:
163,190,11331,2,0,B|152:149|178:128|178:128|182:92|182:92|207:71|207:71|148:14,1,184.000003509522,6|0,0:0|0:0,0:0:0:0:
22,257,11777,2,0,P|59:251|125:260,1,92.0000017547608,6|0,0:0|0:0,0:0:0:0:
259,340,12074,6,0,B|309:328|309:328|325:346|325:346|344:329|344:329|394:353|456:320,1,191.999994140625,6|0,0:0|0:0,0:0:0:0:
399,90,12519,2,0,B|406:118|383:148|383:148|398:173|398:173|381:198|381:198|399:224|389:295,1,191.999994140625,6|0,0:0|0:0,0:0:0:0:
333,99,12965,2,0,P|283:88|212:94,1,95.9999970703126,6|0,0:0|0:0,0:0:0:0:
107,246,14450,6,0,L|15:237,2,71.9999978027344,2|0|0,0:0|0:0|0:0,0:0:0:0:
233,190,14895,2,0,P|236:142|230:97,1,71.9999978027344,2|0,0:0|0:0,0:0:0:0:
182,22,15192,1,0,0:0:0:0:
306,73,15341,1,8,0:0:0:0:
306,73,15490,1,0,0:0:0:0:
170,129,15638,6,0,L|84:123,1,71.9999978027344,2|0,0:0|0:0,0:0:0:0:
233,190,15935,1,0,0:0:0:0:
133,61,16084,2,0,L|47:55,1,71.9999978027344,2|0,0:0|0:0,0:0:0:0:
24,208,16381,1,0,0:0:0:0:
74,143,16529,1,8,0:0:0:0:
89,278,16678,1,0,0:0:0:0:
185,155,16826,6,0,P|227:151|272:154,2,71.9999978027344,2|0|0,0:0|0:0|0:0,0:0:0:0:
341,78,17272,2,0,L|345:155,1,71.9999978027344,2|0,0:0|0:0,0:0:0:0:
355,309,17569,1,0,0:0:0:0:
387,219,17717,1,8,0:0:0:0:
286,308,17866,1,0,0:0:0:0:
461,230,18014,6,0,L|472:140,1,71.9999978027344,2|0,0:0|0:0,0:0:0:0:
219,249,18311,2,0,L|208:159,1,71.9999978027344,2|0,0:0|0:0,0:0:0:0:
394,106,18608,1,2,0:0:0:0:
394,106,18757,1,0,0:0:0:0:
208,78,18905,1,8,0:0:0:0:
208,78,19054,1,0,0:0:0:0:
300,191,19202,6,0,B|335:199|335:199|398:183,2,71.9999978027344,2|0|0,0:0|0:0|0:0,0:0:0:0:
148,229,19648,2,0,P|146:266|150:322,1,71.9999978027344,2|0,0:0|0:0,0:0:0:0:
126,160,19945,1,0,0:0:0:0:
195,176,20093,1,8,0:0:0:0:
57,259,20242,1,0,0:0:0:0:
228,311,20391,6,0,P|273:315|325:308,1,71.9999978027344,2|0,0:0|0:0,0:0:0:0:
395,231,20688,1,0,0:0:0:0:
193,239,20836,2,0,P|238:243|290:236,1,71.9999978027344,2|0,0:0|0:0,0:0:0:0:
448,182,21133,1,0,0:0:0:0:
324,129,21282,1,8,0:0:0:0:
324,129,21430,1,0,0:0:0:0:
463,36,21579,6,0,L|466:120,2,71.9999978027344,2|0|0,0:0|0:0|0:0,0:0:0:0:
247,0,22024,2,0,P|236:49|239:94,1,71.9999978027344,2|0,0:0|0:0,0:0:0:0:
308,192,22321,1,0,0:0:0:0:
72,148,22470,1,8,0:0:0:0:
123,277,22618,1,0,0:0:0:0:
282,336,22767,6,0,P|281:304|277:232,1,71.9999978027344,2|0,0:0|0:0,0:0:0:0:
9,328,23064,2,0,P|9:290|14:224,1,71.9999978027344,2|0,0:0|0:0,0:0:0:0:
44,216,23287,1,0,0:0:0:0:
48,205,23361,5,2,0:0:0:0:
127,283,23509,1,2,3:0:0:0:
127,283,23583,1,2,3:0:0:0:
127,283,23658,2,0,L|136:225,1,35.9999989013672,2|0,3:0|0:0,0:0:0:0:
148,137,23806,1,2,3:0:0:0:
165,22,23955,6,0,L|75:17,2,71.9999978027344,2|0|0,0:0|0:0|0:0,0:0:0:0:
231,206,24400,2,0,P|270:192|293:150,1,71.9999978027344,2|0,0:0|0:0,0:0:0:0:
428,106,24697,1,0,0:0:0:0:
346,226,24846,1,8,0:0:0:0:
279,58,24994,1,0,0:0:0:0:
346,226,25143,6,0,B|353:266|353:266|346:328,1,71.9999978027344,2|0,0:0|0:0,0:0:0:0:
206,352,25440,1,0,0:0:0:0:
222,281,25589,1,2,0:0:0:0:
317,362,25737,1,0,0:0:0:0:
317,362,25886,1,0,0:0:0:0:
413,225,26034,2,0,L|420:137,1,71.9999978027344,8|0,0:0|0:0,0:0:0:0:
302,51,26331,6,0,P|250:39|209:52,1,71.9999978027344,2|0,0:0|0:0,0:0:0:0:
104,126,26628,1,0,0:0:0:0:
265,218,26777,2,0,L|266:308,1,71.9999978027344,2|0,0:0|0:0,0:0:0:0:
334,146,27074,1,0,0:0:0:0:
203,202,27222,1,8,0:0:0:0:
203,202,27371,1,0,0:0:0:0:
382,284,27519,6,0,L|473:289,1,71.9999978027344,2|0,0:0|0:0,0:0:0:0:
354,66,27816,2,0,L|445:61,1,71.9999978027344,2|0,0:0|0:0,0:0:0:0:
246,26,28113,1,2,0:0:0:0:
246,26,28262,1,0,0:0:0:0:
300,173,28410,1,8,0:0:0:0:
300,173,28559,1,0,0:0:0:0:
168,109,28707,6,0,B|130:102|130:102|77:114,2,71.9999978027344,2|0|0,0:0|0:0|0:0,0:0:0:0:
205,277,29153,1,2,0:0:0:0:
300,173,29301,1,0,0:0:0:0:
228,185,29450,1,0,0:0:0:0:
356,311,29598,1,8,0:0:0:0:
372,240,29747,1,0,0:0:0:0:
242,334,29895,6,0,P|202:343|155:323,1,71.9999978027344,2|0,0:0|0:0,0:0:0:0:
74,222,30193,1,0,0:0:0:0:
221,314,30341,2,0,P|180:305|146:267,1,71.9999978027344,2|0,0:0|0:0,0:0:0:0:
90,151,30638,1,0,0:0:0:0:
66,304,30787,1,8,0:0:0:0:
66,304,30935,1,0,0:0:0:0:
179,198,31084,6,0,L|268:195,1,71.9999978027344,2|0,0:0|0:0,0:0:0:0:
401,188,31381,1,0,0:0:0:0:
199,132,31529,2,0,L|288:129,1,71.9999978027344,2|0,0:0|0:0,0:0:0:0:
319,278,31826,1,0,0:0:0:0:
358,93,31975,1,8,0:0:0:0:
358,93,32123,1,0,0:0:0:0:
459,271,32272,6,0,P|421:273|385:275,1,71.9999978027344,2|0,0:0|0:0,0:0:0:0:
174,130,32569,2,0,P|209:127|245:126,1,71.9999978027344,2|2,0:0|3:0,0:0:0:0:
306,145,32792,1,0,0:0:0:0:
315,152,32866,5,2,3:0:0:0:
359,54,33014,1,2,3:0:0:0:
359,54,33088,1,0,0:0:0:0:
359,54,33163,2,0,P|341:49|317:49,1,35.9999989013672,2|0,3:0|0:0,0:0:0:0:
434,102,33311,1,2,3:0:0:0:
315,152,33460,5,4,0:0:0:0:
410,262,38212,6,0,L|416:348,2,71.9999978027344,6|0|0,0:0|0:0|0:0,0:0:0:0:
334,124,38658,2,0,L|339:52,2,71.9999978027344,2|0|0,0:0|0:0|0:0,0:0:0:0:
268,229,39103,1,2,0:0:0:0:
421,177,39252,1,0,0:0:0:0:
258,111,39400,6,0,P|221:106|172:115,2,71.9999978027344,2|0|0,0:0|0:0|0:0,0:0:0:0:
410,262,39846,2,0,P|447:267|496:258,2,71.9999978027344,2|0|0,0:0|0:0|0:0,0:0:0:0:
334,124,40292,1,2,0:0:0:0:
369,315,40440,1,0,0:0:0:0:
454,164,40589,6,0,L|460:79,1,71.9999978027344,2|0,0:0|0:0,0:0:0:0:
410,262,40886,1,0,0:0:0:0:
390,122,41034,2,0,L|396:37,1,71.9999978027344,2|0,0:0|0:0,0:0:0:0:
326,186,41331,1,0,0:0:0:0:
205,91,41480,1,2,0:0:0:0:
164,150,41628,1,0,0:0:0:0:
264,233,41777,6,0,P|270:264|257:324,2,71.9999978027344,2|0|0,0:0|0:0|0:0,0:0:0:0:
164,150,42222,1,2,0:0:0:0:
282,84,42371,2,0,L|379:75,1,71.9999978027344,0|0,0:0|0:0,0:0:0:0:
453,251,42668,2,0,L|356:242,1,71.9999978027344,2|0,0:0|0:0,0:0:0:0:
206,327,42965,6,0,P|167:335|107:315,1,80,2|0,0:0|0:0,0:0:0:0:
96,199,43262,1,0,0:0:0:0:
250,279,43410,2,0,P|289:287|349:267,1,80,2|0,0:0|0:0,0:0:0:0:
380,155,43707,1,0,0:0:0:0:
183,180,43856,2,0,L|190:296,1,80,2|0,0:0|0:0,0:0:0:0:
356,342,44153,6,0,L|454:333,1,88.000002685547,2|0,0:0|0:0,0:0:0:0:
270,303,44450,1,0,0:0:0:0:
459,232,44598,2,0,L|361:223,1,88.000002685547,2|0,0:0|0:0,0:0:0:0:
191,205,44895,1,0,0:0:0:0:
324,153,45044,1,2,0:0:0:0:
324,153,45193,1,0,0:0:0:0:
365,298,45341,6,0,L|252:303,1,95.9999970703126,6|0,0:0|0:0,0:0:0:0:
365,76,45638,2,0,L|252:71,1,95.9999970703126,6|0,0:0|0:0,0:0:0:0:
52,220,45935,2,0,P|46:265|54:318,1,95.9999970703126,6|0,0:0|0:0,0:0:0:0:
458,314,46232,2,0,P|465:267|460:220,1,95.9999970703126,6|0,0:0|0:0,0:0:0:0:
54,56,47123,1,2,0:3:0:0:
166,294,47717,6,0,L|263:300,1,88.000002685547,4|0,0:0|0:0,0:0:0:0:
401,205,48014,1,0,0:0:0:0:
257,84,48163,2,0,P|244:126|256:189,1,88.000002685547,4|0,0:0|0:0,0:0:0:0:
165,293,48460,1,0,0:0:0:0:
122,153,48608,1,8,0:0:0:0:
188,196,48757,1,0,0:0:0:0:
50,338,48905,6,0,P|48:288|51:226,1,88.000002685547,2|0,0:0|0:0,0:0:0:0:
122,153,49202,1,0,0:0:0:0:
57,106,49351,1,2,0:0:0:0:
130,227,49499,1,0,0:0:0:0:
130,227,49648,1,0,0:0:0:0:
159,44,49796,1,8,0:0:0:0:
159,44,49945,1,0,0:0:0:0:
266,180,50093,6,0,L|357:173,1,88.000002685547,2|0,0:0|0:0,0:0:0:0:
508,160,50391,1,0,0:0:0:0:
374,250,50539,2,0,L|286:243,1,88.000002685547,2|0,0:0|0:0,0:0:0:0:
126,163,50836,1,0,0:0:0:0:
181,289,50985,1,8,0:0:0:0:
266,180,51133,1,0,0:0:0:0:
206,57,51282,5,6,0:0:0:0:
206,57,51430,1,0,0:0:0:0:
171,218,51579,1,6,0:0:0:0:
126,163,51727,1,0,0:0:0:0:
126,163,51801,1,0,0:0:0:0:
126,163,51876,1,6,0:0:0:0:
84,307,52024,1,0,0:0:0:0:
84,307,52173,2,0,L|182:302,1,88.000002685547,8|0,0:0|0:0,0:0:0:0:
359,207,52470,6,0,P|406:194|472:204,1,88.000002685547,2|0,0:0|0:0,0:0:0:0:
292,293,52767,1,0,0:0:0:0:
346,131,52915,2,0,L|352:24,1,88.000002685547,2|0,0:0|0:0,0:0:0:0:
198,4,53212,1,0,0:0:0:0:
166,147,53361,1,8,0:0:0:0:
239,117,53509,1,0,0:0:0:0:
323,278,53658,6,0,L|425:270,1,88.000002685547,2|0,0:0|0:0,0:0:0:0:
499,371,53955,1,0,0:0:0:0:
512,217,54103,1,2,0:0:0:0:
428,357,54252,1,0,0:0:0:0:
428,357,54400,1,0,0:0:0:0:
413,156,54549,1,8,0:0:0:0:
413,156,54697,1,0,0:0:0:0:
257,247,54846,6,0,P|300:253|360:244,1,88.000002685547,2|0,0:0|0:0,0:0:0:0:
478,160,55143,1,0,0:0:0:0:
375,323,55292,2,0,P|332:317|272:326,1,88.000002685547,2|0,0:0|0:0,0:0:0:0:
117,288,55589,1,0,0:0:0:0:
274,312,55737,1,8,0:0:0:0:
170,165,55886,1,0,0:0:0:0:
39,261,56034,6,0,L|34:360,1,95.9999970703126,4|0,0:0|0:0,0:0:0:0:
355,319,56331,2,0,L|347:220,1,95.9999970703126,4|2,0:0|3:0,0:0:0:0:
367,128,56554,1,0,0:0:0:0:
367,128,56628,6,0,P|320:121|250:135,1,95.9999970703126,4|0,0:0|0:0,0:0:0:0:
173,366,56925,2,0,P|216:370|269:360,1,95.9999970703126,4|0,0:0|0:0,0:0:0:0:
424,175,57222,6,0,P|439:135|424:76,2,88.000002685547,6|0|0,0:0|0:0|0:0,0:0:0:0:
288,34,57668,2,0,L|177:29,1,88.000002685547,2|0,0:0|0:0,0:0:0:0:
87,185,57965,1,0,0:0:0:0:
130,27,58113,1,8,0:0:0:0:
175,92,58262,1,0,0:0:0:0:
68,204,58410,6,0,P|118:200|175:204,1,88.000002685547,2|0,0:0|0:0,0:0:0:0:
308,266,58707,1,0,0:0:0:0:
199,304,58856,1,2,0:0:0:0:
259,144,59004,1,0,0:0:0:0:
259,144,59153,1,0,0:0:0:0:
276,333,59301,1,8,0:0:0:0:
308,266,59450,1,0,0:0:0:0:
134,200,59598,6,0,L|30:197,1,88.000002685547,2|0,0:0|0:0,0:0:0:0:
186,250,59895,1,0,0:0:0:0:
252,110,60044,2,0,L|356:107,1,88.000002685547,2|0,0:0|0:0,0:0:0:0:
195,67,60341,1,0,0:0:0:0:
254,226,60490,2,0,P|255:270|221:315,1,88.000002685547,8|0,0:0|0:0,0:0:0:0:
77,335,60787,5,6,0:0:0:0:
160,207,60935,1,0,0:0:0:0:
176,370,61084,1,6,0:0:0:0:
147,296,61232,1,0,0:0:0:0:
147,296,61306,1,0,0:0:0:0:
147,296,61381,1,6,0:0:0:0:
283,341,61529,1,0,0:0:0:0:
110,347,61678,1,8,0:0:0:0:
245,228,61826,1,0,0:0:0:0:
139,109,61975,6,0,L|143:218,1,92.0000017547608,6|0,0:0|0:0,0:0:0:0:
149,372,62272,1,0,0:0:0:0:
77,185,62420,2,0,L|75:93,1,92.0000017547608,6|0,0:0|0:0,0:0:0:0:
182,18,62717,1,0,0:0:0:0:
228,127,62866,1,2,0:0:0:0:
228,127,63014,1,0,0:0:0:0:
104,32,63163,6,0,P|42:34|12:71,1,95.9999970703126,6|0,0:0|0:0,0:0:0:0:
84,198,63460,1,0,0:0:0:0:
197,67,63608,2,0,P|259:69|290:108,1,95.9999970703126,6|0,0:0|0:0,0:0:0:0:
318,271,63905,1,0,0:0:0:0:
385,132,64054,1,2,0:0:0:0:
385,132,64202,1,0,0:0:0:0:
183,203,64351,6,0,L|56:196,1,100,6|0,0:0|0:0,0:0:0:0:
234,324,64648,1,0,0:0:0:0:
303,141,64796,2,0,L|312:13,1,100,6|0,0:0|0:0,0:0:0:0:
407,206,65093,1,0,0:0:0:0:
214,132,65242,1,2,0:0:0:0:
214,132,65391,1,0,0:0:0:0:
381,60,65539,6,0,B|433:46|433:46|510:55,1,103.999995239258,6|0,0:0|0:0,0:0:0:0:
400,332,65836,2,0,B|348:346|348:346|271:337,1,103.999995239258,6|2,0:0|3:0,0:0:0:0:
50,206,66133,2,0,L|44:93,1,103.999995239258,6|0,0:0|0:0,0:0:0:0:
490,165,66430,2,0,L|484:268,1,103.999995239258,2|0,0:0|0:0,0:0:0:0:
296,339,66727,5,4,0:0:0:0:
391,224,66876,1,2,3:0:0:0:
389,192,66950,1,2,3:0:0:0:
387,161,67024,1,2,3:0:0:0:
259,77,67173,1,6,0:0:0:0:
304,141,67321,1,0,0:0:0:0:
433,33,67470,1,6,0:0:0:0:
431,111,67618,1,0,0:0:0:0:
216,17,67767,6,0,B|137:34|137:34|50:5,1,160,6|0,0:0|0:0,0:0:0:0:
26,202,68509,5,2,0:0:0:0:
53,77,68707,1,2,0:0:0:0:
142,172,68905,1,2,0:0:0:0:
73,146,69103,6,0,L|174:139,1,80,6|0,0:0|0:0,0:0:0:0:
254,228,69400,2,0,L|333:233,1,80,0|6,0:0|0:0,0:0:0:0:
449,162,69697,1,0,0:0:0:0:
396,297,69846,2,0,L|402:395,1,80,0|8,0:0|0:0,0:0:0:0:
333,233,70143,1,0,0:0:0:0:
207,340,70292,6,0,P|163:351|103:328,2,80,6|0|0,0:0|0:0|0:0,0:0:0:0:
293,163,70737,2,0,P|337:152|397:175,2,80,6|0|0,0:0|0:0|0:0,0:0:0:0:
153,251,71183,1,8,0:0:0:0:
96,206,71331,1,0,0:0:0:0:
221,133,71480,6,0,L|225:42,1,80,6|0,0:0|0:0,0:0:0:0:
372,13,71777,1,0,0:0:0:0:
297,89,71925,1,6,0:0:0:0:
456,121,72074,2,0,B|465:161|465:161|455:213,2,80,0|0|8,0:0|0:0|0:0,0:0:0:0:
490,266,72519,1,0,0:0:0:0:
323,154,72668,6,0,L|218:148,1,80,6|0,0:0|0:0,0:0:0:0:
138,339,72965,2,0,L|58:343,1,80,6|2,0:0|3:0,0:0:0:0:
6,271,73188,1,2,3:0:0:0:
6,271,73262,6,0,P|-3:228|6:181,1,80,6|0,0:0|0:0,0:0:0:0:
310,92,73559,2,0,P|319:49|310:2,1,80,6|0,0:0|0:0,0:0:0:0:
205,146,73856,6,0,L|211:254,1,80,4|0,0:0|0:0,0:0:0:0:
286,343,74153,1,0,0:0:0:0:
136,182,74301,2,0,L|140:102,1,80,6|0,0:0|0:0,0:0:0:0:
294,28,74598,1,0,0:0:0:0:
331,140,74747,1,8,0:0:0:0:
371,80,74895,1,0,0:0:0:0:
419,211,75044,5,6,0:0:0:0:
323,315,75193,1,2,3:0:0:0:
291,309,75267,1,2,3:0:0:0:
259,304,75341,1,2,3:0:0:0:
354,377,75490,1,6,0:0:0:0:
280,211,75638,1,0,3:0:0:0:
280,211,75787,1,2,0:0:0:0:
433,175,75935,1,2,0:0:0:0:
433,175,76084,1,2,0:0:0:0:
270,88,76232,6,0,P|206:80|154:89,1,83.9999974365235,6|0,0:0|0:0,0:0:0:0:
63,181,76529,1,0,0:0:0:0:
230,230,76678,2,0,L|236:325,1,83.9999974365235,4|0,0:0|0:0,0:0:0:0:
338,142,76975,2,0,L|343:58,1,83.9999974365235,4|0,0:0|0:0,0:0:0:0:
179,6,77272,1,0,0:0:0:0:
283,193,77420,6,0,P|324:211|393:190,1,88.000002685547,6|0,0:0|0:0,0:0:0:0:
459,93,77717,1,0,0:0:0:0:
253,13,77866,2,0,B|241:50|241:50|254:114,1,88.000002685547,4|0,0:0|0:0,0:0:0:0:
136,321,78163,2,0,B|145:272|145:272|133:235,1,88.000002685547,4|2,0:0|0:0,0:0:0:0:
28,110,78460,1,0,0:0:0:0:
48,274,78608,5,4,0:0:0:0:
173,128,78757,2,0,L|181:35,1,92.0000017547608,4|0,0:0|0:0,0:0:0:0:
248,240,79054,2,0,B|309:224|364:233|364:233|340:222|317:181,1,184.000003509522,4|4,0:0|0:0,0:0:0:0:
265,350,79499,1,0,0:0:0:0:
129,185,79648,6,0,P|107:157|147:195,1,400,4|0,0:0|0:0,0:0:0:0:
