osu file format v14

[General]
AudioFilename: audio.mp3
AudioLeadIn: 0
PreviewTime: 46603
Countdown: 0
SampleSet: Soft
StackLeniency: 0.7
Mode: 0
LetterboxInBreaks: 0
WidescreenStoryboard: 0

[Editor]
Bookmarks: 4945,33460,38212,42965,79648,80688
DistanceSpacing: 1
BeatDivisor: 2
GridSize: 4
TimelineZoom: 1.4

[Metadata]
Title:Responsibility Response
TitleUnicode:Responsibility Response
Artist:Izumi Akazawa (CV. Madoka Yonezawa)
ArtistUnicode:赤沢泉美(CV.米澤 円)
Creator:Shmiklak
Version:Easy
Source:Another
Tags:slayed fcl wajinshu -bakari- deppyforce salsa vanucik5656 themefisto fanteer yaleufeu lama_poluna lama poluna tropical collab collaboration vanucik
BeatmapID:1054661
BeatmapSetID:495332

[Difficulty]
HPDrainRate:2
CircleSize:2.5
OverallDifficulty:2
ApproachRate:3
SliderMultiplier:0.6
SliderTickRate:1

[Events]
//Background and Video events
0,0,"shmiklakgey.jpg",0,0
//Break Periods
//Storyboard Layer 0 (Background)
//Storyboard Layer 1 (Fail)
//Storyboard Layer 2 (Pass)
//Storyboard Layer 3 (Foreground)
//Storyboard Sound Samples

[TimingPoints]
193,297.029702970297,4,2,0,70,1,0
4945,-100,4,2,1,70,0,0
14450,-100,4,2,1,70,0,0
33460,-100,4,2,0,70,0,0
38212,-100,4,2,1,70,0,0
47717,-100,4,2,1,70,0,1
69103,-100,4,2,1,70,0,0
76232,-100,4,2,1,70,0,0

[Colours]
Combo1 : 17,254,176
Combo2 : 173,255,95
Combo3 : 255,88,100
Combo4 : 255,94,55

[HitObjects]
20,96,4945,6,0,B|136:120|136:120|264:108,1,240,6|6,0:0|0:0,0:0:0:0:
426,278,7321,2,0,B|310:254|310:254|182:266,1,240,6|6,0:0|0:0,0:0:0:0:
408,368,9697,6,0,P|492:336|468:200,1,240,6|6,0:0|0:0,0:0:0:0:
272,80,12074,2,0,B|184:48|184:101|88:80,1,180,6|6,0:0|0:0,0:0:0:0:
240,204,14450,6,0,P|212:316|184:348,2,120,2|0|0,0:0|0:0|0:0,0:0:0:0:
468,132,16826,2,0,P|496:20|524:-12,2,120,2|0|2,0:0|0:0|0:0,0:0:0:0:
232,168,19202,6,0,L|72:168,1,120,2|0,0:0|0:0,0:0:0:0:
48,268,20391,2,0,L|208:268,1,120,2|0,0:0|0:0,0:0:0:0:
244,360,21579,1,2,0:0:0:0:
364,340,22173,1,0,0:0:0:0:
452,260,22767,2,0,B|464:200|464:200|468:124,1,120,2|2,0:0|0:0,0:0:0:0:
382,56,23955,6,0,B|370:116|370:116|366:192,1,120,2|0,0:0|0:0,0:0:0:0:
452,260,25143,1,0,0:0:0:0:
364,340,25737,1,0,0:0:0:0:
256,288,26331,2,0,P|188:280|132:288,1,120,2|0,0:0|0:0,0:0:0:0:
77,182,27519,2,0,P|145:190|201:182,1,120,2|2,0:0|0:0,0:0:0:0:
300,124,28707,6,0,B|436:136,2,120,2|0|2,0:0|0:0|0:0,0:0:0:0:
192,68,30490,1,0,0:0:0:0:
84,120,31084,2,0,P|52:200|176:296,1,240,2|2,0:0|0:0,0:0:0:0:
256,244,32866,1,2,3:0:0:0:
362,297,33460,6,0,P|453:230|428:120,1,240,4|2,0:0|0:0,0:0:0:0:
192,76,35836,1,2,0:0:0:0:
428,32,37024,1,2,0:0:0:0:
192,76,38212,6,0,L|144:212,1,120,6|0,0:0|0:0,0:0:0:0:
112,304,39400,2,0,L|225:264,1,120,2|0,0:0|0:0,0:0:0:0:
336,316,40589,2,0,P|416:320|432:184,1,240,2|2,0:0|0:0,0:0:0:0:
496,84,42371,1,0,0:0:0:0:
256,192,42965,12,0,46529,0:0:0:0:
260,164,47717,6,0,P|248:248|260:292,1,120,4|0,0:0|0:0,0:0:0:0:
360,340,48905,2,0,P|372:256|360:212,1,120,2|0,0:0|0:0,0:0:0:0:
260,168,50093,2,0,B|200:176|200:176|128:160,1,120,2|0,0:0|0:0,0:0:0:0:
76,264,51282,2,0,B|136:256|136:256|208:272,1,120,6|6,0:0|0:0,0:0:0:0:
278,353,52470,6,0,P|358:349|388:300,1,120,2|0,0:0|0:0,0:0:0:0:
464,236,53658,2,0,L|472:96,1,120,2|0,0:0|0:0,0:0:0:0:
372,48,54846,2,0,L|240:52,1,120,2|0,0:0|0:0,0:0:0:0:
148,112,56034,1,4,0:0:0:0:
176,228,56628,1,4,0:0:0:0:
268,304,57222,6,0,P|332:328|396:308,1,120,6|0,0:0|0:0,0:0:0:0:
440,212,58410,2,0,P|464:148|444:84,1,120,2|0,0:0|0:0,0:0:0:0:
340,56,59598,2,0,L|200:68,1,120,2|0,0:0|0:0,0:0:0:0:
128,140,60787,2,0,L|116:280,1,120,6|6,0:0|0:0,0:0:0:0:
204,344,61975,6,0,P|260:352|344:344,1,120,6|0,0:0|0:0,0:0:0:0:
412,268,63163,2,0,L|412:148,1,120,6|0,0:0|0:0,0:0:0:0:
360,40,64351,1,6,0:0:0:0:
288,136,64945,1,0,0:0:0:0:
184,80,65539,2,0,P|112:96|80:132,1,120,6|6,0:0|0:0,0:0:0:0:
256,192,66727,12,6,69103,0:0:0:0:
64,52,71480,6,0,L|192:56,1,120,6|0,0:0|0:0,0:0:0:0:
252,156,72668,2,0,L|116:168,1,120,6|6,0:0|0:0,0:0:0:0:
212,256,73856,2,0,L|340:260,1,120,4|0,0:0|0:0,0:0:0:0:
400,360,75044,2,0,L|264:372,1,120,6|0,0:0|3:0,0:0:0:0:
160,356,76232,6,0,P|104:324|76:256,1,120,6|0,0:0|0:0,0:0:0:0:
193,240,77420,2,0,P|249:272|277:340,1,120,6|0,0:0|0:0,0:0:0:0:
384,364,78608,1,4,0:0:0:0:
440,292,79054,2,0,L|452:148,1,120,4|4,0:0|0:0,0:0:0:0:
