osu file format v14

[General]
AudioFilename: audio.mp3
AudioLeadIn: 0
PreviewTime: 46603
Countdown: 0
SampleSet: Soft
StackLeniency: 0.7
Mode: 0
LetterboxInBreaks: 0
WidescreenStoryboard: 0

[Editor]
Bookmarks: 4945,33460,38212,42965,52470,79648,80688
DistanceSpacing: 1.4
BeatDivisor: 4
GridSize: 8
TimelineZoom: 2.6

[Metadata]
Title:Responsibility Response
TitleUnicode:Responsibility Response
Artist:Izumi Akazawa (CV. Madoka Yonezawa)
ArtistUnicode:赤沢泉美(CV.米澤 円)
Creator:Shmiklak
Version:Deppy's Another
Source:Another
Tags:slayed fcl wajinshu -bakari- deppyforce salsa vanucik5656 themefisto fanteer yaleufeu lama_poluna lama poluna tropical collab collaboration vanucik
BeatmapID:1058948
BeatmapSetID:495332

[Difficulty]
HPDrainRate:6.9
CircleSize:2.7
OverallDifficulty:7.9
ApproachRate:8.9
SliderMultiplier:1.69
SliderTickRate:1

[Events]
//Background and Video events
0,0,"shmiklakgey.jpg",0,0
//Break Periods
//Storyboard Layer 0 (Background)
//Storyboard Layer 1 (Fail)
//Storyboard Layer 2 (Pass)
//Storyboard Layer 3 (Foreground)
//Storyboard Sound Samples

[TimingPoints]
193,297.029702970297,4,2,0,70,1,0
193,-133.333333333333,4,2,0,70,0,0
3905,-100,4,2,1,70,0,0
12965,-50,4,2,1,70,0,0
13113,-200,4,2,1,70,0,0
14450,-111.111111111111,4,2,1,70,0,0
15638,-200,4,2,1,70,0,0
16232,-111.111111111111,4,2,1,70,0,0
21282,-200,4,2,1,70,0,0
21579,-111.111111111111,4,2,1,70,0,0
22767,-90.9090909090909,4,2,1,70,0,0
23955,-111.111111111111,4,2,1,70,0,0
25143,-200,4,2,1,70,0,0
25737,-111.111111111111,4,2,1,70,0,0
33163,-200,4,2,1,70,0,0
33460,-144.927536231884,4,2,0,70,0,0
38212,-111.111111111111,4,2,1,70,0,0
42965,-100,4,2,1,70,0,0
45341,-90.9090909090909,4,2,1,70,0,0
46232,-54.7945205479452,4,2,1,70,0,0
46678,-100,4,2,1,70,0,0
47717,-71.4285714285714,4,2,1,70,0,1
48608,-181.818181818182,4,2,1,70,0,1
48905,-71.4285714285714,4,2,1,70,0,1
53361,-181.818181818182,4,2,1,70,0,1
53658,-71.4285714285714,4,2,1,70,0,1
58113,-181.818181818182,4,2,1,70,0,1
58410,-71.4285714285714,4,2,1,70,0,1
67767,-133.333333333333,4,2,1,70,0,1
69103,-100,4,2,1,70,0,0
79648,-76.9230769230769,4,2,1,70,0,0

[Colours]
Combo1 : 17,254,176
Combo2 : 173,255,95
Combo3 : 255,88,100
Combo4 : 255,94,55

[HitObjects]
175,325,193,6,0,L|103:321,2,63.3750024175645,2|0|2,0:0|0:0|0:0,0:0:0:0:
302,288,638,2,0,L|428:280,2,126.750004835129,2|2|2,0:0|0:0|0:0,0:0:0:0:
178,140,1529,1,2,0:0:0:0:
111,321,1826,1,2,0:0:0:0:
111,321,2272,6,0,L|102:250,1,63.3750024175645,2|0,0:0|0:0,0:0:0:0:
178,140,2569,2,0,L|169:69,2,63.3750024175645,2|0|2,0:0|0:0|0:0,0:0:0:0:
37,194,3014,1,2,0:0:0:0:
218,259,3311,1,2,0:0:0:0:
283,78,3608,1,2,0:0:0:0:
80,210,3905,5,2,0:0:0:0:
218,259,4054,1,2,3:0:0:0:
268,119,4202,1,2,3:0:0:0:
268,119,4351,2,0,L|436:106,1,169,2|0,3:0|0:0,0:0:0:0:
340,384,4945,6,0,L|328:216,1,169,6|0,0:0|0:0,0:0:0:0:
174,321,5391,2,0,L|219:158,1,169,6|0,0:0|0:0,0:0:0:0:
38,204,5836,2,0,L|87:135,1,84.5,6|0,0:0|0:0,0:0:0:0:
258,25,6133,6,0,L|232:192,1,169,6|0,0:0|0:0,0:0:0:0:
406,124,6579,2,0,L|324:272,1,169,6|0,0:0|0:0,0:0:0:0:
512,269,7024,1,0,3:0:0:0:
418,384,7173,1,0,3:0:0:0:
169,271,7321,6,0,P|246:242|324:272,1,169,6|0,0:0|0:0,0:0:0:0:
93,187,7767,2,0,P|170:158|248:188,1,169,6|0,0:0|0:0,0:0:0:0:
16,103,8212,2,0,P|53:81|94:74,1,84.5,6|0,0:0|0:0,0:0:0:0:
366,191,8509,6,0,P|329:169|288:162,1,84.5,6|0,0:0|3:0,0:0:0:0:
219,211,8732,1,0,3:0:0:0:
186,289,8806,5,8,3:0:0:0:
22,247,8955,1,4,0:0:0:0:
188,325,9103,1,10,3:0:0:0:
7,278,9252,1,0,0:0:0:0:
200,375,9400,1,10,3:0:0:0:
0,323,9549,1,10,3:0:0:0:
300,244,9697,6,0,P|337:318|415:347,1,169,6|0,0:0|0:0,0:0:0:0:
178,222,10143,2,0,P|158:302|199:374,1,169,6|0,0:0|0:0,0:0:0:0:
97,125,10589,2,0,P|59:141|31:173,1,84.5,6|0,0:0|0:0,0:0:0:0:
371,184,10886,6,0,P|354:103|399:33,1,169,6|0,0:0|0:0,0:0:0:0:
179,254,11331,2,0,P|112:205|97:124,1,169,6|0,0:0|0:0,0:0:0:0:
324,352,11777,2,0,P|364:364|406:362,1,84.5,6|0,0:0|0:0,0:0:0:0:
109,163,12074,6,0,P|68:236|87:316,1,169,6|0,0:0|0:0,0:0:0:0:
354,110,12519,2,0,P|312:38|233:14,1,169,6|0,0:0|0:0,0:0:0:0:
278,349,12965,6,0,P|360:348|421:292,1,169,6|0,0:0|0:0,0:0:0:0:
278,349,14450,6,0,L|283:273,1,76.0499976791383,2|0,0:0|0:0,0:0:0:0:
129,337,14747,1,0,0:0:0:0:
129,337,14895,2,0,L|134:261,1,76.0499976791383,2|0,0:0|0:0,0:0:0:0:
308,250,15192,2,0,L|300:348,1,76.0499976791383,0|8,0:0|0:0,0:0:0:0:
114,234,15490,1,0,0:0:0:0:
215,50,15638,6,0,P|254:98|249:159,1,126.75,2|2,0:0|0:0,0:0:0:0:
68,240,16232,5,0,0:0:0:0:
0,85,16381,1,0,0:0:0:0:
68,240,16529,1,8,0:0:0:0:
0,85,16678,1,0,0:0:0:0:
172,196,16826,6,0,P|118:246|112:320,1,152.099995358277,2|0,0:0|0:0,0:0:0:0:
271,228,17272,2,0,L|264:152,1,76.0499976791383,2|0,0:0|0:0,0:0:0:0:
323,317,17569,2,0,L|316:241,1,76.0499976791383,0|8,0:0|0:0,0:0:0:0:
435,370,17866,1,0,0:0:0:0:
208,337,18014,6,0,L|94:329,1,114.074996518707,2|0,0:0|0:0,0:0:0:0:
45,256,18311,2,0,L|52:142,1,114.074996518707,2|0,0:0|0:0,0:0:0:0:
126,93,18608,2,0,L|239:100,1,114.074996518707,2|0,0:0|0:0,0:0:0:0:
289,174,18905,2,0,L|402:167,1,114.074996518707,8|0,0:0|0:0,0:0:0:0:
203,152,19202,6,0,L|51:142,1,152.099995358277,2|0,0:0|0:0,0:0:0:0:
178,253,19648,1,2,0:0:0:0:
306,151,19796,1,0,0:0:0:0:
269,315,19945,1,0,0:0:0:0:
101,330,20093,1,8,0:0:0:0:
34,174,20242,1,0,0:0:0:0:
160,63,20391,6,0,P|141:95|110:116,1,76.0499976791383,2|0,0:0|0:0,0:0:0:0:
273,184,20688,1,0,0:0:0:0:
397,51,20836,2,0,P|416:114|475:83,1,152.099995358277,2|0,0:0|0:0,0:0:0:0:
272,183,21282,6,0,L|276:141,1,42.25,8|0,0:0|0:0,0:0:0:0:
418,280,21579,6,0,P|385:260|348:253,1,76.0499976791383,2|0,0:0|0:0,0:0:0:0:
198,342,21876,1,0,0:0:0:0:
198,342,22024,2,0,P|198:304|186:268,1,76.0499976791383,2|0,0:0|0:0,0:0:0:0:
34,182,22321,2,0,P|67:163|92:135,1,76.0499976791383,0|8,0:0|0:0,0:0:0:0:
14,294,22618,1,0,0:0:0:0:
105,20,22767,6,0,L|244:7,1,139.425004254913,2|0,0:0|0:0,0:0:0:0:
340,75,23064,2,0,L|479:62,1,139.425004254913,2|0,0:0|0:0,0:0:0:0:
407,139,23361,1,2,0:0:0:0:
360,134,23435,1,0,0:0:0:0:
314,130,23509,1,2,3:0:0:0:
268,126,23583,1,2,3:0:0:0:
221,121,23658,2,0,L|82:108,1,139.425004254913,2|0,3:0|0:0,0:0:0:0:
56,244,23955,6,0,P|43:170|83:107,1,152.099995358277,2|0,0:0|0:0,0:0:0:0:
180,285,24400,2,0,P|192:249|191:211,1,76.0499976791383,2|0,0:0|0:0,0:0:0:0:
325,314,24697,2,0,P|287:320|255:340,1,76.0499976791383,0|8,0:0|0:0,0:0:0:0:
277,173,24994,1,0,0:0:0:0:
459,49,25143,6,0,L|467:182,1,126.75,2|2,0:0|0:0,0:0:0:0:
355,37,25737,6,0,L|360:113,1,76.0499976791383,0|0,0:0|0:0,0:0:0:0:
318,283,26034,1,8,0:0:0:0:
318,283,26183,1,0,0:0:0:0:
175,170,26331,6,0,P|187:205|186:243,1,76.0499976791383,2|0,0:0|0:0,0:0:0:0:
22,305,26628,1,0,0:0:0:0:
22,305,26777,2,0,P|57:317|95:316,1,76.0499976791383,2|0,0:0|0:0,0:0:0:0:
198,197,27074,2,0,P|202:236|190:273,1,76.0499976791383,0|8,0:0|0:0,0:0:0:0:
0,281,27371,1,0,0:0:0:0:
154,114,27519,6,0,P|207:95|239:49,1,114.074996518707,2|0,0:0|0:0,0:0:0:0:
325,87,27816,2,0,P|343:140|389:172,1,114.074996518707,2|0,0:0|0:0,0:0:0:0:
352,257,28113,2,0,P|298:275|266:321,1,114.074996518707,2|0,0:0|0:0,0:0:0:0:
338,380,28410,2,0,P|391:361|423:315,1,114.074996518707,8|0,0:0|0:0,0:0:0:0:
269,190,28707,6,0,P|210:238|178:307,1,152.099995358277,2|0,0:0|0:0,0:0:0:0:
10,257,29153,1,2,0:0:0:0:
141,120,29301,5,0,0:0:0:0:
92,289,29450,1,0,0:0:0:0:
141,120,29598,1,8,0:0:0:0:
92,289,29747,1,0,0:0:0:0:
54,65,29895,6,0,P|112:19|186:26,1,152.099995358277,2|0,0:0|0:0,0:0:0:0:
342,134,30341,2,0,P|415:140|474:95,1,152.099995358277,2|0,0:0|0:0,0:0:0:0:
241,132,30787,1,8,0:0:0:0:
241,132,31084,6,0,L|225:55,1,76.0499976791383,2|0,0:0|0:0,0:0:0:0:
125,194,31381,2,0,L|141:117,1,76.0499976791383,0|2,0:0|0:0,0:0:0:0:
235,267,31678,1,0,0:0:0:0:
62,324,31826,1,0,0:0:0:0:
235,267,31975,1,8,0:0:0:0:
62,324,32123,1,0,0:0:0:0:
280,364,32272,6,0,P|268:308|288:256,1,114.074996518707,2|0,0:0|0:0,0:0:0:0:
396,265,32569,2,0,P|340:276|288:256,1,114.074996518707,2|0,0:0|0:0,0:0:0:0:
219,164,32866,1,2,3:0:0:0:
185,147,32940,1,0,0:0:0:0:
147,144,33014,1,2,3:0:0:0:
111,155,33088,1,0,0:0:0:0:
85,184,33163,2,0,P|84:152|96:123,1,63.375,2|0,3:0|0:0,0:0:0:0:
235,31,33460,6,0,P|328:89|421:29,1,233.220000355865,4|0,0:0|3:0,0:0:0:0:
235,31,34648,6,0,P|288:130|398:153,1,233.220000355865,2|0,0:0|3:0,0:0:0:0:
234,31,35836,6,0,P|193:138|216:250,1,233.220000355865,2|0,0:0|3:0,0:0:0:0:
235,31,37024,6,0,L|116:231,1,233.220000355865,2|0,0:0|0:0,0:0:0:0:
511,383,38212,6,0,P|451:341|377:352,1,152.099995358277,6|0,0:0|0:0,0:0:0:0:
471,195,38658,2,0,P|513:134|502:60,1,152.099995358277,2|0,0:0|0:0,0:0:0:0:
313,5,39103,1,2,0:0:0:0:
313,5,39400,6,0,P|252:47|178:36,1,152.099995358277,2|0,0:0|0:0,0:0:0:0:
272,193,39846,2,0,P|314:253|303:327,1,152.099995358277,2|0,0:0|0:0,0:0:0:0:
114,383,40291,1,2,0:0:0:0:
114,383,40589,6,0,L|121:232,1,152.099995358277,2|0,0:0|0:0,0:0:0:0:
296,175,41034,2,0,L|303:326,1,152.099995358277,2|0,0:0|0:0,0:0:0:0:
492,383,41480,2,0,L|495:307,1,76.0499976791383,2|0,0:0|0:0,0:0:0:0:
346,165,41777,5,2,0:0:0:0:
0,356,42074,1,0,0:0:0:0:
388,276,42371,1,0,0:0:0:0:
21,129,42668,1,2,0:0:0:0:
492,165,42965,6,0,P|452:151|410:156,1,84.5,2|0,0:0|0:0,0:0:0:0:
404,356,43262,2,0,P|404:314|387:275,1,84.5,0|2,0:0|0:0,0:0:0:0:
195,331,43559,2,0,P|235:318|265:290,1,84.5,0|0,0:0|0:0,0:0:0:0:
154,124,43856,2,0,P|178:158|214:178,1,84.5,2|0,0:0|0:0,0:0:0:0:
338,21,44153,6,0,P|312:54|304:95,1,84.5,2|0,0:0|0:0,0:0:0:0:
420,350,44450,2,0,P|394:316|386:275,1,84.5,0|2,0:0|0:0,0:0:0:0:
227,16,44747,2,0,P|201:49|193:90,1,84.5,0|0,0:0|0:0,0:0:0:0:
309,345,45044,2,0,P|283:311|275:270,1,84.5,2|0,0:0|0:0,0:0:0:0:
512,32,45341,6,0,B|467:46|467:46|375:33,1,139.425004254913,6|0,0:0|0:0,0:0:0:0:
280,110,45638,2,0,B|235:124|235:124|143:111,1,139.425004254913,6|0,0:0|0:0,0:0:0:0:
7,113,45935,2,0,B|52:99|52:99|143:111,1,139.425004254913,6|0,0:0|0:0,0:0:0:0:
284,224,46232,6,0,B|329:238|329:238|439:223,1,154.212497793973,6|0,0:0|0:0,0:0:0:0:
128,360,46678,6,0,P|160:334|173:294,1,84.5,0|2,0:0|3:0,0:0:0:0:
143,111,46975,1,0,0:0:0:0:
324,234,47123,1,2,0:3:0:0:
0,378,47420,1,0,0:0:0:0:
295,72,47717,6,0,P|406:98|491:22,1,236.599992779541,4|0,0:0|0:0,0:0:0:0:
294,193,48163,2,0,B|178:220|178:220|79:155,1,236.599992779541,4|0,0:0|0:0,0:0:0:0:
298,26,48608,6,0,L|295:72,1,46.4750014183045,8|0,0:0|0:0,0:0:0:0:
362,288,48905,5,2,0:0:0:0:
361,287,49054,2,0,P|255:256|184:343,1,236.599992779541,0|2,0:0|0:0,0:0:0:0:
454,306,49499,2,0,L|474:70,1,236.599992779541,0|8,0:0|0:0,0:0:0:0:
256,163,49945,1,0,0:0:0:0:
22,48,50093,6,0,P|126:93|216:24,1,236.599992779541,2|0,0:0|0:0,0:0:0:0:
256,163,50539,1,2,0:0:0:0:
356,58,50688,1,0,0:0:0:0:
124,121,50836,1,0,0:0:0:0:
383,169,50985,1,8,0:0:0:0:
151,232,51133,1,0,0:0:0:0:
428,300,51282,6,0,P|351:260|269:288,1,177.449994584656,6|0,0:0|0:0,0:0:0:0:
148,364,51579,2,0,P|188:287|160:205,1,177.449994584656,6|0,0:0|0:0,0:0:0:0:
84,84,51876,2,0,P|161:124|243:96,1,177.449994584656,6|0,0:0|0:0,0:0:0:0:
364,20,52173,1,8,0:0:0:0:
364,20,52321,1,0,0:0:0:0:
427,299,52470,6,0,P|487:200|463:88,1,236.599992779541,2|0,0:0|0:0,0:0:0:0:
253,195,52915,2,0,B|355:179|355:179|384:186|384:186|486:168,1,236.599992779541,2|0,0:0|0:0,0:0:0:0:
300,367,53361,6,0,L|297:321,1,46.4750014183045,8|0,0:0|0:0,0:0:0:0:
218,68,53658,5,2,0:0:0:0:
217,67,53806,2,0,P|207:179|101:214,1,236.599992779541,0|2,0:0|0:0,0:0:0:0:
332,125,54252,2,0,L|339:243,1,118.299996389771,0|0,0:0|0:0,0:0:0:0:
325,30,54549,1,8,0:0:0:0:
101,214,54697,1,0,0:0:0:0:
345,337,54846,6,0,P|252:274|150:322,1,236.599992779541,2|0,0:0|0:0,0:0:0:0:
0,138,55292,1,2,0:0:0:0:
217,67,55440,2,0,L|207:184,1,118.299996389771,0|0,0:0|0:0,0:0:0:0:
0,25,55737,1,8,0:0:0:0:
84,247,55886,1,0,0:0:0:0:
315,84,56034,6,0,L|496:64,1,177.449994584656,4|0,0:0|0:0,0:0:0:0:
491,156,56331,2,0,L|315:176,1,177.449994584656,4|0,0:0|0:0,0:0:0:0:
315,268,56628,2,0,L|491:248,1,177.449994584656,4|0,0:0|0:0,0:0:0:0:
315,360,56925,2,0,L|491:340,1,177.449994584656,4|0,0:0|0:0,0:0:0:0:
224,371,57222,6,0,P|187:263|76:235,1,236.599992779541,6|0,0:0|0:0,0:0:0:0:
288,125,57668,2,0,L|314:359,1,236.599992779541,2|0,0:0|0:0,0:0:0:0:
382,168,58113,6,0,L|376:121,1,46.4750014183045,8|0,0:0|0:0,0:0:0:0:
401,382,58410,5,2,0:0:0:0:
401,382,58559,6,0,P|409:268|509:212,1,236.599992779541,0|2,0:0|0:0,0:0:0:0:
288,125,59004,2,0,B|186:141|186:141|157:134|157:134|55:152,1,236.599992779541,0|8,0:0|0:0,0:0:0:0:
222,0,59450,1,0,0:0:0:0:
228,263,59598,6,0,P|114:249|54:151,1,236.599992779541,2|0,0:0|0:0,0:0:0:0:
288,125,60044,2,0,L|261:359,1,236.599992779541,2|0,0:0|0:0,0:0:0:0:
437,183,60490,1,8,0:0:0:0:
228,263,60638,1,0,0:0:0:0:
42,48,60787,6,0,P|127:38|194:93,1,177.449994584656,6|0,0:0|0:0,0:0:0:0:
228,227,61084,2,0,P|294:282|380:272,1,177.449994584656,6|0,0:0|0:0,0:0:0:0:
346,140,61381,2,0,P|279:84|193:94,1,177.449994584656,6|0,0:0|0:0,0:0:0:0:
75,181,61678,1,8,0:0:0:0:
75,181,61826,1,0,0:0:0:0:
294,39,61975,5,6,0:0:0:0:
352,268,62123,1,0,0:0:0:0:
372,294,62420,1,6,0:0:0:0:
392,320,62717,1,0,0:0:0:0:
187,349,63014,5,0,0:0:0:0:
187,349,63163,6,0,P|234:245|172:150,1,236.599992779541,6|0,0:0|0:0,0:0:0:0:
404,83,63608,2,0,L|391:324,1,236.599992779541,6|0,0:0|0:0,0:0:0:0:
116,254,64054,1,2,0:0:0:0:
116,254,64351,5,6,0:0:0:0:
390,184,64499,1,0,0:0:0:0:
422,160,64796,1,6,0:0:0:0:
453,136,65093,1,0,0:0:0:0:
191,143,65391,5,0,0:0:0:0:
191,143,65539,6,0,L|13:129,1,177.449994584656,6|0,0:0|0:0,0:0:0:0:
256,62,65836,2,0,L|78:48,1,177.449994584656,6|0,0:0|0:0,0:0:0:0:
321,143,66133,2,0,L|499:129,1,177.449994584656,6|0,0:0|0:0,0:0:0:0:
256,62,66430,2,0,L|434:48,1,177.449994584656,2|0,0:0|0:0,0:0:0:0:
256,230,66727,5,4,0:0:0:0:
35,342,66876,1,2,3:0:0:0:
91,329,66950,1,2,3:0:0:0:
124,281,67024,1,2,3:0:0:0:
44,42,67173,2,0,L|57:159,1,118.299996389771,6|0,0:0|0:0,0:0:0:0:
307,260,67470,2,0,L|320:142,1,118.299996389771,6|0,0:0|0:0,0:0:0:0:
124,281,67767,6,0,B|196:275|239:322|239:322|280:367|355:361,1,253.500009670258,6|0,0:0|0:0,0:0:0:0:
474,192,68509,6,0,L|470:295,2,84.5000032234193,2|2|2,0:0|0:0|0:0,0:0:0:0:
345,88,69103,5,6,0:0:0:0:
385,272,69252,1,0,0:0:0:0:
201,322,69400,5,0,0:0:0:0:
340,195,69549,1,6,0:0:0:0:
65,187,69697,5,0,0:0:0:0:
244,244,69846,1,0,0:0:0:0:
244,244,69994,1,8,0:0:0:0:
426,98,70143,6,0,P|386:84|344:87,1,84.5,0|6,0:0|0:0,0:0:0:0:
290,260,70440,2,0,P|321:232|339:194,1,84.5,0|0,0:0|0:0,0:0:0:0:
217,61,70737,2,0,P|249:136|325:166,1,169,6|0,0:0|0:0,0:0:0:0:
512,49,71183,1,8,0:0:0:0:
362,142,71331,5,0,0:0:0:0:
402,326,71480,1,6,0:0:0:0:
218,376,71628,5,0,0:0:0:0:
357,249,71777,1,0,0:0:0:0:
82,241,71925,5,6,0:0:0:0:
261,298,72074,1,0,0:0:0:0:
443,152,72222,2,0,P|403:138|361:141,1,84.5,0|8,0:0|0:0,0:0:0:0:
191,205,72519,1,0,0:0:0:0:
18,35,72668,6,0,L|144:41,1,126.75,6|0,0:0|0:0,0:0:0:0:
228,95,72965,2,0,L|354:101,1,126.75,6|2,0:0|3:0,0:0:0:0:
443,152,73262,2,0,L|316:158,1,126.75,6|0,0:0|0:0,0:0:0:0:
233,212,73559,2,0,L|106:218,1,126.75,6|0,0:0|0:0,0:0:0:0:
363,286,73856,5,4,0:0:0:0:
490,149,74005,1,0,0:0:0:0:
358,13,74153,5,0,0:0:0:0:
412,193,74302,1,6,0:0:0:0:
172,57,74450,5,0,0:0:0:0:
354,101,74599,1,0,0:0:0:0:
354,101,74747,1,8,0:0:0:0:
435,319,74896,6,0,P|393:309|359:285,1,84.5,0|6,0:0|0:0,0:0:0:0:
403,110,75193,1,2,3:0:0:0:
415,150,75267,1,2,3:0:0:0:
412,191,75341,1,2,3:0:0:0:
236,244,75490,1,6,0:0:0:0:
269,45,75638,1,0,3:0:0:0:
380,182,75787,1,2,0:0:0:0:
256,218,75936,1,2,0:0:0:0:
280,79,76084,1,2,0:0:0:0:
103,211,76232,6,0,P|178:244|256:218,1,169,6|0,0:0|0:0,0:0:0:0:
381,79,76678,1,4,0:0:0:0:
512,382,76975,1,4,0:0:0:0:
512,382,77420,6,0,P|430:366|382:299,1,169,6|0,0:0|0:0,0:0:0:0:
390,56,77866,1,4,0:0:0:0:
77,289,78163,1,4,0:0:0:0:
77,289,78608,5,4,0:0:0:0:
382,301,78756,1,4,0:0:0:0:
0,383,79054,1,4,0:0:0:0:
256,192,79351,1,4,0:0:0:0:
0,0,79648,1,4,0:0:0:0:
0,0,79796,6,0,B|51:36|53:92|53:92|107:69|156:104|156:104|107:132|80:183|68:244|104:293|104:293|166:320|202:267,1,549.249974857331,0|0,0:0|0:0,0:0:0:0:
