osu file format v14

[General]
AudioFilename: audio.mp3
AudioLeadIn: 0
PreviewTime: 46603
Countdown: 0
SampleSet: Soft
StackLeniency: 0.7
Mode: 0
LetterboxInBreaks: 0
WidescreenStoryboard: 0

[Editor]
Bookmarks: 4945,33460,38212,42965,79648,80688,24407,53794,72042
DistanceSpacing: 1.11
BeatDivisor: 4
GridSize: 4
TimelineZoom: 2.5

[Metadata]
Title:Responsibility Response
TitleUnicode:Responsibility Response
Artist:Izumi Akazawa (CV. Madoka Yonezawa)
ArtistUnicode:赤沢泉美(CV.米澤 円)
Creator:Shmiklak
Version:Bakari's Hard
Source:Another
Tags:slayed fcl wajinshu -bakari- deppyforce salsa vanucik5656 themefisto fanteer yaleufeu lama_poluna lama poluna tropical collab collaboration vanucik
BeatmapID:1056331
BeatmapSetID:495332

[Difficulty]
HPDrainRate:6
CircleSize:4
OverallDifficulty:6.9
ApproachRate:7.5
SliderMultiplier:1.5
SliderTickRate:1

[Events]
//Background and Video events
0,0,"shmiklakgey.jpg",0,0
//Break Periods
//Storyboard Layer 0 (Background)
//Storyboard Layer 1 (Fail)
//Storyboard Layer 2 (Pass)
//Storyboard Layer 3 (Foreground)
//Storyboard Sound Samples

[TimingPoints]
193,297.029702970297,4,2,0,70,1,0
193,-133.333333333333,4,2,0,70,0,0
4054,-100,4,2,1,70,0,0
14450,-133.333333333333,4,2,1,70,0,0
22767,-100,4,2,1,70,0,0
23955,-133.333333333333,4,2,1,70,0,0
33460,-133.333333333333,4,2,0,70,0,0
38212,-133.333333333333,4,2,1,70,0,0
45341,-100,4,2,1,70,0,0
47717,-100,4,2,1,70,0,1
67767,-133.333333333333,4,2,1,70,0,1
69103,-100,4,2,1,70,0,0

[Colours]
Combo1 : 17,254,176
Combo2 : 173,255,95
Combo3 : 255,88,100
Combo4 : 255,94,55

[HitObjects]
36,296,193,6,0,P|12:260|0:188,1,112.500004291535,2|2,0:0|0:0,0:0:0:0:
60,144,638,2,0,L|184:156,1,112.500004291535,2|2,0:0|0:0,0:0:0:0:
260,56,1232,1,2,0:0:0:0:
392,116,1529,1,2,0:0:0:0:
276,204,1826,2,0,P|272:236|320:308,1,112.500004291535,2|0,0:0|0:0,0:0:0:0:
384,308,2272,2,0,P|420:300|456:300,1,56.2500021457673,2|0,0:0|0:0,0:0:0:0:
492,248,2569,6,0,P|504:208|508:120,1,112.500004291535,2|2,0:0|0:0,0:0:0:0:
472,76,3014,1,2,0:0:0:0:
328,108,3311,1,2,0:0:0:0:
204,32,3608,1,2,0:0:0:0:
76,100,3905,1,2,0:0:0:0:
140,172,4054,6,0,P|144:204|144:252,1,75,2|2,3:0|3:0,0:0:0:0:
76,352,4351,1,2,3:0:0:0:
300,324,4648,1,0,0:0:0:0:
496,238,4945,6,0,L|488:74,1,150,6|0,0:0|0:0,0:0:0:0:
408,32,5391,2,0,L|400:200,1,150,6|0,0:0|0:0,0:0:0:0:
372,276,5836,2,0,P|344:256|300:240,1,75,6|0,0:0|0:0,0:0:0:0:
157,270,6133,6,0,P|165:234|145:106,1,150,6|0,0:0|0:0,0:0:0:0:
64,80,6579,2,0,P|16:112|80:160,1,150,6|0,0:0|0:0,0:0:0:0:
317,170,7321,6,0,L|480:160,1,150,6|0,0:0|0:0,0:0:0:0:
420,228,7767,2,0,L|252:208,1,150,6|0,0:0|0:0,0:0:0:0:
168,316,8212,1,6,0:0:0:0:
48,44,8509,2,0,P|16:100|96:100,1,150,6|8,0:0|3:0,0:0:0:0:
175,37,8955,1,4,0:0:0:0:
213,210,9400,2,0,L|129:202,1,75,10|10,3:0|3:0,0:0:0:0:
52,272,9697,6,0,P|88:276|136:376,1,150,6|0,0:0|0:0,0:0:0:0:
266,382,10143,2,0,P|290:342|390:326,1,150,6|0,0:0|0:0,0:0:0:0:
462,196,10589,2,0,L|457:105,1,75,6|0,0:0|0:0,0:0:0:0:
348,82,10886,2,0,L|339:233,1,150,6|0,0:0|0:0,0:0:0:0:
218,303,11331,2,0,P|162:275|62:283,1,150,6|0,0:0|0:0,0:0:0:0:
13,157,11777,2,0,P|28:119|36:75,1,75,6|0,0:0|0:0,0:0:0:0:
235,164,12074,6,0,L|72:194,1,150,6|0,0:0|0:0,0:0:0:0:
168,68,12519,2,0,P|224:80|304:16,1,150,6|0,0:0|0:0,0:0:0:0:
372,157,12965,2,0,P|380:200|420:240,1,75,6|0,0:0|0:0,0:0:0:0:
396,215,14450,6,0,L|389:327,1,112.500004291535,2|0,0:0|0:0,0:0:0:0:
452,364,14895,1,2,0:0:0:0:
312,384,15192,2,0,L|301:271,1,112.500004291535,0|0,0:0|0:0,0:0:0:0:
244,224,15638,5,2,0:0:0:0:
132,316,15935,2,0,L|68:324,1,56.2500021457673,0|2,0:0|0:0,0:0:0:0:
16,284,16232,2,0,P|0:248|0:208,1,56.2500021457673,0|0,0:0|0:0,0:0:0:0:
36,168,16529,1,8,0:0:0:0:
228,240,16826,6,0,L|364:228,1,112.500004291535,2|0,0:0|0:0,0:0:0:0:
392,180,17272,1,2,0:0:0:0:
332,312,17569,1,0,0:0:0:0:
476,288,17866,1,0,0:0:0:0:
404,272,18014,6,0,P|408:312|472:360,1,112.500004291535,2|2,0:0|0:0,0:0:0:0:
476,288,18460,1,0,0:0:0:0:
452,220,18608,2,0,P|464:196|480:152,1,56.2500021457673,2|0,0:0|0:0,0:0:0:0:
428,112,18905,2,0,P|404:112|364:104,1,56.2500021457673,8|0,0:0|0:0,0:0:0:0:
324,52,19202,5,2,0:0:0:0:
296,268,19499,1,0,0:0:0:0:
248,212,19648,1,2,0:0:0:0:
204,268,19796,2,0,P|208:292|204:340,1,56.2500021457673,0|0,0:0|0:0,0:0:0:0:
152,372,20093,2,0,P|132:360|84:352,1,56.2500021457673,8|0,0:0|0:0,0:0:0:0:
8,374,20391,5,2,0:0:0:0:
61,154,20688,1,0,0:0:0:0:
132,229,20836,2,0,P|160:216|260:216,1,112.500004291535,2|0,0:0|0:0,0:0:0:0:
308,240,21282,2,0,L|376:232,1,56.2500021457673,8|0,0:0|0:0,0:0:0:0:
408,176,21579,6,0,P|400:132|404:100,1,56.2500021457673,2|0,0:0|0:0,0:0:0:0:
489,81,21876,2,0,L|479:157,1,56.2500021457673,0|2,0:0|0:0,0:0:0:0:
508,364,22321,1,0,0:0:0:0:
332,296,22618,1,0,0:0:0:0:
256,356,22767,6,0,P|220:352|172:316,1,75,2|0,0:0|0:0,0:0:0:0:
173,209,23064,2,0,P|209:213|257:249,1,75,2|0,0:0|0:0,0:0:0:0:
104,276,23361,1,2,0:0:0:0:
68,188,23509,1,2,3:0:0:0:
124,108,23658,1,2,3:0:0:0:
220,104,23806,1,2,3:0:0:0:
301,150,23955,6,0,P|336:136|388:68,1,112.500004291535,2|0,0:0|0:0,0:0:0:0:
440,156,24400,2,0,L|424:280,1,112.500004291535,2|0,0:0|0:0,0:0:0:0:
440,340,24846,2,0,P|460:328|492:316,1,56.2500021457673,8|0,0:0|0:0,0:0:0:0:
364,312,25143,6,0,P|316:284|236:292,1,112.500004291535,2|0,0:0|0:0,0:0:0:0:
179,352,25589,2,0,L|116:348,1,56.2500021457673,2|0,0:0|0:0,0:0:0:0:
72,212,26034,2,0,L|144:204,1,56.2500021457673,8|0,0:0|0:0,0:0:0:0:
188,128,26331,6,0,L|64:116,1,112.500004291535,2|0,0:0|0:0,0:0:0:0:
154,32,26777,2,0,L|274:24,1,112.500004291535,2|0,0:0|0:0,0:0:0:0:
352,48,27222,1,8,0:0:0:0:
188,128,27519,6,0,L|208:252,1,112.500004291535,2|2,0:0|0:0,0:0:0:0:
327,272,27965,2,0,L|316:196,2,56.2500021457673,0|2|0,0:0|0:0|0:0,0:0:0:0:
380,336,28410,1,8,0:0:0:0:
444,280,28559,1,0,0:0:0:0:
400,184,28707,6,0,P|388:136|416:60,1,112.500004291535,2|0,0:0|0:0,0:0:0:0:
320,12,29153,1,2,0:0:0:0:
256,48,29301,2,0,L|176:44,1,56.2500021457673,0|0,0:0|0:0,0:0:0:0:
128,64,29598,1,8,0:0:0:0:
180,116,29747,1,0,0:0:0:0:
176,216,29895,6,0,P|148:248|68:268,1,112.500004291535,2|0,0:0|0:0,0:0:0:0:
32,360,30341,2,0,L|160:348,1,112.500004291535,2|0,0:0|0:0,0:0:0:0:
248,376,30787,1,8,0:0:0:0:
220,308,30935,1,0,0:0:0:0:
333,345,31084,6,0,L|461:333,1,112.500004291535,2|0,0:0|0:0,0:0:0:0:
496,216,31529,1,2,0:0:0:0:
440,264,31678,2,0,L|384:256,1,56.2500021457673,0|0,0:0|0:0,0:0:0:0:
336,204,31975,1,8,0:0:0:0:
384,152,32123,1,0,0:0:0:0:
353,58,32272,6,0,P|304:39|281:42,1,56.2500021457673,2|0,0:0|0:0,0:0:0:0:
207,108,32569,2,0,P|232:108|268:100,1,56.2500021457673,2|2,0:0|3:0,0:0:0:0:
211,22,32866,1,2,3:0:0:0:
151,220,33163,1,2,3:0:0:0:
384,224,33460,6,0,P|432:248|460:316,1,112.500004291535,4|0,0:0|0:0,0:0:0:0:
420,360,33905,2,0,L|284:352,1,112.500004291535,2|0,0:0|0:0,0:0:0:0:
252,304,34351,1,2,0:0:0:0:
112,340,34648,6,0,P|52:344|8:300,1,112.500004291535,2|0,0:0|0:0,0:0:0:0:
32,240,35093,2,0,L|20:120,1,112.500004291535,2|0,0:0|0:0,0:0:0:0:
56,64,35539,1,2,0:0:0:0:
200,188,35836,6,0,P|232:200|304:152,1,112.500004291535,2|0,0:0|0:0,0:0:0:0:
368,180,36282,2,0,P|376:208|456:248,1,112.500004291535,2|0,0:0|0:0,0:0:0:0:
504,208,36727,1,2,0:0:0:0:
344,348,37024,6,0,L|220:344,2,112.500004291535,2|0|0,0:0|0:0|0:0,0:0:0:0:
384,208,37915,2,0,L|320:216,1,56.2500021457673,2|0,0:0|0:0,0:0:0:0:
237,174,38212,6,0,P|217:138|209:58,1,112.500004291535,6|0,0:0|0:0,0:0:0:0:
264,20,38658,2,0,P|296:36|340:40,1,56.2500021457673,2|0,0:0|0:0,0:0:0:0:
436,124,39103,2,0,P|416:144|400:176,1,56.2500021457673,2|0,0:0|0:0,0:0:0:0:
327,229,39400,6,0,P|368:244|416:312,1,112.500004291535,2|0,0:0|0:0,0:0:0:0:
376,360,39846,2,0,L|248:356,1,112.500004291535,2|0,0:0|0:0,0:0:0:0:
208,308,40292,1,2,0:0:0:0:
32,372,40589,6,0,L|16:292,1,56.2500021457673,2|0,0:0|0:0,0:0:0:0:
80,272,40886,2,0,L|92:216,1,56.2500021457673,0|2,0:0|0:0,0:0:0:0:
56,152,41183,1,0,0:0:0:0:
208,256,41480,2,0,P|232:244|256:220,1,56.2500021457673,2|0,0:0|0:0,0:0:0:0:
352,200,41777,6,0,P|380:228|408:308,1,112.500004291535,2|0,0:0|0:0,0:0:0:0:
364,352,42222,1,2,0:0:0:0:
292,336,42371,1,0,0:0:0:0:
472,372,42668,1,2,0:0:0:0:
424,208,42965,5,2,0:0:0:0:
284,164,43262,1,0,0:0:0:0:
428,140,43559,1,0,0:0:0:0:
312,228,43856,1,2,0:0:0:0:
376,96,44153,5,2,0:0:0:0:
372,244,44450,1,0,0:0:0:0:
308,112,44747,1,0,0:0:0:0:
428,196,45044,1,2,0:0:0:0:
203,262,45341,6,0,L|216:360,1,75,6|0,0:0|0:0,0:0:0:0:
214,187,45638,2,0,L|203:262,1,75,6|0,0:0|0:0,0:0:0:0:
204,113,45935,2,0,L|217:211,1,75,6|0,0:0|0:0,0:0:0:0:
215,38,46232,2,0,L|203:112,1,75,6|0,0:0|0:0,0:0:0:0:
396,152,46678,6,0,P|424:132|472:112,2,75,0|2|0,0:0|3:0|0:0,0:0:0:0:
388,248,47123,1,2,0:3:0:0:
208,64,47420,1,0,0:0:0:0:
132,244,47717,6,0,P|96:260|8:192,1,150,4|0,0:0|0:0,0:0:0:0:
88,172,48163,2,0,L|248:180,1,150,4|0,0:0|0:0,0:0:0:0:
300,124,48608,1,8,0:0:0:0:
324,204,48757,1,0,0:0:0:0:
356,280,48905,5,2,0:0:0:0:
408,216,49054,2,0,L|488:220,1,75,0|0,0:0|0:0,0:0:0:0:
508,140,49351,2,0,P|468:116|472:12,1,150,2|0,0:0|0:0,0:0:0:0:
388,0,49796,2,0,P|372:28|324:52,1,75,8|0,0:0|0:0,0:0:0:0:
228,64,50093,6,0,L|72:48,1,150,2|0,0:0|0:0,0:0:0:0:
8,170,50539,2,0,P|36:202|48:242,2,75,2|0|0,0:0|0:0|0:0,0:0:0:0:
120,191,50985,2,0,P|148:159|164:127,1,75,8|0,0:0|0:0,0:0:0:0:
210,210,51282,6,0,L|286:202,1,75,6|0,0:0|0:0,0:0:0:0:
356,244,51579,1,6,0:0:0:0:
432,43,51876,1,6,0:0:0:0:
480,112,52024,1,0,0:0:0:0:
400,124,52173,2,0,P|376:108|348:60,1,75,8|0,0:0|0:0,0:0:0:0:
247,17,52470,6,0,P|211:13|119:85,1,150,2|0,0:0|0:0,0:0:0:0:
232,180,52915,2,0,P|232:144|212:96,1,75,2|0,0:0|0:0,0:0:0:0:
152,156,53212,1,0,0:0:0:0:
272,268,53509,1,0,0:0:0:0:
244,344,53658,5,2,0:0:0:0:
324,336,53806,2,0,L|480:340,1,150,0|2,0:0|0:0,0:0:0:0:
400,232,54252,2,0,L|388:136,2,75,0|0|8,0:0|0:0|0:0,0:0:0:0:
485,178,54697,1,0,0:0:0:0:
489,190,54846,6,0,L|473:346,1,150,2|0,0:0|0:0,0:0:0:0:
392,316,55292,1,2,0:0:0:0:
324,360,55440,2,0,P|280:368|232:364,1,75,0|0,0:0|0:0,0:0:0:0:
268,260,55737,2,0,P|232:240|208:208,1,75,8|0,0:0|0:0,0:0:0:0:
228,80,56034,5,4,0:0:0:0:
132,216,56331,1,4,0:0:0:0:
348,136,56628,1,4,0:0:0:0:
108,128,56925,2,0,P|96:100|88:48,1,75,4|0,0:0|0:0,0:0:0:0:
192,152,57222,6,0,L|172:312,1,150,6|0,0:0|0:0,0:0:0:0:
248,264,57668,1,2,0:0:0:0:
116,168,57965,1,0,0:0:0:0:
128,88,58113,2,0,P|152:72|212:72,1,75,8|0,0:0|0:0,0:0:0:0:
296,128,58410,6,0,P|280:76|352:4,1,150,2|0,0:0|0:0,0:0:0:0:
422,43,58856,2,0,P|395:70|352:84,1,75,2|0,0:0|0:0,0:0:0:0:
411,150,59153,1,0,0:0:0:0:
459,218,59301,2,0,P|432:256|416:296,1,75,8|0,0:0|0:0,0:0:0:0:
464,376,59598,6,0,P|400:360|300:384,1,150,2|0,0:0|0:0,0:0:0:0:
188,300,60044,2,0,P|224:312|332:272,1,150,2|0,0:0|0:0,0:0:0:0:
369,154,60490,1,8,0:0:0:0:
416,220,60638,1,0,0:0:0:0:
439,101,60787,6,0,P|358:65|282:167,1,225,6|0,0:0|0:0,0:0:0:0:
330,237,61381,2,0,P|346:269|354:313,1,75,6|0,0:0|0:0,0:0:0:0:
221,361,61678,2,0,P|221:321|241:269,1,75,8|0,0:0|0:0,0:0:0:0:
124,231,61975,6,0,P|105:277|5:298,1,150,6|0,0:0|0:0,0:0:0:0:
30,147,62420,2,0,L|38:223,1,75,6|0,0:0|0:0,0:0:0:0:
107,151,62717,2,0,L|99:73,1,75,0|2,0:0|0:0,0:0:0:0:
164,20,63014,1,0,0:0:0:0:
228,76,63163,6,0,P|275:94|376:56,1,150,6|0,0:0|0:0,0:0:0:0:
479,161,63608,2,0,P|451:213|459:317,1,150,6|0,0:0|0:0,0:0:0:0:
392,356,64054,2,0,P|352:348|304:352,1,75,2|0,0:0|0:0,0:0:0:0:
184,372,64351,6,0,L|20:360,1,150,6|0,0:0|0:0,0:0:0:0:
147,272,64796,2,0,L|67:280,2,75,6|0|0,0:0|0:0|0:0,0:0:0:0:
258,156,65391,1,0,0:0:0:0:
259,144,65539,6,0,P|300:104|392:88,1,150,6|6,0:0|0:0,0:0:0:0:
456,136,65985,1,2,3:0:0:0:
380,172,66133,1,6,0:0:0:0:
436,328,66430,1,2,0:0:0:0:
360,296,66579,1,0,0:0:0:0:
311,363,66727,6,0,P|259:375|163:311,1,150,4|2,0:0|3:0,0:0:0:0:
160,192,67173,2,0,P|184:160|228:132,1,75,6|0,0:0|0:0,0:0:0:0:
207,265,67470,1,6,0:0:0:0:
199,273,67767,6,0,B|157:295|109:263|109:263|105:299|105:299|57:279|14:282,1,225.000008583069,6|0,0:0|0:0,0:0:0:0:
319,359,69103,6,0,P|356:336|468:344,1,150,6|0,0:0|0:0,0:0:0:0:
452,256,69549,1,6,0:0:0:0:
504,192,69697,2,0,P|480:164|460:112,1,75,0|0,0:0|0:0,0:0:0:0:
484,48,69994,1,8,0:0:0:0:
366,114,70143,1,0,0:0:0:0:
353,106,70292,6,0,L|193:114,1,150,6|0,0:0|0:0,0:0:0:0:
136,160,70737,2,0,P|124:128|188:36,1,150,6|0,0:0|0:0,0:0:0:0:
277,120,71183,2,0,L|193:112,1,75,8|0,0:0|0:0,0:0:0:0:
163,252,71480,6,0,P|194:235|254:231,2,75,6|0|0,0:0|0:0|0:0,0:0:0:0:
112,376,71925,1,6,0:0:0:0:
184,336,72074,2,0,L|352:348,1,150,0|8,0:0|0:0,0:0:0:0:
422,204,72668,6,0,L|506:204,1,75,6|0,0:0|0:0,0:0:0:0:
472,124,72965,2,0,L|397:124,1,75,6|2,0:0|3:0,0:0:0:0:
340,184,73262,2,0,P|315:128|369:47,1,150,6|6,0:0|0:0,0:0:0:0:
288,4,73707,1,0,0:0:0:0:
220,52,73856,6,0,L|229:136,1,75,4|0,0:0|0:0,0:0:0:0:
139,106,74153,2,0,L|136:181,2,75,0|6|0,0:0|0:0|0:0,0:0:0:0:
88,44,74598,1,0,0:0:0:0:
88,286,74895,2,0,P|72:256|64:208,1,75,0|6,0:0|0:0,0:0:0:0:
171,258,75193,6,0,P|174:302|158:338,1,75,2|2,3:0|3:0,0:0:0:0:
263,366,75490,2,0,L|421:354,1,150,6|2,0:0|0:0,0:0:0:0:
452,284,75935,1,2,0:0:0:0:
376,256,76084,1,2,0:0:0:0:
330,156,76232,6,0,P|349:102|437:60,1,150,6|0,0:0|0:0,0:0:0:0:
436,64,76678,1,4,0:0:0:0:
500,216,76975,1,4,0:0:0:0:
256,297,77420,6,0,L|260:213,2,75,6|0|0,0:0|0:0|0:0,0:0:0:0:
310,355,77866,2,0,P|350:355|399:375,1,75,4|0,0:0|0:0,0:0:0:0:
226,369,78163,2,0,P|168:374|68:346,1,150,4|0,0:0|0:0,0:0:0:0:
48,228,78608,6,0,P|84:224|140:244,1,75,4|4,0:0|0:0,0:0:0:0:
226,369,79054,1,4,0:0:0:0:
261,348,79351,1,4,0:0:0:0:
295,322,79648,6,0,B|284:290|273:274|237:279|213:263|192:207|202:156|237:125|283:120|320:140|320:140|352:111|384:106|436:138|435:195|428:222|380:262,1,525,4|0,0:0|0:0,0:0:0:0:
