osu file format v14

[General]
AudioFilename: audio.mp3
AudioLeadIn: 0
PreviewTime: 157007
Countdown: 1
SampleSet: Soft
StackLeniency: 0.4
Mode: 0
LetterboxInBreaks: 0
WidescreenStoryboard: 0

[Editor]
DistanceSpacing: 0.1
BeatDivisor: 4
GridSize: 4
TimelineZoom: 1.3

[Metadata]
Title:Responsibility Response
TitleUnicode:Responsibility Response
Artist:Izumi Akazawa (CV. Madoka Yonezawa)
ArtistUnicode:赤沢泉美(CV.米澤 円)
Creator:Riene
Version:1-2 Dance
Source:Another
Tags:
BeatmapID:2009395
BeatmapSetID:959663

[Difficulty]
HPDrainRate:5.5
CircleSize:4
OverallDifficulty:9.8
ApproachRate:9.8
SliderMultiplier:1.8
SliderTickRate:1

[Events]
//Background and Video events
0,0,"Konachan.com - 155205 ayase_sayuki bikini blue_eyes book cube kantoku swimsuit water wet your_diary.png",0,0
//Break Periods
2,171910,178953
//Storyboard Layer 0 (Background)
//Storyboard Layer 1 (Fail)
//Storyboard Layer 2 (Pass)
//Storyboard Layer 3 (Foreground)
//Storyboard Sound Samples

[TimingPoints]
621,297.029702970297,4,2,0,70,1,0
14284,-200,4,2,0,70,0,0
14878,-100,4,2,0,70,0,0
33888,-133.333333333333,4,2,0,70,0,0
38343,-100,4,2,0,70,0,0
47551,-76.9230769230769,4,2,0,70,0,0
48145,-76.9230769230769,4,2,0,70,0,1
62403,-66.6666666666667,4,2,0,70,0,1
68195,-133.333333333333,4,2,0,70,0,1
68937,-133.333333333333,4,2,0,70,0,0
69531,-100,4,2,0,70,0,0
79185,-100,4,2,0,70,0,0
80224,-100,4,2,0,70,0,0
81561,-100,4,2,0,70,0,0
82601,-100,4,2,0,70,0,0
87576,-100,4,2,0,5,0,0
87650,-100,4,2,0,70,0,0
87724,-100,4,2,0,5,0,0
87799,-100,4,2,0,70,0,0
98046,-133.333333333333,4,2,0,70,0,0
102502,-100,4,2,0,70,0,0
112304,-76.9230769230769,4,2,0,70,0,1
126561,-66.6666666666667,4,2,0,70,0,1
132353,-100,4,2,0,70,0,1
133096,-100,4,2,0,70,0,0
179432,-200,4,2,0,70,0,0
180026,-66.6666666666667,4,2,0,70,0,0
180621,-62.5,4,2,0,70,0,0
181215,-55.5555555555556,4,2,0,70,0,0
181809,-50,4,2,0,70,0,0
182551,-100,4,2,0,70,0,0
183294,-133.333333333333,4,2,0,70,0,0
183591,-71.4285714285714,4,2,0,70,0,0
197848,-62.5,4,2,0,70,0,0
204234,-100,4,2,0,70,0,0
212106,-76.9230769230769,4,2,0,70,0,0

[HitObjects]
216,115,621,6,0,L|207:224,2,90,2|0|0,0:0|0:0|0:0,0:0:0:0:
306,257,1066,2,0,P|241:305|125:282,1,180,2|0,0:0|0:0,0:0:0:0:
73,172,1512,1,0,0:0:0:0:
73,172,1660,2,0,L|180:175,2,90,2|0|0,0:0|0:0|0:0,0:0:0:0:
313,236,2106,1,0,0:0:0:0:
324,58,2254,2,0,B|316:133|316:133|322:172|322:172|310:264,1,180,2|0,0:0|0:0,0:0:0:0:
330,351,2700,5,0,0:0:0:0:
236,264,2848,1,0,0:0:0:0:
392,272,2997,6,0,L|490:286,2,90,2|0|0,0:0|0:0|0:0,0:0:0:0:
224,346,3442,2,0,P|172:321|179:202,1,180,2|0,0:0|0:0,0:0:0:0:
222,84,3888,1,0,0:0:0:0:
222,84,4036,2,0,L|237:284,1,180,2|0,0:0|0:0,0:0:0:0:
235,263,4482,5,8,0:0:0:0:
347,123,4630,1,10,0:0:0:0:
420,361,4779,1,10,0:0:0:0:
173,207,4927,2,0,L|78:207,2,90,0|0|0,0:0|0:0|0:0,0:0:0:0:
376,289,5373,6,0,L|166:302,1,180,4|0,0:0|0:0,0:0:0:0:
33,230,5819,2,0,L|232:219,1,180,4|0,0:0|0:0,0:0:0:0:
349,131,6264,2,0,L|352:222,1,90,8|0,0:0|0:0,0:0:0:0:
430,352,6561,6,0,L|429:143,1,180,4|0,0:0|0:0,0:0:0:0:
349,16,7007,2,0,L|351:206,1,180,4|0,0:0|0:0,0:0:0:0:
364,330,7452,2,0,L|255:323,1,90,8|0,0:0|0:0,0:0:0:0:
215,116,7749,6,0,P|178:177|176:235,1,90,4|0,0:0|0:0,0:0:0:0:
188,310,8046,1,0,0:0:0:0:
86,177,8195,2,0,B|151:194|152:194|203:194,1,90,4|0,0:0|0:0,0:0:0:0:
301,75,8492,1,0,0:0:0:0:
305,258,8640,2,0,L|302:133,1,90,4|0,0:0|0:0,0:0:0:0:
414,259,8937,5,8,0:0:0:0:
414,259,9012,1,8,0:0:0:0:
414,259,9086,1,8,0:0:0:0:
301,361,9234,2,0,L|411:356,1,90,8|0,0:0|0:0,0:0:0:0:
275,255,9531,2,0,L|157:259,1,90,8|0,0:0|0:0,0:0:0:0:
62,339,9828,1,8,0:0:0:0:
140,172,9977,1,8,0:0:0:0:
230,355,10125,6,0,L|219:141,1,180,4|0,0:0|0:0,0:0:0:0:
287,14,10571,2,0,L|298:212,1,180,4|0,0:0|0:0,0:0:0:0:
399,319,11017,2,0,L|303:324,1,90,8|0,0:0|0:0,0:0:0:0:
38,228,11314,6,0,L|242:217,1,180,4|0,0:0|0:0,0:0:0:0:
396,131,11759,2,0,L|185:139,1,180,4|0,0:0|0:0,0:0:0:0:
99,57,12205,2,0,P|78:132|81:173,1,90,8|0,0:0|0:0,0:0:0:0:
221,328,12502,6,0,L|227:211,1,90,4|0,0:0|0:0,0:0:0:0:
206,91,12799,1,0,0:0:0:0:
307,290,12947,2,0,L|316:185,1,90,4|0,0:0|0:0,0:0:0:0:
290,37,13244,1,0,0:0:0:0:
436,197,13393,5,4,0:0:0:0:
127,221,13541,1,8,0:0:0:0:
127,221,14284,6,0,P|86:243|56:341,1,135,2|0,0:0|0:0,0:0:0:0:
127,221,14878,6,0,L|236:210,1,90,2|0,0:0|0:0,0:0:0:0:
318,125,15175,1,0,0:0:0:0:
280,281,15323,2,0,P|266:337|272:393,2,90,2|0|0,0:0|0:0|0:0,0:0:0:0:
457,310,15769,2,8,P|373:327|331:322,1,90
241,180,16066,5,2,0:0:0:0:
272,352,16215,1,0,0:0:0:0:
362,174,16363,1,0,0:0:0:0:
212,274,16512,1,2,0:0:0:0:
375,274,16660,6,0,L|470:281,1,90
272,352,16957,2,0,L|158:349,1,90,8|0,0:0|0:0,0:0:0:0:
65,172,17254,1,2,0:0:0:0:
95,331,17403,1,0,0:0:0:0:
170,116,17551,1,0,0:0:0:0:
61,259,17700,1,2,0:0:0:0:
26,74,17848,1,0,0:0:0:0:
160,211,17997,6,0,P|223:222|293:213,1,135,4|0,0:0|0:0,0:0:0:0:
292,213,18294,1,2,0:0:0:0:
179,346,18442,5,10,0:0:0:0:
136,75,18591,1,0,0:0:0:0:
246,305,18739,5,10,0:0:0:0:
226,30,18888,1,0,0:0:0:0:
48,262,19036,5,10,0:0:0:0:
282,154,19185,1,0,0:0:0:0:
40,119,19333,1,10,0:0:0:0:
211,293,19482,1,2,0:0:0:0:
188,30,19630,6,0,P|165:95|165:157,1,90,2|0,0:0|0:0,0:0:0:0:
211,293,19927,2,0,L|336:284,1,90,0|2,0:0|0:0,0:0:0:0:
452,153,20224,5,0,0:0:0:0:
405,308,20373,1,0,0:0:0:0:
329,117,20521,1,8,0:0:0:0:
307,375,20670,1,0,0:0:0:0:
480,234,20819,6,0,B|398:226|398:226|360:242|360:242|281:237,1,180,2|0,0:0|0:0,0:0:0:0:
202,127,21264,2,0,P|156:189|181:284,1,180,2|0,0:0|0:0,0:0:0:0:
303,337,21710,2,0,L|399:341,1,90,8|0,0:0|0:0,0:0:0:0:
244,199,22007,5,2,0:0:0:0:
203,374,22155,1,0,0:0:0:0:
159,101,22304,1,0,0:0:0:0:
20,249,22452,2,0,L|121:231,1,90,2|0,0:0|0:0,0:0:0:0:
247,85,22749,2,0,L|142:103,2,90,0|8|0,0:0|0:0|0:0,0:0:0:0:
91,23,23195,5,10,0:0:0:0:
31,249,23343,1,0,0:0:0:0:
167,61,23492,5,10,0:0:0:0:
147,293,23640,1,0,0:0:0:0:
68,128,23789,5,10,0:0:0:0:
278,192,23937,1,0,0:0:0:0:
68,264,24086,1,10,0:0:0:0:
167,61,24234,1,2,0:0:0:0:
243,303,24383,6,0,L|131:308,1,90,2|0,0:0|0:0,0:0:0:0:
60,355,24680,1,0,0:0:0:0:
196,217,24828,2,0,L|293:212,1,90,2|0,0:0|0:0,0:0:0:0:
422,293,25125,2,0,L|304:301,2,90,0|8|0,0:0|0:0|0:0,0:0:0:0:
289,200,25571,5,2,0:0:0:0:
246,371,25720,1,0,0:0:0:0:
192,149,25868,1,0,0:0:0:0:
82,278,26017,1,2,0:0:0:0:
275,154,26165,6,0,L|267:272,1,90,0|0,0:0|0:0,0:0:0:0:
179,368,26462,2,0,L|183:260,1,90,8|0,0:0|0:0,0:0:0:0:
191,70,26759,2,0,P|192:150|93:168,1,180,2|0,0:0|0:0,0:0:0:0:
141,0,27205,2,0,B|200:-5|200:-5|232:5|232:5|360:6,1,180,2|0,0:0|0:0,0:0:0:0:
434,95,27650,2,0,L|333:93,1,90,8|0,0:0|0:0,0:0:0:0:
218,281,27947,5,10,0:0:0:0:
252,66,28096,1,0,0:0:0:0:
287,348,28244,5,10,0:0:0:0:
302,130,28393,1,0,0:0:0:0:
339,294,28541,5,10,0:0:0:0:
201,134,28690,1,0,0:0:0:0:
411,172,28838,1,10,0:0:0:0:
218,281,28987,1,2,0:0:0:0:
75,108,29135,6,0,L|80:228,1,90,2|0,0:0|0:0,0:0:0:0:
143,345,29432,2,0,L|151:215,1,90,0|2,0:0|0:0,0:0:0:0:
196,66,29729,5,0,0:0:0:0:
55,181,29878,1,0,0:0:0:0:
291,185,30026,1,8,0:0:0:0:
95,72,30175,1,0,0:0:0:0:
187,282,30323,5,2,0:0:0:0:
206,120,30472,1,0,0:0:0:0:
283,316,30621,1,0,0:0:0:0:
91,255,30769,1,2,0:0:0:0:
303,149,30918,2,0,L|186:138,1,90
91,255,31215,2,0,L|184:266,1,90,8|0,0:0|0:0,0:0:0:0:
359,329,31512,6,0,B|249:308|283:372|167:350,1,180,0|0,0:0|0:0,0:0:0:0:
101,219,31957,2,0,P|52:264|57:400,1,180,0|0,0:0|0:0,0:0:0:0:
202,271,32403,2,0,L|203:169,1,90,0|0,0:0|0:0,0:0:0:0:
91,67,32700,5,10,0:0:0:0:
339,199,32848,1,0,0:0:0:0:
39,227,32997,5,10,0:0:0:0:
271,78,33145,1,0,0:0:0:0:
252,359,33294,5,10,0:0:0:0:
160,126,33442,1,0,0:0:0:0:
380,173,33591,5,10,0:0:0:0:
110,290,33739,1,2,0:0:0:0:
442,366,33888,6,0,L|227:363,2,202.500007724762,6|2|2,0:0|0:0|0:0,0:0:0:0:
419,51,35076,2,0,B|404:98|449:156|449:156|428:268,2,202.500007724762,8|2|2,0:0|0:0|0:0,0:0:0:0:
229,174,36264,2,0,P|211:226|292:167,1,270.000010299683,4|8,0:0|0:0,0:0:0:0:
300,173,37155,1,2,0:0:0:0:
224,254,37452,2,0,L|85:253,2,135.000005149842,4|2|2,0:0|0:0|0:0,0:0:0:0:
188,153,38343,6,0,L|338:153,1,135,2|0,0:0|0:0,0:0:0:0:
385,100,38640,6,0,L|381:206,1,90,6|0,0:0|0:0,0:0:0:0:
419,293,38937,1,0,0:0:0:0:
301,141,39086,2,0,L|296:241,1,90,2|0,0:0|0:0,0:0:0:0:
329,345,39383,1,0,0:0:0:0:
162,259,39531,1,8,0:0:0:0:
296,230,39680,1,0,0:0:0:0:
188,346,39828,6,0,L|75:348,1,90,2|0,0:0|0:0,0:0:0:0:
296,230,40125,1,0,0:0:0:0:
162,259,40274,2,0,L|60:261,1,90,2|0,0:0|0:0,0:0:0:0:
174,103,40571,1,0,0:0:0:0:
242,287,40720,2,0,L|246:169,1,90,8|8,0:0|0:0,0:0:0:0:
346,79,41017,6,0,B|245:56|279:123|167:101,1,180,2|0,0:0|0:0,0:0:0:0:
114,188,41462,2,0,P|53:154|79:46,1,180,2|0,0:0|0:0,0:0:0:0:
222,188,41908,2,0,P|204:237|155:272,1,90,8|0,0:0|0:0,0:0:0:0:
86,296,42205,6,0,B|161:293|161:293|198:307|198:307|278:303,1,180,2|0,0:0|0:0,0:0:0:0:
418,241,42650,2,0,B|344:222|344:222|234:224,1,180,2|0,0:0|0:0,0:0:0:0:
117,140,43096,2,0,L|111:236,1,90,8|0,0:0|0:0,0:0:0:0:
280,330,43393,6,0,L|281:215,1,90,6|0,0:0|0:0,0:0:0:0:
125,271,43690,2,0,L|124:159,1,90,2|4,0:0|0:0,0:0:0:0:
280,240,43987,2,0,L|281:125,1,90,2|0,0:0|0:0,0:0:0:0:
125,181,44284,2,0,L|124:69,1,90,6|0,0:0|0:0,0:0:0:0:
281,60,44581,6,0,L|280:175,1,90,6|0,0:0|0:0,0:0:0:0:
436,119,44878,2,0,L|437:231,1,90,2|4,0:0|0:0,0:0:0:0:
281,150,45175,2,0,L|280:265,1,90,2|0,0:0|0:0,0:0:0:0:
436,209,45472,2,0,L|437:321,1,90,6|0,0:0|0:0,0:0:0:0:
136,332,45769,5,14,0:0:0:0:
436,209,45918,1,0,0:0:0:0:
108,130,46066,5,12,0:0:0:0:
415,227,46215,1,0,0:0:0:0:
90,324,46363,5,12,0:0:0:0:
390,201,46512,1,0,0:0:0:0:
62,122,46660,5,12,0:0:0:0:
369,219,46809,1,0,0:0:0:0:
149,219,46957,5,8,0:0:0:0:
149,219,47031,1,8,0:0:0:0:
149,219,47106,2,0,L|47:215,2,90,10|0|2,0:0|0:0|0:0,0:0:0:0:
300,314,47551,2,0,B|241:303|198:279|198:279|180:297|180:297|149:277|60:292,1,233.999989288331,10|0,0:0|0:0,0:0:0:0:
81,288,48145,6,0,B|37:303|37:303|100:116,1,233.999989288331,6|0,0:0|0:0,0:0:0:0:
329,88,48591,2,0,B|362:146|362:146|282:134|234:156|234:156|166:150,1,233.999989288331,2|0,0:0|0:0,0:0:0:0:
309,243,49036,1,8,0:0:0:0:
203,65,49185,1,0,0:0:0:0:
118,209,49333,1,2,0:0:0:0:
118,209,49482,6,0,P|94:296|100:363,1,116.999994644165,0|0,0:0|0:0,0:0:0:0:
309,243,49779,2,0,B|271:227|271:227|156:228,1,116.999994644165,2|0,0:0|0:0,0:0:0:0:
91,313,50076,1,0,0:0:0:0:
49,112,50224,1,8,0:0:0:0:
10,253,50373,1,0,0:0:0:0:
123,63,50521,6,0,L|268:46,1,116.999994644165,2|0,0:0|0:0,0:0:0:0:
393,185,50819,1,0,0:0:0:0:
190,141,50967,2,0,L|56:156,1,116.999994644165,2|0,0:0|0:0,0:0:0:0:
258,231,51264,1,0,0:0:0:0:
296,34,51413,1,8,0:0:0:0:
380,293,51561,1,0,0:0:0:0:
116,232,51710,5,10,0:0:0:0:
364,135,51858,1,0,0:0:0:0:
83,80,52007,5,10,0:0:0:0:
78,349,52155,1,0,0:0:0:0:
302,182,52304,5,10,0:0:0:0:
8,147,52452,1,0,0:0:0:0:
328,55,52601,1,10,0:0:0:0:
151,239,52749,1,2,0:0:0:0:
435,226,52898,6,0,P|361:173|246:272,1,233.999989288331,6|0,0:0|0:0,0:0:0:0:
338,363,53343,2,0,B|274:342|274:342|216:347|216:347|83:317,1,233.999989288331,2|0,0:0|0:0,0:0:0:0:
52,166,53789,2,0,L|204:196,2,116.999994644165,8|0|2,0:0|0:0|0:0,0:0:0:0:
265,144,54234,6,0,P|268:232|139:274,1,233.999989288331,0|2,0:0|0:0,0:0:0:0:
65,88,54680,1,0,0:0:0:0:
196,197,54828,1,0,0:0:0:0:
28,182,54977,1,8,0:0:0:0:
163,77,55125,1,0,0:0:0:0:
112,241,55274,5,2,0:0:0:0:
241,118,55422,1,0,0:0:0:0:
221,338,55571,1,0,0:0:0:0:
125,157,55720,2,0,L|1:156,1,116.999994644165,2|0,0:0|0:0,0:0:0:0:
148,256,56017,2,0,L|271:255,2,116.999994644165,0|8|0,0:0|0:0|0:0,0:0:0:0:
114,69,56462,5,10,0:0:0:0:
73,312,56611,1,0,0:0:0:0:
193,94,56759,5,10,0:0:0:0:
194,340,56908,1,0,0:0:0:0:
290,97,57056,5,10,0:0:0:0:
289,343,57205,1,0,0:0:0:0:
369,72,57353,5,10,0:0:0:0:
410,315,57502,1,2,0:0:0:0:
106,169,57650,6,0,B|197:139|217:236|217:236|317:188|428:223,1,350.999983932496,6|2,0:0|0:0,0:0:0:0:
505,333,58244,1,0,0:0:0:0:
475,124,58393,1,0,0:0:0:0:
395,284,58541,2,0,L|267:296,2,116.999994644165,8|0|2,0:0|0:0|0:0,0:0:0:0:
242,209,58987,6,0,P|192:257|261:386,1,233.999989288331,0|2,0:0|0:0,0:0:0:0:
348,211,59432,2,0,P|329:141|268:106,1,116.999994644165,0|0,0:0|0:0,0:0:0:0:
125,210,59729,2,0,L|255:208,1,116.999994644165,8|0,0:0|0:0,0:0:0:0:
369,85,60026,1,2,0:0:0:0:
276,298,60175,1,0,0:0:0:0:
390,180,60323,2,0,L|519:176,1,116.999994644165,0|2,0:0|0:0,0:0:0:0:
276,298,60621,2,0,L|121:298,1,116.999994644165,0|0,0:0|0:0,0:0:0:0:
306,212,60918,2,0,P|353:273|351:365,1,116.999994644165,8|0,0:0|0:0,0:0:0:0:
455,169,61215,5,10,0:0:0:0:
155,84,61363,1,0,0:0:0:0:
416,75,61512,5,10,0:0:0:0:
113,151,61660,1,0,0:0:0:0:
374,167,61809,5,10,0:0:0:0:
74,82,61957,1,0,0:0:0:0:
335,73,62106,5,10,0:0:0:0:
32,149,62254,1,2,0:0:0:0:
235,32,62403,6,0,P|334:23|282:176,1,270.000010299683,6|0,0:0|0:0,0:0:0:0:
215,246,62848,2,0,B|274:240|274:240|302:258|302:258|354:246|354:246|477:272,1,270.000010299683,2|0,0:0|0:0,0:0:0:0:
344,364,63294,2,0,B|267:369|267:369|192:337,1,135.000005149842,8|0,0:0|0:0,0:0:0:0:
173,86,63591,6,0,B|188:169|188:169|95:332,1,270.000010299683,6|0,0:0|0:0,0:0:0:0:
77,67,64036,2,0,B|127:14|127:14|367:2,1,270.000010299683,2|0,0:0|0:0,0:0:0:0:
469,102,64482,2,0,L|326:114,1,135.000005149842,8|0,0:0|0:0,0:0:0:0:
199,267,64779,5,6,0:0:0:0:
137,52,64927,2,0,L|122:192,1,135.000005149842,0|0,0:0|0:0,0:0:0:0:
121,333,65224,1,6,0:0:0:0:
50,118,65373,2,0,L|31:261,1,135.000005149842
262,360,65670,1,8,0:0:0:0:
137,169,65819,1,0,0:0:0:0:
13,359,65967,5,14,0:0:0:0:
351,178,66116,1,0,0:0:0:0:
43,252,66264,5,14,0:0:0:0:
432,297,66413,1,0,0:0:0:0:
141,332,66561,5,14,0:0:0:0:
459,133,66710,1,0,0:0:0:0:
146,185,66858,5,14,0:0:0:0:
263,311,67007,1,0,0:0:0:0:
259,60,67155,1,8,0:0:0:0:
379,183,67304,1,8,0:0:0:0:
379,183,67378,1,8,0:0:0:0:
379,183,67452,5,8,0:0:0:0:
69,263,67601,2,0,B|140:241|193:294|193:294|232:263|232:263|300:289|346:260,1,270.000010299683,4|8,0:0|0:0,0:0:0:0:
315,272,68046,1,8,0:0:0:0:
221,43,68195,2,0,P|174:86|293:87,1,270.000010299683,4|8,0:0|0:0,0:0:0:0:
294,112,68937,6,0,L|393:116,2,90.0000034332277,2|2|2,0:0|0:0|0:0,0:0:0:0:
136,219,69531,6,0,L|241:224,2,90,2|0|0,0:0|0:0|0:0,0:0:0:0:
317,298,69977,2,0,L|207:301,2,90,2|0|0,0:0|0:0|0:0,0:0:0:0:
332,210,70422,2,0,P|393:239|386:357,1,180,8|2,0:0|0:0,0:0:0:0:
149,289,70868,5,0,0:0:0:0:
278,123,71017,1,0,0:0:0:0:
251,351,71165,1,2,0:0:0:0:
161,159,71314,1,0,0:0:0:0:
332,263,71462,2,0,L|431:262,2,90,0|8|0,0:0|0:0|0:0,0:0:0:0:
161,159,71908,6,0,L|178:263,1,90,2|0,0:0|0:0,0:0:0:0:
132,356,72205,1,0,0:0:0:0:
246,152,72353,2,0,L|264:263,1,90,2|0,0:0|0:0,0:0:0:0:
211,358,72650,1,0,0:0:0:0:
176,224,72799,1,8,0:0:0:0:
291,318,72947,1,0,0:0:0:0:
47,283,73096,5,10,0:0:0:0:
334,177,73244,1,0,0:0:0:0:
82,142,73393,5,10,0:0:0:0:
407,252,73541,1,0,0:0:0:0:
129,241,73690,5,10,0:0:0:0:
416,135,73838,1,0,0:0:0:0:
164,100,73987,5,10,0:0:0:0:
489,210,74135,1,2,0:0:0:0:
252,304,74284,6,0,B|238:269|238:269|253:118,1,180,2|0,0:0|0:0,0:0:0:0:
387,53,74729,2,0,B|288:79|287:23|184:60,1,180,2|0,0:0|0:0,0:0:0:0:
163,141,75175,2,0,P|243:127|265:128,1,90,8|0,0:0|0:0,0:0:0:0:
365,260,75472,5,2,0:0:0:0:
345,113,75621,1,0,0:0:0:0:
283,317,75769,1,0,0:0:0:0:
445,197,75918,5,2,0:0:0:0:
501,368,76066,1,0,0:0:0:0:
365,260,76215,1,0,0:0:0:0:
313,362,76363,2,0,L|200:359,1,90,8|0,0:0|0:0,0:0:0:0:
71,248,76660,6,0,L|166:250,2,90,2|0|0,0:0|0:0|0:0,0:0:0:0:
224,185,77106,2,0,P|249:256|180:333,1,180,2|0,0:0|0:0,0:0:0:0:
49,243,77551,1,8,0:0:0:0:
152,373,77700,1,0,0:0:0:0:
138,90,77848,5,10,0:0:0:0:
74,342,77997,1,0,0:0:0:0:
53,47,78145,5,10,0:0:0:0:
150,288,78294,1,0,0:0:0:0:
294,80,78442,5,10,0:0:0:0:
230,332,78591,1,0,0:0:0:0:
209,37,78739,5,10,0:0:0:0:
306,278,78888,1,0,0:0:0:0:
401,32,79036,6,0,L|399:124,1,90,6|0,0:0|0:0,0:0:0:0:
399,121,80224,5,2,0:0:0:0:
405,137,80521,1,2,0:0:0:0:
411,153,80819,1,2,0:0:0:0:
417,169,81116,1,2,0:0:0:0:
425,187,81413,2,0,L|325:187,1,90,2|0,0:0|0:0,0:0:0:0:
335,187,82601,5,2,0:0:0:0:
329,203,82898,1,2,0:0:0:0:
323,219,83196,1,2,0:0:0:0:
317,235,83493,1,2,0:0:0:0:
309,253,83790,6,0,L|409:253,1,90,2|0,0:0|0:0,0:0:0:0:
278,354,84086,2,0,L|181:351,2,90,0|2|0,0:0|0:0|0:0,0:0:0:0:
174,242,84531,2,0,P|109:287|99:403,1,180
309,344,84977,5,2,0:0:0:0:
235,168,85125,1,0,0:0:0:0:
409,300,85274,1,0,0:0:0:0:
203,305,85422,6,0,B|119:297|119:297|89:304|89:304|4:303,1,180,2|0,0:0|0:0,0:0:0:0:
234,176,85868,2,0,P|276:194|309:244,1,90,8|0,0:0|0:0,0:0:0:0:
317,330,86165,5,0,0:0:0:0:
387,78,86314,1,0,0:0:0:0:
493,221,86462,1,0,0:0:0:0:
260,118,86611,2,0,L|157:117,1,90,0|0,0:0|0:0,0:0:0:0:
16,198,86908,2,0,P|61:181|107:179,2,90,0|0|0,0:0|0:0|0:0,0:0:0:0:
84,273,87353,5,0,0:0:0:0:
120,60,87502,2,0,L|132:109,1,45,0|0,0:0|0:0,0:0:0:0:
151,339,87650,6,0,L|159:270,1,45,0|0,0:0|0:0,0:0:0:0:
244,68,87799,1,0,0:0:0:0:
245,112,87873,1,0,0:0:0:0:
247,157,87947,1,0,0:0:0:0:
249,202,88021,1,0,0:0:0:0:
250,247,88096,2,0,L|256:307,1,45,0|0,0:0|0:0,0:0:0:0:
383,378,88244,2,0,L|378:305,1,45,0|0,0:0|0:0,0:0:0:0:
327,134,88393,1,0,0:0:0:0:
250,247,88541,6,0,B|326:215|321:287|465:230,1,180,0|0,0:0|0:0,0:0:0:0:
327,134,88987,2,0,B|250:115|250:115|138:136,1,180,0|0,0:0|0:0,0:0:0:0:
21,213,89432,1,0,0:0:0:0:
68,53,89581,1,0,0:0:0:0:
106,299,89729,6,0,P|111:219|122:170,1,90,0|0,0:0|0:0,0:0:0:0:
190,73,90026,1,0,0:0:0:0:
112,209,90175,2,0,P|47:199|11:177,1,90,0|0,0:0|0:0,0:0:0:0:
190,73,90472,2,0,L|283:84,2,90,0|0|0,0:0|0:0|0:0,0:0:0:0:
352,18,90918,6,0,P|376:82|318:174,1,180,0|0,0:0|0:0,0:0:0:0:
499,168,91363,2,0,B|410:144|416:200|314:169,1,180,0|0,0:0|0:0,0:0:0:0:
241,75,91809,1,0,0:0:0:0:
180,212,91957,1,0,0:0:0:0:
147,15,92106,5,0,0:0:0:0:
244,283,92254,1,0,0:0:0:0:
241,75,92403,5,0,0:0:0:0:
166,353,92551,1,0,0:0:0:0:
108,132,92700,5,0,0:0:0:0:
244,283,92848,1,0,0:0:0:0:
241,75,92997,1,0,0:0:0:0:
128,241,93145,1,0,0:0:0:0:
41,34,93294,6,0,L|142:25,1,90,0|0,0:0|0:0,0:0:0:0:
307,100,93591,2,0,L|211:110,1,90,0|0,0:0|0:0,0:0:0:0:
321,13,93888,5,0,0:0:0:0:
411,165,94036,1,0,0:0:0:0:
209,39,94185,1,0,0:0:0:0:
373,271,94333,1,0,0:0:0:0:
496,62,94482,6,0,B|418:52|418:52|379:61|379:61|296:54,1,180,0|0,0:0|0:0,0:0:0:0:
239,142,94927,2,0,P|296:153|304:46,1,180,0|0,0:0|0:0,0:0:0:0:
158,83,95373,2,0,P|141:143|142:178,1,90,0|0,0:0|0:0,0:0:0:0:
215,286,95670,5,0,0:0:0:0:
44,220,95819,1,0,0:0:0:0:
220,172,95967,1,0,0:0:0:0:
106,314,96116,1,0,0:0:0:0:
115,132,96264,1,0,0:0:0:0:
11,313,96413,5,0,0:0:0:0:
215,286,96561,1,0,0:0:0:0:
44,220,96710,1,0,0:0:0:0:
316,149,96858,5,0,0:0:0:0:
106,314,97007,1,0,0:0:0:0:
311,229,97155,5,0,0:0:0:0:
44,220,97304,1,0,0:0:0:0:
398,128,97452,5,0,0:0:0:0:
188,293,97601,1,0,0:0:0:0:
237,174,97749,5,0,0:0:0:0:
328,276,97898,1,0,0:0:0:0:
300,91,98046,6,0,L|97:92,2,202.500007724762,0|0|0,0:0|0:0|0:0,0:0:0:0:
58,356,99234,2,0,B|84:298|54:244|54:244|62:138,2,202.500007724762,0|0|0,0:0|0:0|0:0,0:0:0:0:
325,204,100422,2,0,P|313:158|247:260,1,270.000010299683,0|0,0:0|0:0,0:0:0:0:
219,246,101314,1,0,0:0:0:0:
325,204,101611,2,0,L|469:206,2,135.000005149842,0|0|0,0:0|0:0|0:0,0:0:0:0:
219,246,102502,6,0,L|70:245,1,135,0|0,0:0|0:0,0:0:0:0:
20,186,102799,6,0,P|23:259|6:316,1,90,0|0,0:0|0:0,0:0:0:0:
0,352,103096,1,0,0:0:0:0:
104,156,103244,2,0,P|111:222|109:268,1,90,0|0,0:0|0:0,0:0:0:0:
92,338,103541,5,0,0:0:0:0:
17,194,103690,1,0,0:0:0:0:
0,293,103838,1,0,0:0:0:0:
104,156,103987,6,0,L|209:146,1,90,0|0,0:0|0:0,0:0:0:0:
329,207,104284,1,0,0:0:0:0:
140,77,104432,2,0,L|246:73,1,90,0|0,0:0|0:0,0:0:0:0:
401,140,104729,1,0,0:0:0:0:
246,253,104878,2,0,L|138:255,1,90,0|0,0:0|0:0,0:0:0:0:
38,172,105175,6,0,P|105:166|143:285,1,180,0|0,0:0|0:0,0:0:0:0:
48,343,105621,2,0,B|116:318|125:378|245:339,1,180,0|0,0:0|0:0,0:0:0:0:
343,351,106066,2,0,P|333:296|299:263,1,90,0|0,0:0|0:0,0:0:0:0:
203,245,106363,6,0,B|270:236|270:236|297:245|297:245|391:229,1,180,0|0,0:0|0:0,0:0:0:0:
482,159,106809,2,0,B|422:135|422:135|297:154,1,180,0|0,0:0|0:0,0:0:0:0:
190,98,107254,2,0,P|169:148|171:207,1,90,0|0,0:0|0:0,0:0:0:0:
331,359,107551,6,0,P|335:299|321:247,1,90,6|0,0:0|0:0,0:0:0:0:
178,327,107848,2,0,P|174:267|188:215,1,90,2|4,0:0|0:0,0:0:0:0:
329,270,108145,6,0,P|333:210|319:158,1,90,2|0,0:0|0:0,0:0:0:0:
176,238,108442,2,0,P|172:178|186:126,1,90,6|0,0:0|0:0,0:0:0:0:
329,28,108739,6,0,P|333:88|319:140,1,90,6|0,0:0|0:0,0:0:0:0:
176,60,109036,2,0,P|172:120|186:172,1,90,2|4,0:0|0:0,0:0:0:0:
327,117,109333,6,0,P|331:177|317:229,1,90,2|0,0:0|0:0,0:0:0:0:
174,149,109630,2,0,P|170:209|184:261,1,90,6|0,0:0|0:0,0:0:0:0:
376,332,109927,5,12,0:0:0:0:
76,209,110076,1,0,0:0:0:0:
404,130,110224,5,12,0:0:0:0:
97,227,110373,1,0,0:0:0:0:
422,324,110521,5,12,0:0:0:0:
122,201,110670,1,0,0:0:0:0:
450,122,110818,5,12,0:0:0:0:
143,219,110967,1,0,0:0:0:0:
211,116,111264,5,0,0:0:0:0:
211,116,111338,1,0,0:0:0:0:
211,116,111413,1,0,0:0:0:0:
302,208,111561,2,0,L|204:212,2,90,0|0|0,0:0|0:0|0:0,0:0:0:0:
379,99,112007,1,8,0:0:0:0:
348,293,112155,1,8,0:0:0:0:
388,65,112304,6,0,B|405:18|405:18|409:172|429:237,1,233.999989288331,4|0,0:0|0:0,0:0:0:0:
483,365,112749,2,0,B|483:331|506:296|506:296|432:317|343:291,1,233.999989288331,0|0,0:0|0:0,0:0:0:0:
115,337,113195,1,0,0:0:0:0:
245,200,113343,1,0,0:0:0:0:
204,372,113492,1,0,0:0:0:0:
129,183,113640,6,0,P|122:117|128:52,1,116.999994644165,0|0,0:0|0:0,0:0:0:0:
245,200,113937,2,0,P|245:283|209:358,1,116.999994644165,0|0,0:0|0:0,0:0:0:0:
39,226,114234,1,0,0:0:0:0:
225,108,114383,1,0,0:0:0:0:
148,293,114531,1,0,0:0:0:0:
107,85,114680,6,0,P|51:77|-10:119,1,116.999994644165,0|0,0:0|0:0,0:0:0:0:
214,232,114977,1,0,0:0:0:0:
302,7,115125,2,0,P|278:70|292:151,1,116.999994644165,0|0,0:0|0:0,0:0:0:0:
413,265,115422,1,0,0:0:0:0:
181,150,115571,1,0,0:0:0:0:
392,75,115720,1,0,0:0:0:0:
265,250,115868,5,0,0:0:0:0:
221,12,116017,1,0,0:0:0:0:
117,297,116165,5,0,0:0:0:0:
157,58,116314,1,0,0:0:0:0:
338,287,116462,5,0,0:0:0:0:
294,49,116611,1,0,0:0:0:0:
190,334,116759,1,0,0:0:0:0:
273,227,116908,1,0,0:0:0:0:
44,187,117056,6,0,B|103:151|103:151|266:132,1,233.999989288331,0|0,0:0|0:0,0:0:0:0:
433,51,117502,2,0,P|463:157|372:218,1,233.999989288331,0|0,0:0|0:0,0:0:0:0:
229,106,117947,2,0,L|368:108,2,116.999994644165,0|0|0,0:0|0:0|0:0,0:0:0:0:
134,246,118393,6,0,B|142:169|142:169|136:128|136:128|147:5,1,233.999989288331,0|0,0:0|0:0,0:0:0:0:
15,174,118838,1,0,0:0:0:0:
227,87,118987,1,0,0:0:0:0:
93,263,119135,1,0,0:0:0:0:
31,67,119284,1,0,0:0:0:0:
8,318,119432,5,0,0:0:0:0:
221,255,119581,1,0,0:0:0:0:
15,174,119729,1,0,0:0:0:0:
221,107,119878,2,0,L|341:116,1,116.999994644165,0|0,0:0|0:0,0:0:0:0:
221,255,120175,2,0,L|101:264,2,116.999994644165,0|0|0,0:0|0:0|0:0,0:0:0:0:
54,357,120621,5,0,0:0:0:0:
98,97,120769,1,0,0:0:0:0:
212,314,120918,5,0,0:0:0:0:
164,54,121066,1,0,0:0:0:0:
168,378,121215,5,0,0:0:0:0:
212,118,121363,1,0,0:0:0:0:
326,335,121512,5,0,0:0:0:0:
278,75,121660,1,0,0:0:0:0:
47,224,121809,6,0,B|109:254|183:201|183:201|227:212|227:212|303:182|303:182|389:196,1,350.999983932496,0|0,0:0|0:0,0:0:0:0:
487,290,122403,1,0,0:0:0:0:
296,328,122551,1,0,0:0:0:0:
410,173,122700,2,0,L|527:201,2,116.999994644165,0|0|0,0:0|0:0|0:0,0:0:0:0:
339,253,123145,6,0,P|259:242|282:91,1,233.999989288331,0|0,0:0|0:0,0:0:0:0:
458,72,123591,2,0,B|410:82|410:82|324:74,1,116.999994644165,0|0,0:0|0:0,0:0:0:0:
84,58,123888,2,0,B|132:48|132:48|218:56,1,116.999994644165,0|0,0:0|0:0,0:0:0:0:
337,246,124185,1,0,0:0:0:0:
299,74,124333,1,0,0:0:0:0:
88,217,124482,2,0,P|148:203|247:208,1,116.999994644165,0|0,0:0|0:0,0:0:0:0:
452,233,124779,2,0,P|375:248|315:242,1,116.999994644165,0|0,0:0|0:0,0:0:0:0:
270,16,125076,2,0,P|291:90|288:156,1,116.999994644165,0|0,0:0|0:0,0:0:0:0:
153,317,125373,5,0,0:0:0:0:
383,132,125521,1,0,0:0:0:0:
42,194,125670,5,0,0:0:0:0:
365,284,125819,1,0,0:0:0:0:
309,30,125967,5,0,0:0:0:0:
232,327,126116,1,0,0:0:0:0:
189,83,126264,5,0,0:0:0:0:
365,284,126413,1,0,0:0:0:0:
105,168,126561,6,0,P|34:209|154:223,1,270.000010299683,0|0,0:0|0:0,0:0:0:0:
253,126,127007,2,0,B|327:103|392:133|392:133|457:120|457:120|522:150,1,270.000010299683,0|0,0:0|0:0,0:0:0:0:
489,325,127452,2,0,P|419:289|356:288,1,135.000005149842,0|0,0:0|0:0,0:0:0:0:
134,360,127749,6,0,B|171:304|171:304|145:252|145:252|163:197|163:197|119:109,1,270.000010299683,0|0,0:0|0:0,0:0:0:0:
265,72,128195,2,0,B|228:128|228:128|254:180|254:180|236:235|236:235|280:323,1,270.000010299683,0|0,0:0|0:0,0:0:0:0:
354,179,128640,2,0,B|326:133|326:133|383:46,1,135.000005149842,0|0,0:0|0:0,0:0:0:0:
472,240,128937,5,0,0:0:0:0:
243,164,129086,2,0,P|185:208|135:294,1,135.000005149842,0|0,0:0|0:0,0:0:0:0:
140,358,129383,1,0,0:0:0:0:
63,154,129531,2,0,P|111:97|216:84,1,135.000005149842,0|0,0:0|0:0,0:0:0:0:
371,134,129828,2,0,P|305:162|214:157,1,135.000005149842,0|0,0:0|0:0,0:0:0:0:
85,75,130125,5,0,0:0:0:0:
285,254,130274,1,0,0:0:0:0:
26,172,130422,5,0,0:0:0:0:
311,90,130571,1,0,0:0:0:0:
212,323,130720,5,0,0:0:0:0:
134,56,130868,1,0,0:0:0:0:
142,271,131017,5,0,0:0:0:0:
207,0,131165,1,0,0:0:0:0:
56,117,131314,5,0,0:0:0:0:
321,182,131462,1,0,0:0:0:0:
321,182,131536,1,0,0:0:0:0:
321,182,131610,1,0,0:0:0:0:
299,312,131759,6,0,B|238:290|199:302|199:302|169:291|136:301|136:301|66:287|66:287|2:297,1,270.000010299683,0|0,0:0|0:0,0:0:0:0:
34,291,132205,1,0,0:0:0:0:
116,88,132353,2,0,P|170:32|176:154,1,270,0|0,0:0|0:0,0:0:0:0:
190,152,132947,1,0,0:0:0:0:
298,245,133096,6,0,L|401:220,1,90,0|0,0:0|0:0,0:0:0:0:
213,349,133393,2,0,L|102:323,1,90,0|0,0:0|0:0,0:0:0:0:
256,192,133690,6,0,L|377:198,2,90,0|0|0,0:0|0:0|0:0,0:0:0:0:
399,279,134135,2,0,L|499:259,2,90,0|0|0,0:0|0:0|0:0,0:0:0:0:
424,85,134581,2,0,P|430:147|427:194,1,90,0|0,0:0|0:0,0:0:0:0:
358,341,134878,5,0,0:0:0:0:
287,196,135026,1,0,0:0:0:0:
384,358,135175,1,0,0:0:0:0:
261,174,135323,5,0,0:3:0:0:
238,375,135472,1,0,0:3:0:0:
301,142,135621,1,0,0:3:0:0:
105,257,135769,2,0,P|154:253|222:263,1,90,0|0,0:0|0:0,0:0:0:0:
343,308,136066,5,0,0:0:0:0:
343,308,136140,1,0,0:0:0:0:
343,308,136215,1,0,0:0:0:0:
234,169,136363,2,0,P|171:151|137:151,2,90,0|0|0,0:0|0:0|0:0,0:0:0:0:
380,235,136809,2,0,B|299:213|295:276|180:237,1,180,0|0,0:0|0:0,0:0:0:0:
112,136,137254,5,0,0:0:0:0:
93,279,137403,1,0,0:0:0:0:
177,83,137551,5,0,0:0:0:0:
198,226,137700,1,0,0:0:0:0:
41,49,137848,5,0,0:0:0:0:
12,201,137997,1,0,0:0:0:0:
116,2,138145,5,0,0:0:0:0:
134,152,138294,1,0,0:0:0:0:
247,58,138442,6,0,B|306:53|306:53|332:61|332:61|359:52|359:52|441:59,1,180,0|0,0:0|0:0,0:0:0:0:
468,202,138888,2,0,P|479:273|391:242,1,180,0|0,0:0|0:0,0:0:0:0:
343,132,139333,1,0,0:0:0:0:
256,276,139482,1,0,0:0:0:0:
377,92,139630,6,0,P|374:159|379:195,1,90,0|0,0:0|0:0,0:0:0:0:
417,345,139927,2,0,P|431:288|429:244,2,90,0|0|0,0:0|0:0|0:0,0:0:0:0:
279,187,140373,1,0,0:0:0:0:
218,362,140521,2,0,P|260:333|313:336,1,90,0|0,0:0|0:0,0:0:0:0:
483,254,140819,6,0,L|388:242,1,90,0|0,0:0|0:0,0:0:0:0:
254,277,141116,1,0,0:0:0:0:
434,174,141264,2,0,L|324:161,1,90,0|0,0:0|0:0,0:0:0:0:
198,209,141561,1,0,0:0:0:0:
339,73,141710,2,0,L|345:170,1,90,0|0,0:0|0:0,0:0:0:0:
430,298,142007,5,0,0:0:0:0:
177,357,142155,1,0,0:0:0:0:
366,218,142304,5,0,0:0:0:0:
100,164,142452,1,0,0:0:0:0:
439,137,142601,5,0,0:0:0:0:
148,247,142749,1,0,0:0:0:0:
363,53,142898,5,0,0:0:0:0:
107,7,143046,1,0,0:0:0:0:
462,15,143195,6,0,B|445:105|445:105|456:224,1,180,0|0,0:0|0:0,0:0:0:0:
489,334,143640,2,0,B|402:304|402:304|272:319,1,180,0|0,0:0|0:0,0:0:0:0:
160,368,144086,2,0,L|141:269,1,90,0|0,0:0|0:0,0:0:0:0:
233,50,144383,6,0,L|224:243,1,180,0|0,0:0|0:0,0:0:0:0:
47,348,144828,2,0,B|104:320|104:320|255:334,1,180,0|0,0:0|0:0,0:0:0:0:
389,252,145274,2,0,L|390:349,1,90,0|0,0:0|0:0,0:0:0:0:
339,163,145571,6,0,B|394:140|443:166|443:166|461:155|461:155|539:165,1,180,0|0,0:0|0:0,0:0:0:0:
292,259,146017,2,0,P|246:191|266:83,1,180,0|0,0:0|0:0,0:0:0:0:
389,252,146462,2,0,P|370:320|327:356,1,90,0|0,0:0|0:0,0:0:0:0:
216,142,146759,5,0,0:0:0:0:
162,334,146908,1,0,0:0:0:0:
127,104,147056,5,0,0:0:0:0:
224,278,147205,1,0,0:0:0:0:
37,214,147353,5,0,0:0:0:0:
234,78,147502,1,0,0:0:0:0:
7,83,147650,5,0,0:0:0:0:
186,192,147799,1,0,0:0:0:0:
234,78,147947,5,0,0:0:0:0:
281,215,148096,1,0,0:0:0:0:
220,44,148244,1,0,0:0:0:0:
211,277,148393,5,0,0:0:0:0:
334,124,148541,1,0,0:0:0:0:
223,307,148690,1,0,0:0:0:0:
158,143,148838,1,0,0:0:0:0:
352,222,148987,1,0,0:0:0:0:
102,221,149135,6,0,P|46:237|-3:280,2,90,0|0|0,0:0|0:0|0:0,0:0:0:0:
230,274,149581,2,0,P|299:265|339:247,2,90,0|0|0,0:0|0:0|0:0,0:0:0:0:
381,182,150026,2,0,P|411:250|415:294,1,90,0|0,0:0|0:0,0:0:0:0:
243,342,150323,6,0,L|121:350,2,90,0|0|0,0:0|0:0|0:0,0:0:0:0:
34,253,150769,2,0,L|152:259,2,90,0|0|0,0:0|0:0|0:0,0:0:0:0:
213,153,151215,2,0,L|209:259,1,90,0|0,0:0|0:0,0:0:0:0:
147,39,151512,5,0,0:0:0:0:
293,132,151660,1,0,0:0:0:0:
110,44,151809,1,0,0:0:0:0:
353,31,151957,5,0,0:0:0:0:
150,139,152106,1,0,0:0:0:0:
377,42,152254,1,0,0:0:0:0:
299,225,152403,1,0,0:0:0:0:
231,17,152551,1,0,0:0:0:0:
319,251,152700,6,0,L|316:352,2,90,0|0|0,0:0|0:0|0:0,0:0:0:0:
234,106,153145,2,0,L|230:-3,2,90,0|0|0,0:0|0:0|0:0,0:0:0:0:
318,241,153591,5,0,0:0:0:0:
113,175,153739,1,0,0:0:0:0:
330,134,153888,2,0,P|387:137|449:161,2,90,0|0|0,0:0|0:0|0:0,0:0:0:0:
173,236,154333,5,0,0:0:0:0:
227,64,154482,1,0,0:0:0:0:
285,288,154630,1,0,0:0:0:0:
127,122,154779,1,0,0:0:0:0:
47,309,154927,1,0,0:0:0:0:
228,152,155076,2,0,P|285:136|399:198,1,180,0|0,0:0|0:0,0:0:0:0:
283,364,155521,6,0,L|293:257,1,90,0|0,0:0|0:0,0:0:0:0:
391,94,155819,2,0,L|389:220,1,90,0|0,0:0|0:0,0:0:0:0:
458,338,156116,1,0,0:0:0:0:
256,192,156190,12,0,157304,0:0:0:0:
147,188,157452,6,0,P|81:160|-37:180,1,180,0|0,0:0|0:0,0:0:0:0:
16,355,157898,2,0,P|94:375|188:319,1,180,0|0,0:0|0:0,0:0:0:0:
410,171,158343,2,0,P|356:190|331:308,2,180,0|0|0,0:0|0:0|0:0,0:0:0:0:
493,254,159234,2,0,P|488:320|385:357,1,180,0|0,0:0|0:0,0:0:0:0:
81,153,159828,6,0,P|159:181|268:111,1,180,0|0,0:0|0:0,0:0:0:0:
270,49,160274,1,0,0:0:0:0:
244,144,160422,2,0,P|232:221|232:258,1,90,0|0,0:0|0:0,0:0:0:0:
336,334,160720,2,0,B|262:327|262:327|223:334|223:334|145:329,1,180,0|0,0:0|0:0,0:0:0:0:
65,219,161314,2,0,L|181:227,2,90,0|0|0,0:0|0:0|0:0,0:0:0:0:
116,303,161908,1,0,0:0:0:0:
177,62,162205,6,0,P|169:126|173:182,2,90,0|0|0,0:0|0:0|0:0,0:0:0:0:
256,225,162650,2,0,P|261:283|250:340,2,90,0|0|0,0:0|0:0|0:0,0:0:0:0:
144,252,163096,2,0,P|58:251|28:240,1,90,0|0,0:0|0:0,0:0:0:0:
295,113,163393,6,0,P|304:178|304:221,2,90,0|0|0,0:0|0:0|0:0,0:0:0:0:
214,365,163838,2,0,P|195:288|194:243,2,90,0|0|0,0:0|0:0|0:0,0:0:0:0:
194,156,164284,2,0,P|139:148|84:155,1,90,0|0,0:0|0:0,0:0:0:0:
44,259,164581,6,0,P|38:317|40:356,2,90,0|0|0,0:0|0:0|0:0,0:0:0:0:
104,150,165026,2,0,P|112:96|110:48,2,90,0|0|0,0:0|0:0|0:0,0:0:0:0:
167,243,165472,2,0,P|175:316|165:359,1,90,0|0,0:0|0:0,0:0:0:0:
434,152,165769,6,0,P|430:104|436:53,2,90,0|0|0,0:0|0:0|0:0,0:0:0:0:
360,240,166215,2,0,P|355:303|360:349,2,90,0|0|0,0:0|0:0|0:0,0:0:0:0:
286,154,166660,2,0,P|281:91|288:39,1,90,0|0,0:0|0:0,0:0:0:0:
255,297,166957,6,0,L|130:318,1,90,0|0,0:0|0:0,0:0:0:0:
193,72,167254,2,0,L|296:63,1,90,0|0,0:0|0:0,0:0:0:0:
166,311,167551,2,0,L|41:332,1,90,0|0,0:0|0:0,0:0:0:0:
282,64,167848,2,0,L|385:55,1,90,0|0,0:0|0:0,0:0:0:0:
98,194,168145,2,0,L|90:85,1,90,0|0,0:0|0:0,0:0:0:0:
389,183,168442,2,0,L|412:296,1,90,0|0,0:0|0:0,0:0:0:0:
91,104,168739,2,0,L|83:-5,1,90,0|0,0:0|0:0,0:0:0:0:
406,271,169036,2,0,L|429:384,1,90,0|0,0:0|0:0,0:0:0:0:
185,168,169333,6,0,P|129:207|119:300,1,135,0|0,0:0|0:0,0:0:0:0:
221,263,169630,2,0,P|279:191|273:117,1,135,0|0,0:0|0:0,0:0:0:0:
178,38,169927,2,0,P|166:119|186:170,1,135,0|0,0:0|0:0,0:0:0:0:
411,154,170224,2,0,P|355:137|271:156,1,135,0|0,0:0|0:0,0:0:0:0:
209,333,170521,6,0,L|208:228,1,90,0|0,0:0|0:0,0:0:0:0:
349,269,170819,2,0,L|442:262,2,90,0|0|0,0:0|0:0|0:0,0:0:0:0:
256,320,171413,1,0,0:0:0:0:
192,128,171710,5,0,0:0:0:0:
192,128,179432,6,0,P|168:176|188:288,1,157.5,0|0,0:0|0:0,0:0:0:0:
375,285,180026,6,0,P|288:304|151:255,1,202.500007724762,0|0,0:0|0:0,0:0:0:0:
185,194,180323,2,0,P|283:175|379:204,1,202.500007724762,0|0,0:0|0:0,0:0:0:0:
375,298,180621,6,0,P|288:317|151:268,1,216,0|0,0:0|0:0,0:0:0:0:
172,188,180918,2,0,P|270:169|396:216,1,216,0|0,0:0|0:0,0:0:0:0:
416,311,181215,6,0,L|406:66,1,242.999992584229,0|0,0:0|0:0,0:0:0:0:
323,6,181512,2,0,L|329:272,1,242.999992584229,0|0,0:0|0:0,0:0:0:0:
252,363,181809,6,0,L|246:76,1,270,0|0,0:0|0:0,0:0:0:0:
166,17,182106,2,0,L|167:244,1,180,0|0,0:0|0:0,0:0:0:0:
166,196,182551,6,0,L|166:317,2,90,0|0|0,0:0|0:0|0:0,0:0:0:0:
166,196,182997,1,0,0:0:0:0:
44,216,183294,6,0,P|19:162|40:101,1,101.250003862381,0|0,0:0|0:0,0:0:0:0:
44,216,183591,6,0,B|82:256|147:221|147:221|197:238|197:238|229:212|332:225,1,251.999992309571,0|0,0:0|0:0,0:0:0:0:
318,12,184036,2,0,B|254:19|253:97|302:130|302:130|284:157|278:246,1,251.999992309571,0|0,0:0|0:0,0:0:0:0:
351,340,184482,1,0,0:0:0:0:
133,278,184630,1,0,0:0:0:0:
359,248,184779,1,0,0:0:0:0:
197,363,184927,6,0,P|210:288|203:229,1,125.999996154785,0|0,0:0|0:0,0:0:0:0:
117,68,185224,2,0,P|91:136|101:199,2,125.999996154785,0|0|0,0:0|0:0|0:0,0:0:0:0:
202,241,185670,2,0,P|199:312|166:360,1,125.999996154785,0|0,0:0|0:0,0:0:0:0:
207,94,185967,5,0,0:0:0:0:
297,257,186116,1,0,0:0:0:0:
232,51,186264,1,0,0:0:0:0:
120,202,186413,5,0,0:0:0:0:
356,195,186561,1,0,0:0:0:0:
81,230,186710,1,0,0:0:0:0:
377,165,186858,2,0,P|441:180|465:253,1,125.999996154785,0|0,0:0|0:0,0:0:0:0:
403,349,187155,5,0,0:0:0:0:
468,75,187304,1,0,0:0:0:0:
257,343,187452,5,0,0:0:0:0:
482,173,187601,1,0,0:0:0:0:
155,240,187749,5,0,0:0:0:0:
436,256,187898,1,0,0:0:0:0:
135,95,188046,5,0,0:0:0:0:
342,287,188195,1,0,0:0:0:0:
235,25,188343,6,0,P|245:108|82:195,1,251.999992309571,0|0,0:0|0:0,0:0:0:0:
297,205,188789,2,0,B|397:194|431:272|431:272|517:319,1,251.999992309571,0|0,0:0|0:0,0:0:0:0:
341,100,189234,2,0,P|264:108|197:141,2,125.999996154785,0|0|0,0:0|0:0|0:0,0:0:0:0:
460,173,189680,5,0,0:0:0:0:
413,43,189828,1,0,0:0:0:0:
365,251,189977,1,0,0:0:0:0:
483,91,190125,1,0,0:0:0:0:
510,310,190274,1,0,0:0:0:0:
373,166,190422,1,0,0:0:0:0:
359,343,190571,1,0,0:0:0:0:
460,173,190720,6,0,P|443:88|291:141,1,251.999992309571,0|0,0:0|0:0,0:0:0:0:
196,249,191165,2,0,B|307:207|310:310|448:259,1,251.999992309571,0|0,0:0|0:0,0:0:0:0:
96,264,191611,2,0,P|149:326|233:333,1,125.999996154785,0|0,0:0|0:0,0:0:0:0:
109,35,191908,5,0,0:0:0:0:
44,309,192057,1,0,0:0:0:0:
255,41,192205,5,0,0:0:0:0:
30,211,192354,1,0,0:0:0:0:
357,144,192502,5,0,0:0:0:0:
76,128,192651,1,0,0:0:0:0:
377,289,192799,5,0,0:0:0:0:
170,97,192948,1,0,0:0:0:0:
131,327,193096,6,0,B|210:307|210:307|253:316|253:316|385:287,1,251.999992309571,0|0,0:0|0:0,0:0:0:0:
336,154,193541,2,0,P|272:219|384:284,1,251.999992309571,0|0,0:0|0:0,0:0:0:0:
334,65,193987,2,0,P|263:79|203:130,2,125.999996154785,0|0|0,0:0|0:0|0:0,0:0:0:0:
475,223,194432,6,0,P|468:138|313:69,1,251.999992309571,0|0,0:0|0:0,0:0:0:0:
184,274,194878,1,0,0:0:0:0:
217,113,195026,1,0,0:0:0:0:
255,343,195175,1,0,0:0:0:0:
136,157,195323,1,0,0:0:0:0:
35,324,195472,6,0,L|171:301,1,125.999996154785,0|0,0:0|0:0,0:0:0:0:
255,343,195769,1,0,0:0:0:0:
78,228,195918,2,0,L|214:205,1,125.999996154785,0|0,0:0|0:0,0:0:0:0:
298,247,196215,1,0,0:0:0:0:
241,93,196363,2,0,P|203:152|210:231,1,125.999996154785,0|0,0:0|0:0,0:0:0:0:
386,336,196660,5,0,0:0:0:0:
150,277,196809,1,0,0:0:0:0:
445,221,196957,5,0,0:0:0:0:
214,342,197106,1,0,0:0:0:0:
489,323,197254,5,0,0:0:0:0:
264,217,197403,1,0,0:0:0:0:
393,345,197551,5,0,0:0:0:0:
445,221,197700,1,0,0:0:0:0:
483,376,197848,2,0,L|289:387,2,144,0|0|0,0:0|0:0|0:0,0:0:0:0:
213,303,198294,2,0,L|376:309,2,144,0|0|0,0:0|0:0|0:0,0:0:0:0:
159,192,198739,2,0,P|99:248|111:352,1,144,0|0,0:0|0:0,0:0:0:0:
271,213,199036,6,0,L|278:64,2,144,0|0|0,0:0|0:0|0:0,0:0:0:0:
372,216,199482,2,0,L|378:361,2,144,0|0|0,0:0|0:0|0:0,0:0:0:0:
458,117,199927,2,0,P|419:197|356:216,1,144,0|0,0:0|0:0,0:0:0:0:
146,163,200224,5,0,0:0:0:0:
315,292,200373,1,0,0:0:0:0:
146,110,200521,1,0,0:0:0:0:
171,336,200670,5,0,0:0:0:0:
264,122,200819,1,0,0:0:0:0:
211,372,200967,1,0,0:0:0:0:
35,166,201116,1,0,0:0:0:0:
261,207,201264,1,0,0:0:0:0:
36,278,201413,5,0,0:0:0:0:
345,148,201561,1,0,0:0:0:0:
181,358,201710,5,0,0:0:0:0:
102,73,201858,1,0,0:0:0:0:
349,268,202007,5,0,0:0:0:0:
36,278,202155,1,0,0:0:0:0:
247,76,202304,5,0,0:0:0:0:
181,358,202452,1,0,0:0:0:0:
102,73,202601,5,0,0:0:0:0:
45,198,202749,1,0,0:0:0:0:
45,198,202823,1,0,0:0:0:0:
45,198,202898,1,0,0:0:0:0:
199,152,203046,2,0,L|353:153,1,144,0|0,0:0|0:0,0:0:0:0:
462,236,203343,2,0,L|309:238,1,144,0|0,0:0|0:0,0:0:0:0:
130,316,203640,6,0,L|287:312,1,144,0|0,0:0|0:0,0:0:0:0:
97,111,203937,1,0,0:0:0:0:
97,111,204011,1,0,0:0:0:0:
97,111,204085,1,0,0:0:0:0:
289,227,204234,2,0,L|176:220,1,90,0|0,0:0|0:0,0:0:0:0:
62,301,204531,2,0,L|190:285,2,90,0|0|0,0:0|0:0|0:0,0:0:0:0:
224,153,204977,5,0,0:0:0:0:
187,327,205125,1,0,0:0:0:0:
136,107,205274,1,0,0:0:0:0:
321,197,205422,5,0,0:0:0:0:
187,327,205571,1,0,0:0:0:0:
224,153,205720,1,0,0:0:0:0:
279,373,205868,1,0,0:0:0:0:
149,217,206017,1,0,0:0:0:0:
337,297,206165,6,0,L|452:288,2,90,0|0|0,0:0|0:0|0:0,0:0:0:0:
149,217,206611,2,0,L|45:232,2,90,0|0|0,0:0|0:0|0:0,0:0:0:0:
220,126,207056,2,0,P|249:190|250:231,1,90,0|0,0:0|0:0,0:0:0:0:
233,318,207353,5,0,0:0:0:0:
333,129,207502,1,0,0:0:0:0:
350,356,207650,1,0,0:0:0:0:
187,183,207799,5,0,0:0:0:0:
412,260,207947,1,0,0:0:0:0:
233,318,208096,5,0,0:0:0:0:
450,278,208244,1,0,0:0:0:0:
173,257,208393,1,0,0:0:0:0:
448,114,208541,5,0,0:0:0:0:
407,328,208690,1,0,0:0:0:0:
361,52,208838,5,0,0:0:0:0:
453,237,208987,1,0,0:0:0:0:
232,187,209135,5,0,0:0:0:0:
448,114,209284,1,0,0:0:0:0:
199,64,209432,5,0,0:0:0:0:
361,218,209581,1,0,0:0:0:0:
126,141,209729,6,0,L|24:153,2,90,0|0|0,0:0|0:0|0:0,0:0:0:0:
271,59,210175,2,0,L|377:50,2,90,0|0|0,0:0|0:0|0:0,0:0:0:0:
145,165,210621,2,0,P|136:220|143:272,1,90,0|0,0:0|0:0,0:0:0:0:
214,347,210918,1,0,0:0:0:0:
37,291,211066,5,0,0:0:0:0:
37,291,211140,1,0,0:0:0:0:
37,291,211215,1,0,0:0:0:0:
111,366,211363,1,0,0:0:0:0:
71,197,211512,2,0,P|70:117|78:68,1,90,0|0,0:0|0:0,0:0:0:0:
192,224,211809,1,0,0:0:0:0:
113,282,211957,1,0,0:0:0:0:
206,310,212106,6,0,L|446:286,1,233.999989288331,0|0,0:0|0:0,0:0:0:0:
241,192,212551,1,0,0:0:0:0:
438,302,212700,1,0,0:0:0:0:
206,169,212848,1,0,0:0:0:0:
480,335,212997,2,0,L|349:336,1,116.999994644165,0|0,0:0|0:0,0:0:0:0:
87,137,213294,6,0,B|189:97|197:196|347:155,1,233.999989288331,0|0,0:0|0:0,0:0:0:0:
407,74,213739,1,0,0:0:0:0:
283,249,213888,1,0,0:0:0:0:
422,47,214036,1,0,0:0:0:0:
257,283,214185,2,0,L|426:273,1,116.999994644165,0|0,0:0|0:0,0:0:0:0:
149,216,214482,5,0,0:0:0:0:
374,176,214630,2,0,B|271:150|255:241|127:211,1,233.999989288331,0|0,0:0|0:0,0:0:0:0:
149,216,215076,1,0,0:0:0:0:
104,90,215224,2,0,P|50:144|46:206,1,116.999994644165,0|0,0:0|0:0,0:0:0:0:
201,299,215521,6,0,P|240:240|101:278,1,350.999983932496,0|0,0:0|0:0,0:0:0:0:
201,299,216116,1,0,0:0:0:0:
201,299,216190,1,0,0:0:0:0:
201,299,216264,1,0,0:0:0:0:
