osu file format v14

[General]
AudioFilename: audio.mp3
AudioLeadIn: 0
PreviewTime: 46529
Countdown: 1
SampleSet: Normal
StackLeniency: 0.7
Mode: 1
LetterboxInBreaks: 0
WidescreenStoryboard: 1

[Editor]
Bookmarks: 46900
DistanceSpacing: 0.9
BeatDivisor: 4
GridSize: 8
TimelineZoom: 2.5

[Metadata]
Title:Responsibility Response
TitleUnicode:Responsibility Response
Artist:Izumi Akazawa (CV: Madoka Yonezawa)
ArtistUnicode:赤沢泉美(CV: 米澤 円)
Creator:FailureAtOsu
Version:Oni
Source:Another
Tags:
BeatmapID:1925371
BeatmapSetID:921983

[Difficulty]
HPDrainRate:5
CircleSize:5
OverallDifficulty:5
ApproachRate:5
SliderMultiplier:1.4
SliderTickRate:1

[Events]
//Background and Video events
0,0,"background.jpg",0,0
//Break Periods
//Storyboard Layer 0 (Background)
//Storyboard Layer 1 (Fail)
//Storyboard Layer 2 (Pass)
//Storyboard Layer 3 (Foreground)
//Storyboard Sound Samples

[TimingPoints]
193,297.029702970297,4,1,0,60,1,0
47717,-100,4,1,0,60,0,1
69103,-100,4,1,0,60,0,0

[HitObjects]
232,179,193,5,0,0:0:0:0:
232,179,341,1,0,0:0:0:0:
232,179,490,1,8,0:0:0:0:
232,179,638,1,0,0:0:0:0:
232,179,935,1,8,0:0:0:0:
232,179,1232,1,0,0:0:0:0:
232,179,1529,1,8,0:0:0:0:
232,179,1826,1,0,0:0:0:0:
232,179,1975,1,0,0:0:0:0:
232,179,2272,1,8,0:0:0:0:
232,179,2420,1,8,0:0:0:0:
232,179,2569,1,0,0:0:0:0:
232,179,2717,1,0,0:0:0:0:
232,179,2866,1,8,0:0:0:0:
232,179,3014,1,0,0:0:0:0:
232,179,3311,1,8,0:0:0:0:
232,179,3608,1,0,0:0:0:0:
232,179,3905,1,8,0:0:0:0:
232,179,4054,1,8,0:0:0:0:
232,179,4202,1,8,0:0:0:0:
232,179,4351,1,8,0:0:0:0:
230,173,4499,1,0,0:0:0:0:
232,179,4648,1,0,0:0:0:0:
232,179,4796,1,0,0:0:0:0:
232,179,4871,1,0,0:0:0:0:
232,179,4945,1,8,0:0:0:0:
225,183,5242,1,0,0:0:0:0:
224,183,5316,1,0,0:0:0:0:
222,183,5391,1,8,0:0:0:0:
224,183,5688,1,0,0:0:0:0:
224,183,5762,1,0,0:0:0:0:
224,183,5836,1,8,0:0:0:0:
217,176,6133,1,8,0:0:0:0:
217,176,6430,1,0,0:0:0:0:
217,176,6504,1,0,0:0:0:0:
217,176,6579,1,8,0:0:0:0:
202,165,6876,1,0,0:0:0:0:
201,165,6950,1,0,0:0:0:0:
200,165,7024,1,0,0:0:0:0:
207,162,7173,1,0,0:0:0:0:
207,162,7321,1,8,0:0:0:0:
207,162,7618,1,8,0:0:0:0:
207,162,7693,1,8,0:0:0:0:
207,162,7767,1,8,0:0:0:0:
200,165,8064,1,8,0:0:0:0:
201,167,8138,1,8,0:0:0:0:
201,167,8212,1,8,0:0:0:0:
193,182,8509,1,8,0:0:0:0:
203,177,8658,1,8,0:0:0:0:
203,177,8732,1,8,0:0:0:0:
203,177,8806,1,8,0:0:0:0:
167,128,8955,1,8,0:0:0:0:
162,129,9103,1,8,0:0:0:0:
160,129,9178,1,8,0:0:0:0:
157,130,9252,1,0,0:0:0:0:
159,130,9400,1,8,0:0:0:0:
159,130,9475,1,0,0:0:0:0:
159,130,9549,1,0,0:0:0:0:
150,132,9697,1,8,0:0:0:0:
145,132,9994,1,0,0:0:0:0:
145,132,10069,1,0,0:0:0:0:
145,132,10143,1,8,0:0:0:0:
146,139,10440,1,0,0:0:0:0:
146,139,10514,1,0,0:0:0:0:
146,139,10589,1,8,0:0:0:0:
146,138,10737,1,0,0:0:0:0:
146,138,10886,1,8,0:0:0:0:
146,138,11183,1,8,0:0:0:0:
146,139,11331,1,8,0:0:0:0:
146,139,11480,1,0,0:0:0:0:
146,139,11628,1,0,0:0:0:0:
147,143,11702,1,0,0:0:0:0:
147,143,11777,1,8,0:0:0:0:
140,149,11925,1,8,0:0:0:0:
141,149,12074,1,8,0:0:0:0:
141,152,12222,1,8,0:0:0:0:
141,152,12371,1,0,0:0:0:0:
142,152,12519,1,8,0:0:0:0:
142,152,12668,1,8,0:0:0:0:
142,152,12816,1,0,0:0:0:0:
140,149,12965,1,8,0:0:0:0:
141,149,13039,1,8,0:0:0:0:
141,149,13113,1,8,0:0:0:0:
129,169,14450,1,8,0:0:0:0:
129,169,14747,1,0,0:0:0:0:
129,169,14895,1,8,0:0:0:0:
107,151,15044,1,0,0:0:0:0:
107,151,15192,1,0,0:0:0:0:
112,163,15490,1,0,0:0:0:0:
113,162,15638,1,8,0:0:0:0:
135,166,15787,1,0,0:0:0:0:
135,166,15935,1,0,0:0:0:0:
135,166,16084,1,8,0:0:0:0:
135,167,16232,1,8,0:0:0:0:
86,145,16381,1,0,0:0:0:0:
86,145,16529,1,8,0:0:0:0:
86,145,16678,1,0,0:0:0:0:
86,145,16826,1,8,0:0:0:0:
81,233,17123,1,0,0:0:0:0:
81,233,17272,1,8,0:0:0:0:
86,232,17420,1,0,0:0:0:0:
86,232,17569,1,8,0:0:0:0:
120,194,17717,1,8,0:0:0:0:
135,272,17866,1,0,0:0:0:0:
136,265,18014,1,8,0:0:0:0:
129,271,18163,1,0,0:0:0:0:
121,267,18311,1,8,0:0:0:0:
122,266,18386,1,0,0:0:0:0:
123,274,18460,1,0,0:0:0:0:
121,279,18608,1,0,0:0:0:0:
122,279,18757,1,8,0:0:0:0:
121,279,18905,1,0,0:0:0:0:
172,163,18980,1,0,0:0:0:0:
172,163,19054,1,8,0:0:0:0:
126,153,19202,1,8,0:0:0:0:
60,239,19499,1,0,0:0:0:0:
74,229,19648,1,8,0:0:0:0:
82,233,19796,1,8,0:0:0:0:
76,230,19945,1,8,0:0:0:0:
79,230,20093,1,0,0:0:0:0:
79,230,20242,1,0,0:0:0:0:
81,230,20391,1,8,0:0:0:0:
166,197,20539,1,0,0:0:0:0:
166,197,20688,1,8,0:0:0:0:
152,195,20836,1,8,0:0:0:0:
139,184,20985,1,8,0:0:0:0:
139,184,21059,1,8,0:0:0:0:
139,184,21133,1,8,0:0:0:0:
137,177,21282,1,0,0:0:0:0:
135,172,21356,1,0,0:0:0:0:
132,173,21430,1,0,0:0:0:0:
138,172,21579,1,8,0:0:0:0:
138,172,21876,1,0,0:0:0:0:
122,160,21950,1,0,0:0:0:0:
125,159,22024,1,8,0:0:0:0:
122,160,22173,1,8,0:0:0:0:
123,160,22321,1,0,0:0:0:0:
119,161,22470,1,0,0:0:0:0:
118,160,22618,1,0,0:0:0:0:
118,160,22693,1,0,0:0:0:0:
117,160,22767,1,8,0:0:0:0:
117,160,22915,1,0,0:0:0:0:
116,163,23064,1,8,0:0:0:0:
116,163,23212,1,0,0:0:0:0:
116,163,23361,1,8,0:0:0:0:
119,161,23435,1,8,0:0:0:0:
110,159,23509,1,8,0:0:0:0:
109,159,23658,1,0,0:0:0:0:
109,159,23732,1,0,0:0:0:0:
109,159,23806,1,0,0:0:0:0:
108,159,23955,1,8,0:0:0:0:
89,168,24252,1,0,0:0:0:0:
89,168,24400,1,8,0:0:0:0:
145,96,24549,1,0,0:0:0:0:
145,96,24697,1,0,0:0:0:0:
159,83,24846,1,8,0:0:0:0:
161,82,24994,1,0,0:0:0:0:
161,85,25143,1,8,0:0:0:0:
161,85,25292,1,0,0:0:0:0:
157,85,25440,1,0,0:0:0:0:
157,85,25589,1,8,0:0:0:0:
159,85,25737,1,8,0:0:0:0:
159,85,25811,1,8,0:0:0:0:
159,83,25886,1,8,0:0:0:0:
161,82,26034,1,0,0:0:0:0:
161,85,26108,1,0,0:0:0:0:
161,85,26183,1,0,0:0:0:0:
161,85,26331,1,8,0:0:0:0:
156,90,26628,1,0,0:0:0:0:
156,90,26777,1,8,0:0:0:0:
151,102,26925,1,0,0:0:0:0:
151,102,26999,1,0,0:0:0:0:
150,102,27074,1,0,0:0:0:0:
150,101,27222,1,8,0:0:0:0:
146,104,27371,1,0,0:0:0:0:
141,103,27519,1,8,0:0:0:0:
139,102,27668,1,0,0:0:0:0:
134,101,27816,1,8,0:0:0:0:
134,101,27965,1,0,0:0:0:0:
154,135,28113,1,0,0:0:0:0:
154,135,28262,1,0,0:0:0:0:
150,140,28410,1,8,0:0:0:0:
145,141,28485,1,8,0:0:0:0:
143,141,28559,1,8,0:0:0:0:
140,137,28707,1,8,0:0:0:0:
143,136,29004,1,0,0:0:0:0:
139,135,29153,1,8,0:0:0:0:
140,137,29301,1,0,0:0:0:0:
139,137,29450,1,8,0:0:0:0:
139,137,29598,1,8,0:0:0:0:
168,77,29673,1,8,0:0:0:0:
140,137,29747,1,8,0:0:0:0:
125,152,29895,1,8,0:0:0:0:
125,152,30044,1,0,0:0:0:0:
125,152,30193,1,0,0:0:0:0:
125,152,30267,1,0,0:0:0:0:
126,156,30341,1,8,0:0:0:0:
139,191,30490,1,0,0:0:0:0:
162,192,30638,1,8,0:0:0:0:
169,188,30787,1,8,0:0:0:0:
168,187,30935,1,0,0:0:0:0:
152,187,31084,1,8,0:0:0:0:
130,199,31381,1,0,0:0:0:0:
132,199,31529,1,8,0:0:0:0:
201,176,31678,1,0,0:0:0:0:
201,176,31826,1,8,0:0:0:0:
201,176,31900,1,8,0:0:0:0:
201,176,31975,1,8,0:0:0:0:
202,129,32123,1,0,0:0:0:0:
206,163,32272,1,8,0:0:0:0:
205,163,32420,1,0,0:0:0:0:
205,162,32569,1,8,0:0:0:0:
205,162,32643,1,0,0:0:0:0:
205,163,32717,1,0,0:0:0:0:
205,163,32866,1,0,0:0:0:0:
205,163,32940,1,0,0:0:0:0:
205,163,33014,1,8,0:0:0:0:
206,163,33089,1,8,0:0:0:0:
206,163,33163,1,8,0:0:0:0:
206,163,33311,1,8,0:0:0:0:
205,163,33460,1,4,0:0:0:0:
184,170,33905,1,0,0:0:0:0:
183,171,34054,1,8,0:0:0:0:
184,171,34351,1,0,0:0:0:0:
171,183,34648,1,8,0:0:0:0:
188,142,35093,1,0,0:0:0:0:
208,48,35242,1,8,0:0:0:0:
171,183,35539,1,0,0:0:0:0:
176,183,35688,1,0,0:0:0:0:
222,115,35836,1,8,0:0:0:0:
144,118,36133,1,0,0:0:0:0:
157,96,36282,1,8,0:0:0:0:
151,50,36579,1,8,0:0:0:0:
151,50,36727,1,0,0:0:0:0:
167,233,37024,1,8,0:0:0:0:
162,237,37321,1,0,0:0:0:0:
162,237,37618,1,0,0:0:0:0:
181,248,37915,1,0,0:0:0:0:
199,235,38064,1,0,0:0:0:0:
185,239,38212,1,8,0:0:0:0:
143,213,38361,1,0,0:0:0:0:
161,143,38509,1,0,0:0:0:0:
161,143,38658,1,8,0:0:0:0:
163,149,38806,1,0,0:0:0:0:
163,150,38955,1,0,0:0:0:0:
163,150,39103,1,8,0:0:0:0:
163,150,39178,1,8,0:0:0:0:
165,150,39252,1,0,0:0:0:0:
165,150,39400,1,8,0:0:0:0:
166,160,39549,1,0,0:0:0:0:
166,160,39697,1,0,0:0:0:0:
166,160,39846,1,8,0:0:0:0:
167,160,39994,1,0,0:0:0:0:
167,160,40143,1,0,0:0:0:0:
159,176,40292,1,0,0:0:0:0:
157,177,40366,1,0,0:0:0:0:
157,177,40440,1,0,0:0:0:0:
157,177,40514,1,0,0:0:0:0:
157,176,40589,1,8,0:0:0:0:
157,176,40737,1,0,0:0:0:0:
159,176,40886,1,0,0:0:0:0:
159,176,40960,1,0,0:0:0:0:
159,176,41034,1,8,0:0:0:0:
157,176,41183,1,0,0:0:0:0:
159,176,41331,1,0,0:0:0:0:
157,177,41405,1,0,0:0:0:0:
157,177,41480,1,8,0:0:0:0:
170,178,41628,1,8,0:0:0:0:
172,176,41777,1,8,0:0:0:0:
172,176,41925,1,0,0:0:0:0:
169,176,42074,1,8,0:0:0:0:
169,176,42222,1,8,0:0:0:0:
169,176,42371,1,0,0:0:0:0:
171,178,42519,1,0,0:0:0:0:
170,178,42668,1,8,0:0:0:0:
172,176,42816,1,0,0:0:0:0:
172,176,42965,1,0,0:0:0:0:
176,182,43113,1,0,0:0:0:0:
180,176,43262,1,8,0:0:0:0:
176,177,43410,1,8,0:0:0:0:
172,176,43559,1,0,0:0:0:0:
176,182,43707,1,8,0:0:0:0:
180,176,43856,1,8,0:0:0:0:
176,177,44004,1,0,0:0:0:0:
172,176,44153,1,0,0:0:0:0:
176,182,44301,1,8,0:0:0:0:
180,176,44450,1,8,0:0:0:0:
176,177,44598,1,0,0:0:0:0:
172,176,44747,1,8,0:0:0:0:
176,182,44895,1,8,0:0:0:0:
180,176,45044,1,0,0:0:0:0:
176,177,45192,1,0,0:0:0:0:
176,123,45341,1,8,0:0:0:0:
176,123,45490,1,8,0:0:0:0:
176,123,45638,1,0,0:0:0:0:
176,123,45787,1,0,0:0:0:0:
176,123,45935,1,8,0:0:0:0:
176,123,46009,1,8,0:0:0:0:
176,123,46084,1,8,0:0:0:0:
176,123,46158,1,8,0:0:0:0:
181,129,46232,1,0,0:0:0:0:
181,129,46306,1,0,0:0:0:0:
181,129,46381,1,0,0:0:0:0:
181,129,46455,1,0,0:0:0:0:
181,129,46529,1,8,0:0:0:0:
173,136,46678,1,0,0:0:0:0:
221,63,46826,1,0,0:0:0:0:
178,96,46975,1,0,0:0:0:0:
178,96,47123,1,8,0:0:0:0:
220,128,47717,1,8,0:0:0:0:
242,239,48014,1,0,0:0:0:0:
235,271,48163,1,8,0:0:0:0:
229,199,48311,1,0,0:0:0:0:
229,199,48459,1,0,0:0:0:0:
229,199,48608,1,8,0:0:0:0:
134,68,48905,1,0,0:0:0:0:
134,68,49054,1,8,0:0:0:0:
134,68,49202,1,0,0:0:0:0:
134,68,49351,1,8,0:0:0:0:
268,142,49425,1,8,0:0:0:0:
134,68,49499,1,8,0:0:0:0:
134,68,49648,1,8,0:0:0:0:
134,68,49796,1,0,0:0:0:0:
134,68,49945,1,0,0:0:0:0:
134,68,50094,1,8,0:0:0:0:
352,114,50242,1,8,0:0:0:0:
352,114,50391,1,0,0:0:0:0:
352,114,50539,1,8,0:0:0:0:
352,114,50836,1,0,0:0:0:0:
352,114,50985,1,8,0:0:0:0:
352,114,51133,1,8,0:0:0:0:
352,114,51282,1,8,0:0:0:0:
355,124,51430,1,0,0:0:0:0:
352,120,51579,1,8,0:0:0:0:
352,120,51727,1,0,0:0:0:0:
353,120,51876,1,8,0:0:0:0:
353,120,52024,1,0,0:0:0:0:
353,120,52173,1,8,0:0:0:0:
226,66,52247,1,8,0:0:0:0:
253,135,52321,1,0,0:0:0:0:
219,83,52395,1,0,0:0:0:0:
366,131,52470,1,8,0:0:0:0:
300,194,52767,1,0,0:0:0:0:
300,194,52915,1,8,0:0:0:0:
300,194,53064,1,0,0:0:0:0:
300,194,53212,1,0,0:0:0:0:
280,158,53361,1,8,0:0:0:0:
280,158,53509,1,0,0:0:0:0:
280,158,53658,1,8,0:0:0:0:
280,158,53806,1,8,0:0:0:0:
275,155,53955,1,0,0:0:0:0:
252,102,54103,1,0,0:0:0:0:
252,102,54252,1,8,0:0:0:0:
252,102,54400,1,8,0:0:0:0:
252,102,54549,1,0,0:0:0:0:
252,102,54697,1,0,0:0:0:0:
256,104,54846,1,8,0:0:0:0:
256,104,55143,1,0,0:0:0:0:
272,126,55217,1,0,0:0:0:0:
375,242,55292,1,8,0:0:0:0:
254,80,55440,1,8,0:0:0:0:
254,80,55589,1,8,0:0:0:0:
258,84,55737,1,0,0:0:0:0:
258,84,55811,1,0,0:0:0:0:
257,84,55886,1,8,0:0:0:0:
238,112,56034,1,8,0:0:0:0:
239,112,56183,1,8,0:0:0:0:
238,112,56331,1,0,0:0:0:0:
238,112,56480,1,0,0:0:0:0:
235,116,56628,1,8,0:0:0:0:
235,116,56702,1,0,0:0:0:0:
235,116,56777,1,8,0:0:0:0:
235,116,56851,1,0,0:0:0:0:
235,116,56925,1,8,0:0:0:0:
300,161,57222,1,8,0:0:0:0:
206,201,57519,1,0,0:0:0:0:
206,201,57668,1,8,0:0:0:0:
206,201,57816,1,0,0:0:0:0:
206,201,57965,1,0,0:0:0:0:
210,107,58113,1,8,0:0:0:0:
212,148,58262,1,0,0:0:0:0:
214,155,58410,1,8,0:0:0:0:
216,74,58485,1,8,0:0:0:0:
216,74,58559,1,8,0:0:0:0:
221,98,58707,1,0,0:0:0:0:
223,98,58856,1,8,0:0:0:0:
224,104,59004,1,8,0:0:0:0:
224,104,59079,1,8,0:0:0:0:
224,104,59153,1,0,0:0:0:0:
224,105,59301,1,8,0:0:0:0:
231,106,59450,1,0,0:0:0:0:
231,106,59598,1,8,0:0:0:0:
234,106,59895,1,0,0:0:0:0:
235,109,60044,1,8,0:0:0:0:
244,107,60192,1,0,0:0:0:0:
244,107,60267,1,0,0:0:0:0:
245,108,60341,1,0,0:0:0:0:
254,106,60490,1,8,0:0:0:0:
254,106,60638,1,8,0:0:0:0:
260,115,60787,1,8,0:0:0:0:
260,119,60935,1,0,0:0:0:0:
259,119,61084,1,8,0:0:0:0:
263,121,61232,1,0,0:0:0:0:
266,126,61381,1,0,0:0:0:0:
266,126,61455,1,0,0:0:0:0:
266,126,61529,1,8,0:0:0:0:
266,126,61603,1,8,0:0:0:0:
266,126,61678,1,0,0:0:0:0:
266,126,61826,1,0,0:0:0:0:
269,125,61975,1,8,0:0:0:0:
266,126,62049,1,0,0:0:0:0:
266,126,62123,1,0,0:0:0:0:
279,109,62272,1,0,0:0:0:0:
280,115,62420,1,8,0:0:0:0:
280,115,62569,1,0,0:0:0:0:
289,113,62717,1,8,0:0:0:0:
271,104,62866,1,0,0:0:0:0:
282,85,63014,1,8,0:0:0:0:
282,85,63089,1,8,0:0:0:0:
281,86,63163,1,0,0:0:0:0:
242,78,63311,1,8,0:0:0:0:
244,84,63460,1,0,0:0:0:0:
242,78,63608,1,8,0:0:0:0:
242,78,63757,1,0,0:0:0:0:
246,84,63905,1,8,0:0:0:0:
246,84,64054,1,0,0:0:0:0:
195,97,64202,1,0,0:0:0:0:
239,149,64351,1,8,0:0:0:0:
239,149,64425,1,0,0:0:0:0:
239,149,64499,1,0,0:0:0:0:
239,149,64648,1,0,0:0:0:0:
226,148,64796,1,8,0:0:0:0:
224,148,64871,1,0,0:0:0:0:
225,151,64945,1,0,0:0:0:0:
239,149,65093,1,0,0:0:0:0:
244,148,65242,1,8,0:0:0:0:
243,148,65316,1,0,0:0:0:0:
243,151,65391,1,0,0:0:0:0:
220,117,65539,1,8,0:0:0:0:
217,124,65688,1,0,0:0:0:0:
217,126,65836,1,8,0:0:0:0:
218,129,65985,1,0,0:0:0:0:
207,140,66133,1,8,0:0:0:0:
206,143,66282,1,0,0:0:0:0:
211,149,66430,1,8,0:0:0:0:
211,149,66579,1,0,0:0:0:0:
213,147,66727,1,8,0:0:0:0:
308,38,66876,1,0,0:0:0:0:
308,38,66950,1,0,0:0:0:0:
197,107,67024,1,8,0:0:0:0:
205,107,67173,1,8,0:0:0:0:
203,110,67470,1,0,0:0:0:0:
203,110,67767,1,8,0:0:0:0:
208,157,68361,1,0,0:0:0:0:
389,131,68410,1,0,0:0:0:0:
389,131,68460,1,0,0:0:0:0:
389,131,68509,1,8,0:0:0:0:
386,143,68707,1,0,0:0:0:0:
201,73,68905,1,0,0:0:0:0:
236,125,69103,1,8,0:0:0:0:
226,165,69252,1,0,0:0:0:0:
226,165,69400,1,8,0:0:0:0:
234,166,69549,1,0,0:0:0:0:
231,165,69697,1,8,0:0:0:0:
235,165,69846,1,8,0:0:0:0:
249,162,69994,1,0,0:0:0:0:
248,164,70143,1,8,0:0:0:0:
216,198,70292,1,8,0:0:0:0:
216,198,70440,1,0,0:0:0:0:
216,198,70589,1,0,0:0:0:0:
214,184,70737,1,8,0:0:0:0:
214,184,70886,1,0,0:0:0:0:
214,184,71034,1,0,0:0:0:0:
205,143,71183,1,8,0:0:0:0:
205,143,71480,1,8,0:0:0:0:
205,143,71628,1,0,0:0:0:0:
205,143,71777,1,0,0:0:0:0:
205,143,71925,1,8,0:0:0:0:
205,143,72074,1,0,0:0:0:0:
200,141,72222,1,0,0:0:0:0:
205,143,72371,1,8,0:0:0:0:
205,143,72519,1,0,0:0:0:0:
206,123,72668,1,8,0:0:0:0:
187,68,72816,1,0,0:0:0:0:
187,68,72965,1,8,0:0:0:0:
187,68,73113,1,0,0:0:0:0:
187,68,73262,1,8,0:0:0:0:
187,68,73410,1,0,0:0:0:0:
187,68,73559,1,8,0:0:0:0:
187,68,73633,1,0,0:0:0:0:
187,68,73707,1,0,0:0:0:0:
187,68,73782,1,0,0:0:0:0:
187,68,73856,1,8,0:0:0:0:
187,68,74004,1,0,0:0:0:0:
187,68,74153,1,0,0:0:0:0:
199,60,74301,1,8,0:0:0:0:
282,103,74450,1,0,0:0:0:0:
282,103,74598,1,0,0:0:0:0:
286,107,74747,1,8,0:0:0:0:
286,107,74895,1,8,0:0:0:0:
287,107,75044,1,8,0:0:0:0:
287,107,75193,1,8,0:0:0:0:
287,107,75267,1,8,0:0:0:0:
287,107,75341,1,8,0:0:0:0:
287,107,75490,1,0,0:0:0:0:
288,107,75638,1,8,0:0:0:0:
286,107,75787,1,0,0:0:0:0:
286,107,75935,1,8,0:0:0:0:
287,107,76084,1,0,0:0:0:0:
287,107,76158,1,0,0:0:0:0:
285,116,76232,1,4,0:0:0:0:
280,116,76381,1,0,0:0:0:0:
280,121,76529,1,0,0:0:0:0:
282,121,76678,1,4,0:0:0:0:
282,121,76975,1,4,0:0:0:0:
282,121,77420,1,12,0:0:0:0:
272,105,77569,1,8,0:0:0:0:
276,109,77717,1,8,0:0:0:0:
285,64,77866,1,12,0:0:0:0:
292,61,78163,1,12,0:0:0:0:
271,117,78608,1,12,0:0:0:0:
224,165,78683,1,8,0:0:0:0:
227,143,78757,1,12,0:0:0:0:
252,144,78905,1,0,0:0:0:0:
151,53,79054,1,12,0:0:0:0:
145,63,79202,1,8,0:0:0:0:
136,75,79351,1,4,0:0:0:0:
137,85,79499,1,0,0:0:0:0:
136,75,79574,1,0,0:0:0:0:
141,84,79648,1,12,0:0:0:0:
