osu file format v14

[General]
AudioFilename: audio.mp3
AudioLeadIn: 0
PreviewTime: 12874
Countdown: 0
SampleSet: None
StackLeniency: 0.7
Mode: 0
LetterboxInBreaks: 0
WidescreenStoryboard: 0

[Editor]
DistanceSpacing: 0.9
BeatDivisor: 16
GridSize: 16
TimelineZoom: 2.899999

[Metadata]
Title:Konpeki no Alfine
TitleUnicode:紺碧のアル・フィーネ
Artist:Izu no Kaze
ArtistUnicode:Izu no Kaze
Creator:kuzu_sama
Version:Oolong Tea Insane
Source:Grand Blue
Tags:Grand Blue Iori Kohei Konpeki Anime
BeatmapID:4537612
BeatmapSetID:2153532

[Difficulty]
HPDrainRate:5.2
CircleSize:5
OverallDifficulty:8
ApproachRate:9.1
SliderMultiplier:1.29999996870756
SliderTickRate:1

[Events]
//Background and Video events
0,0,"138eb528a4bacb04689ef906eddbbed0a24e98b5f63b6c12d46ded25cebe93f3._AC_SX720_FMjpg_.jpg",0,0
//Break Periods
//Storyboard Layer 0 (Background)
//Storyboard Layer 1 (Fail)
//Storyboard Layer 2 (Pass)
//Storyboard Layer 3 (Foreground)
//Storyboard Layer 4 (Overlay)
//Storyboard Sound Samples

[TimingPoints]
12969.4641784888,-100,4,2,0,100,0,0
89234,375,4,1,0,100,1,0

[Colours]
Combo1 : 78,240,60
Combo2 : 90,72,255

[HitObjects]
91,208,12969,5,0,2:0:0:0:
38,292,13156,1,0,2:0:0:0:
38,292,13344,2,0,P|102:324|161:298,1,129.999996870756,2|0,2:2|2:0,2:0:0:0:
221,277,13906,1,0,2:0:0:0:
279,252,14094,2,0,L|250:188,1,64.999998435378,2|0,2:2|2:0,2:0:0:0:
250,172,14469,1,0,2:0:0:0:
279,252,14656,1,0,2:0:0:0:
279,252,14844,2,0,P|280:315|219:349,1,129.999996870756,2|0,2:2|2:0,2:0:0:0:
279,252,15406,1,0,2:0:0:0:
279,252,15594,2,0,P|247:188|273:129,1,129.999996870756,2|0,2:2|2:0,2:0:0:0:
279,252,16344,5,2,2:2:0:0:
347,228,16719,5,0,2:0:0:0:
310,325,16906,1,2,2:2:0:0:
373,328,17094,1,0,2:0:0:0:
296,259,17281,1,0,2:0:0:0:
400,264,17469,1,2,2:2:0:0:
310,325,17656,1,0,2:0:0:0:
344,210,17844,1,0,2:0:0:0:
373,328,18031,1,2,2:2:0:0:
296,259,18219,1,0,2:0:0:0:
296,259,18594,1,0,2:0:0:0:
226,156,18969,5,0,2:0:0:0:
159,195,19156,1,0,2:0:0:0:
159,195,19344,2,0,P|143:259|196:298,1,129.999996870756,0|2,2:0|2:2,2:0:0:0:
276,251,20001,1,0,2:0:0:0:
335,162,20281,1,0,2:0:0:0:
280,82,20656,1,2,2:2:0:0:
179,70,21032,2,0,P|172:100|198:125,1,64.999998435378,0|0,2:0|2:0,2:0:0:0:
255,69,21406,5,0,2:0:0:0:
268,167,21594,1,0,2:0:0:0:
344,116,21781,1,0,2:0:0:0:
347,207,21969,2,0,L|347:230,15,16.2499996088445,0|0|0|0|0|0|0|0|0|0|0|0|0|0|0|0,2:0|2:0|2:0|2:0|2:0|2:0|2:0|2:0|2:0|2:0|2:0|2:0|2:0|2:0|2:0|2:0,2:0:0:0:
287,72,23281,5,2,2:2:0:0:
288,178,23469,1,0,2:0:0:0:
197,53,23719,1,0,2:0:0:0:
204,241,24031,1,0,2:0:0:0:
288,178,24406,1,2,2:2:0:0:
96,119,24969,5,0,2:0:0:0:
93,212,25156,1,0,2:0:0:0:
98,217,25344,2,0,B|149:268|141:140|207:178,1,129.999996870756,2|0,2:2|2:0,2:0:0:0:
191,293,25906,1,0,2:0:0:0:
195,292,26094,2,0,B|262:281|212:213|305:275|310:228,1,129.999996870756,2|2,2:2|2:2,2:0:0:0:
354,147,26656,5,0,2:0:0:0:
294,119,26844,1,0,2:0:0:0:
354,147,27031,1,2,2:2:0:0:
343,72,27219,1,0,2:0:0:0:
354,147,27406,1,0,2:0:0:0:
400,87,27594,1,2,2:2:0:0:
354,147,27781,1,0,2:0:0:0:
354,147,27969,2,0,P|392:195|341:236,1,129.999996870756,0|0,2:0|2:0,2:0:0:0:
341,257,28719,5,0,2:0:0:0:
301,156,28906,1,0,2:0:0:0:
287,289,29094,1,0,2:0:0:0:
286,290,29281,2,0,B|245:315|216:297|221:299,1,64.999998435378,0|2,2:0|2:2,2:0:0:0:
173,181,29656,1,0,2:0:0:0:
187,309,29844,1,0,2:0:0:0:
276,162,30031,1,2,2:2:0:0:
287,289,30219,1,0,2:0:0:0:
235,236,30594,5,0,2:0:0:0:
235,236,30781,1,0,2:0:0:0:
235,236,30969,2,0,P|211:293|267:331,1,129.999996870756,2|0,2:2|2:0,2:0:0:0:
430,322,31531,5,0,2:0:0:0:
430,322,31719,1,0,2:0:0:0:
373,233,31906,1,2,2:2:0:0:
435,238,32094,1,0,2:0:0:0:
369,311,32281,1,0,2:0:0:0:
435,238,32469,1,2,2:2:0:0:
382,152,32656,5,0,2:0:0:0:
446,157,32844,1,0,2:0:0:0:
373,233,33031,1,2,2:2:0:0:
435,238,33219,1,0,2:0:0:0:
382,152,33406,1,2,2:2:0:0:
382,152,33594,2,0,P|371:218|310:245,1,129.999996870756,0|2,2:0|2:2,2:0:0:0:
197,253,34157,1,0,2:0:0:0:
191,237,34227,1,0,2:0:0:0:
191,226,34298,1,0,2:0:0:0:
199,215,34368,1,0,2:0:0:0:
216,200,34439,2,0,L|254:178,8,32.499999217689,0|0|0|0|0|0|0|0|0,1:0|1:0|1:0|1:0|1:0|1:0|2:0|2:0|2:0,2:0:0:0:
354,135,35423,6,0,L|389:136,1,32.499999217689,0|0,2:0|2:0,2:0:0:0:
306,80,35704,6,0,L|304:45,1,32.499999217689,0|0,2:0|2:0,2:0:0:0:
271,142,35985,6,0,L|236:142,1,32.499999217689,0|0,2:0|2:0,2:0:0:0:
197,71,36344,5,0,2:0:0:0:
173,85,36407,1,0,2:0:0:0:
157,101,36469,2,0,P|159:168|220:179,1,129.999996870756,0|2,2:0|2:2,2:0:0:0:
278,212,36969,2,0,L|276:235,4,16.2499996088445,0|0|0|0|0,2:0|2:0|2:0|2:0|2:0,2:0:0:0:
342,193,37344,2,0,B|419:173|398:102|452:126,1,129.999996870756,0|2,2:0|2:2,2:0:0:0:
373,80,38094,5,0,2:0:0:0:
335,191,38281,1,0,2:0:0:0:
152,153,38656,5,0,2:0:0:0:
236,273,38844,1,2,2:2:0:0:
241,155,39031,1,0,2:0:0:0:
149,264,39219,1,2,2:2:0:0:
152,153,39406,1,0,2:0:0:0:
236,273,39594,1,2,2:2:0:0:
241,155,39781,1,0,2:0:0:0:
149,264,39969,1,0,2:0:0:0:
241,155,40344,5,0,2:0:0:0:
224,283,40532,5,0,2:0:0:0:
341,193,40906,1,0,2:0:0:0:
241,155,41094,1,0,2:0:0:0:
341,193,41281,1,0,2:0:0:0:
196,262,41657,2,0,L|235:237,1,32.499999217689,4|0,2:2|2:0,2:0:0:0:
334,297,42031,2,0,L|305:261,1,32.499999217689,4|0,2:2|2:0,2:0:0:0:
292,120,42406,2,0,L|282:165,1,32.499999217689,4|0,2:2|2:0,2:0:0:0:
205,95,42782,2,2,L|170:73,2,32.499999217689,2|2|2,2:2|2:2|2:2,2:2:0:0:
297,173,43156,1,4,2:2:0:0:
297,173,43251,1,0,2:0:0:0:
297,173,43344,1,4,2:2:0:0:
215,284,43532,2,2,L|185:306,2,32.499999217689,2|2|2,2:2|2:2|2:2,2:2:0:0:
297,173,43906,1,4,2:2:0:0:
293,168,44001,1,0,2:0:0:0:
297,173,44094,1,4,2:2:0:0:
384,281,44282,2,2,L|416:298,2,32.499999217689,2|2|2,2:2|2:2|2:2,2:2:0:0:
297,173,44656,1,4,2:2:0:0:
293,168,44751,1,0,2:0:0:0:
297,173,44844,1,4,2:2:0:0:
386,95,45032,2,2,L|412:70,2,32.499999217689,2|2|2,2:2|2:2|2:2,2:2:0:0:
297,173,45406,1,4,2:2:0:0:
297,173,45501,1,0,2:0:0:0:
297,173,45594,1,4,2:2:0:0:
141,134,45781,5,0,2:0:0:0:
145,252,45969,1,2,2:2:0:0:
217,130,46156,1,4,2:2:0:0:
219,252,46344,1,0,2:0:0:0:
286,130,46531,1,2,2:2:0:0:
292,253,46719,5,4,2:2:0:0:
217,130,46906,1,0,2:0:0:0:
219,252,47094,1,2,2:2:0:0:
141,134,47281,1,4,2:2:0:0:
145,252,47469,5,0,2:0:0:0:
256,192,47657,8,0,50188,2:0:0:0:
154,187,50469,5,0,2:0:0:0:
218,239,50657,1,0,2:0:0:0:
279,158,50844,1,2,2:2:0:0:
217,65,51032,2,0,P|186:87|172:115,1,64.999998435378,0|0,1:0|1:0,2:0:0:0:
218,239,51407,1,0,2:0:0:0:
217,65,51594,2,0,P|158:96|153:163,1,129.999996870756,0|0,1:0|1:0,2:0:0:0:
218,239,52157,1,0,2:0:0:0:
279,158,52344,1,2,2:2:0:0:
207,69,52532,2,0,P|175:81|158:111,1,64.999998435378,0|0,1:0|1:0,2:0:0:0:
213,242,52907,5,0,2:0:0:0:
279,158,53094,1,0,2:0:0:0:
227,64,53282,1,0,2:0:0:0:
224,60,53469,2,0,P|192:69|187:101,1,64.999998435378,0|0,1:0|1:0,2:0:0:0:
213,242,53844,1,0,2:0:0:0:
316,242,54032,1,2,2:2:0:0:
217,64,54219,2,0,P|160:99|155:166,1,129.999996870756,0|0,1:0|1:0,2:0:0:0:
257,106,54782,1,0,2:0:0:0:
204,234,54969,1,0,2:0:0:0:
146,100,55157,1,2,2:2:0:0:
344,106,55344,2,0,P|354:141|334:165,1,64.999998435378,0|0,1:0|1:0,2:0:0:0:
265,96,55719,5,0,2:0:0:0:
143,107,55907,1,0,2:0:0:0:
213,268,56094,1,0,2:0:0:0:
219,140,56282,1,2,2:2:0:0:
284,72,56469,2,0,P|317:72|331:102,1,64.999998435378,0|0,1:0|1:0,2:0:0:0:
268,212,56844,1,0,2:0:0:0:
175,101,57032,1,0,2:0:0:0:
77,114,57219,2,0,P|73:183|127:216,1,129.999996870756,0|0,1:0|1:0,2:0:0:0:
257,106,57782,1,0,2:0:0:0:
204,234,57969,1,2,2:2:0:0:
146,100,58157,1,0,2:0:0:0:
321,101,58344,2,0,P|330:164|274:206,1,129.999996870756,0|0,1:0|1:0,2:0:0:0:
273,65,58907,5,0,2:0:0:0:
216,231,59094,1,0,2:0:0:0:
334,129,59282,1,2,2:2:0:0:
212,131,59469,1,0,2:0:0:0:
332,226,59657,1,0,2:0:0:0:
273,65,59844,1,2,2:2:0:0:
216,231,60032,1,0,2:0:0:0:
334,129,60219,1,2,2:2:0:0:
212,131,60407,1,0,2:0:0:0:
332,226,60594,1,2,2:2:0:0:
273,65,60782,5,2,2:2:0:0:
215,233,60969,2,2,L|239:208,1,32.499999217689,0|0,1:0|1:0,2:2:0:0:
332,226,61251,2,0,L|310:199,1,32.499999217689,0|0,1:0|1:0,2:0:0:0:
272,65,61532,2,0,L|273:100,1,32.499999217689,0|0,1:0|1:0,2:0:0:0:
272,321,61813,2,0,L|272:286,1,32.499999217689,0|0,1:0|1:0,2:0:0:0:
389,187,62094,5,0,2:0:0:0:
325,239,62282,1,0,2:0:0:0:
264,158,62469,1,2,2:2:0:0:
325,64,62657,2,0,P|357:85|371:113,1,64.999998435378,0|0,1:0|1:0,2:0:0:0:
325,239,63032,1,0,2:0:0:0:
325,64,63219,2,0,P|385:95|390:162,1,129.999996870756,0|0,1:0|1:0,2:0:0:0:
325,239,63782,1,0,2:0:0:0:
264,158,63969,1,2,2:2:0:0:
335,67,64157,2,0,P|367:80|385:109,1,64.999998435378,0|0,1:0|1:0,2:0:0:0:
330,242,64532,5,0,2:0:0:0:
264,158,64719,1,0,2:0:0:0:
316,64,64907,1,0,2:0:0:0:
318,60,65094,2,0,P|351:67|357:100,1,64.999998435378,0|0,1:0|1:0,2:0:0:0:
330,242,65469,1,0,2:0:0:0:
227,242,65657,1,2,2:2:0:0:
325,62,65844,2,0,P|383:97|389:164,1,129.999996870756,0|0,1:0|1:0,2:0:0:0:
286,106,66407,1,0,2:0:0:0:
340,234,66594,1,0,2:0:0:0:
397,100,66782,1,2,2:2:0:0:
200,105,66969,2,0,P|188:139|208:163,1,64.999998435378,0|0,1:0|1:0,2:0:0:0:
278,96,67344,5,0,2:0:0:0:
400,107,67532,1,0,2:0:0:0:
330,268,67719,1,0,2:0:0:0:
324,140,67907,1,2,2:2:0:0:
259,72,68094,2,0,P|226:71|212:101,1,64.999998435378,0|0,1:0|1:0,2:0:0:0:
276,212,68469,1,0,2:0:0:0:
368,101,68657,1,0,2:0:0:0:
465,112,68844,2,0,P|470:182|415:215,1,129.999996870756,0|0,1:0|1:0,2:0:0:0:
286,106,69407,1,0,2:0:0:0:
340,234,69594,1,2,2:2:0:0:
397,100,69782,1,0,2:0:0:0:
222,100,69969,2,0,P|216:170|268:206,1,129.999996870756,0|0,1:0|1:0,2:0:0:0:
271,65,70532,5,0,2:0:0:0:
327,231,70719,1,0,2:0:0:0:
209,129,70907,1,2,2:2:0:0:
331,131,71094,1,0,2:0:0:0:
211,226,71282,1,0,2:0:0:0:
271,65,71469,5,2,2:2:0:0:
327,231,71657,1,0,2:0:0:0:
209,129,71844,1,2,2:2:0:0:
331,131,72032,1,0,2:0:0:0:
211,226,72219,1,2,2:2:0:0:
271,65,72407,5,2,2:2:0:0:
328,233,72594,2,2,L|304:208,1,32.499999217689,0|0,1:0|1:0,2:2:0:0:
211,226,72876,2,0,L|233:198,1,32.499999217689,0|0,1:0|1:0,2:0:0:0:
272,65,73157,2,0,L|270:100,1,32.499999217689,0|0,1:0|1:0,2:0:0:0:
272,321,73438,6,0,L|271:286,1,32.499999217689,0|0,1:0|1:0,2:0:0:0:
141,118,74469,5,2,2:2:0:0:
188,225,74657,1,0,2:0:0:0:
232,117,74844,1,2,2:2:0:0:
275,222,75032,1,0,2:0:0:0:
336,118,75219,1,2,2:2:0:0:
374,228,75407,1,0,2:0:0:0:
336,118,75594,1,6,2:2:0:0:
277,222,75782,1,0,2:0:0:0:
232,117,75969,1,2,2:2:0:0:
183,218,76157,1,0,2:0:0:0:
142,119,76344,1,2,2:2:0:0:
183,218,76532,1,0,2:0:0:0:
232,117,76719,1,2,2:2:0:0:
277,222,76907,1,0,2:0:0:0:
333,115,77094,1,6,2:2:0:0:
374,228,77282,1,0,2:0:0:0:
336,118,77469,1,2,2:2:0:0:
275,222,77657,1,0,2:0:0:0:
232,117,77844,1,2,2:2:0:0:
188,225,78032,1,0,2:0:0:0:
137,115,78219,1,2,2:2:0:0:
184,222,78407,1,0,2:0:0:0:
232,117,78594,1,6,2:2:0:0:
275,222,78782,1,0,2:0:0:0:
333,115,78969,1,2,2:2:0:0:
374,228,79157,1,0,2:0:0:0:
336,118,79344,1,2,2:2:0:0:
275,222,79532,1,0,2:0:0:0:
242,115,79719,1,2,2:2:0:0:
183,218,79907,1,0,2:0:0:0:
142,119,80094,1,2,2:2:0:0:
183,218,80282,1,0,2:0:0:0:
242,115,80469,5,4,2:2:0:0:
