osu file format v14

[General]
AudioFilename: audio.mp3
AudioLeadIn: 0
PreviewTime: 18568
Countdown: 0
SampleSet: Soft
StackLeniency: 0.7
Mode: 0
LetterboxInBreaks: 0
WidescreenStoryboard: 1

[Editor]
DistanceSpacing: 1.1
BeatDivisor: 4
GridSize: 32
TimelineZoom: 1

[Metadata]
Title:Champagne Gold
TitleUnicode:シャンパンゴールド
Artist:Izanami Hifumi (CV: Ryuichi Kijima)
ArtistUnicode:伊弉冉 一二三 (CV:木島 隆一)
Creator:-S h i k i-
Version:Normal
Source:ヒプノシスマイク -Division Rap Battle-
Tags:Hypnosis Mic Matenrou Japanese
BeatmapID:2114668
BeatmapSetID:894609

[Difficulty]
HPDrainRate:5
CircleSize:3.2
OverallDifficulty:5
ApproachRate:5
SliderMultiplier:1.4
SliderTickRate:1

[Events]
//Background and Video events
0,0,"Matenrou.full.2392954.jpg",0,0
//Break Periods
//Storyboard Layer 0 (Background)
//Storyboard Layer 1 (Fail)
//Storyboard Layer 2 (Pass)
//Storyboard Layer 3 (Foreground)
//Storyboard Layer 4 (Overlay)
//Storyboard Sound Samples

[TimingPoints]
1254,468.75,4,2,1,65,1,0
1254,-100,4,2,1,65,0,0
18129,-100,4,2,1,85,0,1
32660,-100,4,2,1,65,0,0
78129,-100,4,2,1,85,0,1
92660,-100,4,2,1,65,0,0

[Colours]
Combo1 : 243,95,191
Combo2 : 219,199,53
Combo3 : 248,44,33
Combo4 : 119,63,214
Combo5 : 107,241,50
Combo6 : 58,183,231

[HitObjects]
98,293,1254,5,6,0:0:0:0:
61,225,1488,2,0,P|44:169|55:131,1,70,2|2,0:0|0:0,0:0:0:0:
199,162,2191,2,0,L|305:140,2,105,2|2|2,0:0|0:0|0:0,0:0:0:0:
230,315,3363,6,0,P|286:332|324:321,1,70,2|2,0:0|0:0,0:0:0:0:
411,228,4066,2,0,B|431:281|431:281|426:329,2,105,2|2|2,0:0|0:0|0:0,0:0:0:0:
329,97,5238,6,0,P|328:62|314:30,1,70,2|2,0:0|0:0,0:0:0:0:
180,106,5941,2,0,B|100:125|100:125|47:111,2,105,2|2|2,0:0|0:0|0:0,0:0:0:0:
250,138,6879,5,2,0:0:0:0:
293,201,7113,2,0,L|280:298,1,70,2|2,0:0|0:0,0:0:0:0:
147,341,7816,2,0,P|88:342|37:294,2,105,2|2|2,0:0|0:0|0:0,0:0:0:0:
119,268,8754,5,14,0:0:0:0:
100,193,8988,2,0,P|95:131|107:111,1,70,0|10,0:0|0:0,0:0:0:0:
229,43,9691,2,0,L|328:52,1,70,10|0,0:0|0:0,0:0:0:0:
319,123,10160,2,0,L|220:132,1,70,10|0,0:0|0:0,0:0:0:0:
187,176,10629,5,10,0:0:0:0:
128,226,10863,2,0,P|149:274|181:305,1,70,0|10,0:0|0:0,0:0:0:0:
310,254,11566,2,0,L|315:156,1,70,10|0,0:0|0:0,0:0:0:0:
390,181,12035,2,0,L|395:279,1,70,10|0,0:0|0:0,0:0:0:0:
425,321,12504,6,0,L|514:304,2,70,10|10|10,0:0|0:0|0:0,0:0:0:0:
347,324,13207,1,0,0:0:0:0:
270,324,13441,2,0,L|180:308,2,70,10|10|10,0:0|0:0|0:0,0:0:0:0:
306,256,14144,1,0,0:0:0:0:
256,192,14379,12,0,16254,0:0:0:0:
377,302,18129,5,4,0:0:0:0:
461,173,18597,2,0,P|446:101|381:58,1,140,10|0,0:0|0:0,0:0:0:0:
354,127,19300,2,0,L|297:203,1,70,0|10,0:0|0:0,0:0:0:0:
179,260,20004,6,0,L|137:204,1,70
60,200,20472,2,0,L|31:121,1,70,10|0,0:0|0:0,0:0:0:0:
31,57,20941,2,0,B|75:62|75:62|98:48|98:48|181:55,1,140,0|10,0:0|0:0,0:0:0:0:
319,33,21879,5,0,0:0:0:0:
346,104,22113,2,0,L|367:203,1,70,0|10,0:0|0:0,0:0:0:0:
427,211,22582,1,0,0:0:0:0:
376,269,22816,2,0,L|363:368,2,70,0|0|10,0:0|0:0|0:0,0:0:0:0:
302,244,23519,6,0,P|293:181|200:147,1,140
227,220,24222,1,10,0:0:0:0:
157,187,24457,2,0,P|159:254|212:296,1,140
136,285,25160,2,0,L|54:288,1,70,10|0,0:0|0:0,0:0:0:0:
23,223,25629,5,4,0:0:0:0:
141,124,26097,2,0,B|184:82|184:82|278:90,1,140,10|0,0:0|0:0,0:0:0:0:
298,157,26800,2,0,L|382:170,1,70,0|10,0:0|0:0,0:0:0:0:
444,297,27504,6,0,P|409:337|370:357,1,70
357,279,27972,2,0,P|312:286|266:273,1,70,10|0,0:0|0:0,0:0:0:0:
227,329,28441,2,0,P|215:249|265:207,1,140,0|10,0:0|0:0,0:0:0:0:
228,68,29379,5,0,0:0:0:0:
164,112,29613,2,0,L|122:168,1,70,0|10,0:0|0:0,0:0:0:0:
46,167,30082,2,0,L|17:246,1,70
126,346,30785,1,10,0:0:0:0:
199,324,31019,6,0,P|260:306|296:313,2,70
148,266,31722,1,10,0:0:0:0:
109,199,31957,2,0,P|48:181|12:188,2,70
170,151,32660,1,0,0:0:0:0:
292,56,33129,6,0,L|275:135,1,70,4|0,0:0|0:0,0:0:0:0:
344,162,33597,2,0,L|282:227,1,70,2|0,0:0|0:0,0:0:0:0:
339,280,34066,2,0,B|266:310|266:310|185:280,1,140,0|2,0:0|0:0,0:0:0:0:
222,134,35004,6,0,L|143:117,1,70
116,187,35472,2,0,L|51:125,1,70,2|0,0:0|0:0,0:0:0:0:
6,188,35941,2,0,B|18:258|18:258|33:270|33:270|41:335,1,140,0|2,0:0|0:0,0:0:0:0:
192,336,36879,6,0,P|234:343|280:333,1,70
237,266,37347,2,0,P|271:262|305:269,1,70,2|0,0:0|0:0,0:0:0:0:
354,329,37816,1,0,0:0:0:0:
374,176,38285,2,0,B|346:144|346:144|301:154|301:154|262:109|262:109,1,140,2|0,0:0|0:0,0:0:0:0:
116,82,39222,6,0,P|83:120|72:169,1,70,2|0,0:0|0:0,0:0:0:0:
140,180,39691,2,0,P|128:229|141:277,1,70
182,305,40160,1,2,0:0:0:0:
266,176,40629,6,0,L|265:105,2,70,0|0|2,0:0|0:0|0:0,0:0:0:0:
341,191,41332,2,0,P|323:229|273:258,1,70
274,318,41800,2,0,P|237:338|179:332,1,70,0|2,0:0|0:0,0:0:0:0:
105,226,42504,6,0,B|83:267|83:267|80:319,2,70,0|0|2,0:0|0:0|0:0,0:0:0:0:
48,173,43207,2,0,L|57:93,1,70
132,107,43675,2,0,L|175:43,1,70,0|2,0:0|0:0,0:0:0:0:
324,68,44379,6,0,L|410:28,2,70,0|0|2,0:0|0:0|0:0,0:0:0:0:
309,143,45082,2,0,P|300:206|303:232,1,70
377,209,45550,2,0,P|386:272|383:298,1,70,0|2,0:0|0:0,0:0:0:0:
244,340,46254,6,0,P|193:351|149:343,2,70,0|0|2,0:0|0:0|0:0,0:0:0:0:
214,268,46957,2,0,P|187:217|202:168,1,105
267,81,47660,1,2,0:0:0:0:
419,59,48129,6,0,L|415:146,1,70,4|0,0:0|0:0,0:0:0:0:
477,174,48597,2,0,L|483:263,1,70,2|0,0:0|0:0,0:0:0:0:
414,278,49066,2,0,P|443:311|480:319,2,70,0|0|2,0:0|0:0|0:0,0:0:0:0:
362,220,49769,1,0,0:0:0:0:
259,105,50238,6,0,L|172:109,1,70,0|2,0:0|0:0,0:0:0:0:
144,47,50707,2,0,L|55:41,1,70
50,115,51175,2,0,P|17:144|8:181,1,70,0|2,0:0|0:0,0:0:0:0:
75,307,51879,6,0,L|150:276,1,70
208,245,52347,1,2,0:0:0:0:
219,91,52816,2,0,P|290:83|370:123,1,140,0|2,0:0|0:0,0:0:0:0:
315,257,53754,6,0,P|379:282|448:274,1,140,0|2,0:0|0:0,0:0:0:0:
491,125,54691,2,0,L|519:38,2,70,0|0|2,0:0|0:0|0:0,0:0:0:0:
337,119,55629,6,0,P|282:110|238:123,1,70,4|0,0:0|0:0,0:0:0:0:
249,186,56097,2,0,P|193:192|154:217,1,70,2|0,0:0|0:0,0:0:0:0:
106,175,56566,2,0,P|104:208|131:257,2,70,0|0|2,0:0|0:0|0:0,0:0:0:0:
199,297,57504,6,0,L|279:273,1,70
320,331,57972,2,0,L|367:274,1,70,2|0,0:0|0:0,0:0:0:0:
428,320,58441,2,0,B|459:293|459:293|482:236,2,70,0|0|2,0:0|0:0|0:0,0:0:0:0:
319,210,59379,6,0,P|281:192|261:142,1,70
328,124,59847,2,0,P|310:86|260:66,1,70,2|0,0:0|0:0,0:0:0:0:
215,44,60316,2,0,L|125:24,2,70,0|0|2,0:0|0:0|0:0,0:0:0:0:
137,177,61254,6,0,B|119:222|119:222|79:254|79:254|55:316,2,140,8|10|8,0:0|0:0|0:0,0:0:0:0:
274,245,62660,1,8,0:0:0:0:
404,327,63129,5,6,0:0:0:0:
410,173,63597,2,0,L|410:83,1,70
341,68,64066,2,0,P|283:57|225:98,2,105,0|0|2,0:0|0:0|0:0,0:0:0:0:
297,131,65004,5,2,0:0:0:0:
246,276,65472,2,0,L|178:306,1,70
110,276,65941,1,0,0:0:0:0:
120,199,66175,2,0,P|50:176|3:190,2,105,2|2|2,0:0|0:0|0:0,0:0:0:0:
239,102,67347,6,0,L|340:88,1,70
308,169,67816,2,0,L|424:211,2,105,0|0|2,0:0|0:0|0:0,0:0:0:0:
264,233,68754,6,0,P|219:259|145:228,2,105,2|2|2,0:0|0:0|0:0,0:0:0:0:
206,182,69691,2,0,P|161:156|87:187,2,105,2|2|0,0:0|0:0|0:0,0:0:0:0:
255,122,70629,5,14,0:0:0:0:
243,45,70863,1,0,0:0:0:0:
319,53,71097,2,0,L|335:128,1,70,10|0,0:0|0:0,0:0:0:0:
382,181,71566,2,0,L|356:258,1,70,10|0,0:0|0:0,0:0:0:0:
313,308,72035,2,0,P|255:319|232:338,2,70,10|0|10,0:0|0:0|0:0,0:0:0:0:
193,210,72972,6,0,P|190:157|177:123,1,70,10|0,0:0|0:0,0:0:0:0:
257,107,73441,2,0,P|225:64|196:42,1,70,10|0,0:0|0:0,0:0:0:0:
135,47,73910,2,0,L|48:45,2,70,10|0|10,0:0|0:0|0:0,0:0:0:0:
256,192,74847,12,8,76254,0:0:0:0:
387,142,78129,5,4,0:0:0:0:
282,46,78597,2,0,P|192:82|170:139,1,140,10|0,0:0|0:0,0:0:0:0:
145,187,79300,2,0,L|122:263,1,70,0|10,0:0|0:0,0:0:0:0:
268,310,80004,6,0,P|328:335|354:332,1,70
345,259,80472,2,0,P|409:255|431:241,1,70,10|0,0:0|0:0,0:0:0:0:
481,288,80941,2,0,P|482:214|415:175,1,140,0|10,0:0|0:0,0:0:0:0:
317,73,81879,5,0,0:0:0:0:
240,74,82113,2,0,L|166:83,1,70,0|10,0:0|0:0,0:0:0:0:
144,155,82582,1,0,0:0:0:0:
124,229,82816,2,0,L|50:238,2,70,0|0|10,0:0|0:0|0:0,0:0:0:0:
137,305,83519,6,0,L|281:325,1,140
334,274,84222,1,10,0:0:0:0:
361,201,84457,2,0,L|223:175,1,140
146,172,85160,2,0,P|152:129|181:89,1,70,10|0,0:0|0:0,0:0:0:0:
222,54,85629,5,4,0:0:0:0:
375,59,86097,2,0,B|418:130|418:130|396:210,1,140,10|0,0:0|0:0,0:0:0:0:
438,253,86800,2,0,L|388:318,1,70,0|10,0:0|0:0,0:0:0:0:
240,313,87504,6,0,L|159:283,1,70
201,218,87972,2,0,L|125:164,1,70,10|0,0:0|0:0,0:0:0:0:
75,214,88441,2,0,B|54:158|54:158|80:73,1,140,0|10,0:0|0:0,0:0:0:0:
224,127,89379,5,0,0:0:0:0:
275,69,89613,2,0,P|318:61|367:75,1,70,0|10,0:0|0:0,0:0:0:0:
349,142,90082,2,0,P|392:134|441:148,1,70
370,284,90785,1,10,0:0:0:0:
307,328,91019,6,0,L|221:343,2,70
370,284,91722,1,10,0:0:0:0:
399,212,91957,2,0,L|485:227,2,70
363,143,92660,1,14,0:0:0:0:
