osu file format v14

[General]
AudioFilename: audio.mp3
AudioLeadIn: 0
PreviewTime: 40140
Countdown: 0
SampleSet: Normal
StackLeniency: 0.7
Mode: 1
LetterboxInBreaks: 0
WidescreenStoryboard: 1

[Editor]
DistanceSpacing: 1
BeatDivisor: 4
GridSize: 32
TimelineZoom: 2.1

[Metadata]
Title:Kyu-kurarin (7_7 bootleg)
TitleUnicode:きゅうくらりん (7_7 bootleg)
Artist:Iyowa feat. KAFU
ArtistUnicode:いよわ feat. 可不
Creator:woosungko
Version:Shokyuu
Source:
Tags:花譜 かふ CeVIO AI KAMITSUBAKI STUDIO 神椿スタジオ artificial singing synthesizer kaf-u vocaloid female vocalist japanese pop jpop j-pop electronic remix
BeatmapID:3782833
BeatmapSetID:1837174

[Difficulty]
HPDrainRate:8
CircleSize:5
OverallDifficulty:2
ApproachRate:5
SliderMultiplier:1.4
SliderTickRate:1

[Events]
//Background and Video events
0,0,"7.jpg",0,80
//Break Periods
//Storyboard Layer 0 (Background)
//Storyboard Layer 1 (Fail)
//Storyboard Layer 2 (Pass)
//Storyboard Layer 3 (Foreground)
//Storyboard Layer 4 (Overlay)
//Storyboard Sound Samples

[TimingPoints]
221,238.095238095238,4,1,0,60,1,0
221,-125,4,1,0,60,0,0
2096,-125,4,1,0,80,0,0
2125,-125,4,1,0,80,0,1
2155,-125,4,1,0,80,0,1
17363,-125,4,1,0,80,0,0
17393,-125,4,1,0,80,0,0
24952,-125,4,1,0,80,0,0
25012,-125,4,1,0,80,0,0
32596,-125,4,1,0,80,0,0
40173,-125,4,1,0,100,0,0
42125,-125,4,1,0,100,0,1
47810,-125,4,1,0,80,0,1
47840,-125,4,1,0,80,0,0
47869,-125,4,1,0,80,0,0
51645,-125,4,1,0,80,0,0
54502,-125,4,1,0,80,0,0
54506,-125,4,1,0,80,0,1
69739,-125,4,1,0,80,0,1
69744,-125,4,1,0,80,0,0
69774,-125,4,1,0,60,0,0
84982,238.095238095238,4,1,0,60,1,8
84982,-125,4,1,0,60,0,0
85180,-125,4,1,0,80,0,0
85220,238.095238095238,4,1,0,80,1,0
85220,-125,4,1,0,80,0,0
85250,-125,4,1,0,80,0,0
92835,-125,4,1,0,80,0,0
92869,-125,4,1,0,80,0,0
100453,-125,4,1,0,40,0,0
101406,-125,4,1,0,40,0,0
102323,-125,4,1,0,100,0,0
104024,-125,4,1,0,100,0,0
104029,238.095238095238,4,1,0,100,1,1
104029,-125,4,1,0,100,0,1
109714,-125,4,1,0,80,0,1
109743,-125,4,1,0,80,0,0
109773,-125,4,1,0,80,0,0
132560,-125,4,1,0,60,0,0
132595,-125,4,1,0,60,0,0
147809,-125,4,1,0,80,0,0
147868,-125,4,1,0,80,0,0
156370,-125,4,1,0,100,0,0
158310,-125,4,1,0,100,0,0
158314,-125,4,1,0,100,0,1
163999,-125,4,1,0,80,0,1
164028,-125,4,1,0,80,0,0
164059,-125,4,1,0,80,0,0
172595,-125,4,1,0,100,0,0
172600,-125,4,1,0,100,0,1
184976,-125,4,1,0,100,0,1
184981,-125,4,1,0,100,0,0

[HitObjects]
296,169,221,5,0,0:0:0:0:
424,203,1173,1,8,0:0:0:0:
357,181,2125,1,4,0:0:0:0:
320,200,3078,1,8,0:0:0:0:
289,200,3554,1,0,0:0:0:0:
417,215,4030,1,8,0:0:0:0:
304,139,4982,1,0,0:0:0:0:
311,178,5935,1,0,0:0:0:0:
328,223,6887,1,8,0:0:0:0:
349,164,7840,1,0,0:0:0:0:
343,163,9744,1,0,0:0:0:0:
289,200,10697,1,8,0:0:0:0:
417,215,11649,1,0,0:0:0:0:
311,178,13554,1,8,0:0:0:0:
401,216,14506,1,0,0:0:0:0:
385,190,15459,1,8,0:0:0:0:
342,226,17363,1,4,0:0:0:0:
342,214,18316,1,8,0:0:0:0:
368,155,19268,1,0,0:0:0:0:
386,202,19744,1,8,0:0:0:0:
386,202,20697,1,8,0:0:0:0:
353,249,21173,1,0,0:0:0:0:
296,222,22125,1,8,0:0:0:0:
298,216,23078,1,0,0:0:0:0:
340,201,24982,1,12,0:0:0:0:
285,167,25935,1,0,0:0:0:0:
345,141,26887,1,8,0:0:0:0:
438,204,27363,1,0,0:0:0:0:
323,173,28316,1,8,0:0:0:0:
344,218,28792,1,0,0:0:0:0:
371,181,29744,1,8,0:0:0:0:
318,199,30697,1,0,0:0:0:0:
385,179,32601,1,4,0:0:0:0:
325,187,33554,1,8,0:0:0:0:
308,228,34506,1,0,0:0:0:0:
342,184,35459,1,0,0:0:0:0:
309,194,36411,1,8,0:0:0:0:
417,196,37363,1,0,0:0:0:0:
303,197,38316,1,8,0:0:0:0:
376,206,40220,5,0,0:0:0:0:
314,197,42125,1,8,0:0:0:0:
314,197,42601,1,0,0:0:0:0:
382,180,43078,1,8,0:0:0:0:
313,183,44030,1,0,0:0:0:0:
380,199,44506,1,8,0:0:0:0:
336,198,44982,1,0,0:0:0:0:
394,183,45935,1,8,0:0:0:0:
341,186,47840,1,4,0:0:0:0:
331,195,48792,1,8,0:0:0:0:
369,227,49744,1,0,0:0:0:0:
372,212,50220,1,8,0:0:0:0:
330,226,50697,1,8,0:0:0:0:
380,228,51649,1,0,0:0:0:0:
409,221,52601,1,8,0:0:0:0:
357,181,54506,1,4,0:0:0:0:
320,200,55459,1,8,0:0:0:0:
289,200,55935,1,0,0:0:0:0:
417,215,56411,1,8,0:0:0:0:
304,139,57363,1,0,0:0:0:0:
311,178,58316,1,0,0:0:0:0:
328,223,59268,1,8,0:0:0:0:
349,164,60220,1,0,0:0:0:0:
343,163,62125,1,0,0:0:0:0:
289,200,63078,1,8,0:0:0:0:
417,215,64030,1,0,0:0:0:0:
311,178,65935,1,8,0:0:0:0:
401,216,66887,1,0,0:0:0:0:
385,190,67840,1,8,0:0:0:0:
342,226,69744,5,4,0:0:0:0:
372,191,71173,1,8,0:0:0:0:
414,187,71649,1,0,0:0:0:0:
338,189,73078,1,0,0:0:0:0:
402,180,73554,1,8,0:0:0:0:
348,188,74982,1,8,0:0:0:0:
348,188,75459,1,8,0:0:0:0:
189,155,77363,1,0,0:0:0:0:
376,183,78792,1,8,0:0:0:0:
331,159,79268,1,0,0:0:0:0:
311,169,80697,1,8,0:0:0:0:
311,169,81173,1,8,0:0:0:0:
404,200,82601,1,0,0:0:0:0:
319,211,83078,1,8,0:0:0:0:
420,181,85220,1,4,0:0:0:0:
342,214,86172,1,8,0:0:0:0:
368,155,87124,1,0,0:0:0:0:
386,202,87600,1,8,0:0:0:0:
386,202,88553,1,8,0:0:0:0:
353,249,89029,1,0,0:0:0:0:
296,222,89981,1,8,0:0:0:0:
298,216,90934,1,0,0:0:0:0:
340,201,92839,1,12,0:0:0:0:
285,167,93791,1,0,0:0:0:0:
345,141,94743,1,8,0:0:0:0:
438,204,95220,1,0,0:0:0:0:
323,173,96172,1,8,0:0:0:0:
344,218,96648,1,0,0:0:0:0:
371,181,97600,1,8,0:0:0:0:
318,199,98553,1,0,0:0:0:0:
388,147,100458,1,8,0:0:0:0:
362,201,102362,5,0,0:0:0:0:
314,197,104029,1,8,0:0:0:0:
314,197,104505,1,0,0:0:0:0:
382,180,104981,1,8,0:0:0:0:
313,183,105933,1,0,0:0:0:0:
380,199,106409,1,8,0:0:0:0:
336,198,106886,1,0,0:0:0:0:
394,183,107838,1,8,0:0:0:0:
341,186,109743,1,4,0:0:0:0:
331,195,110695,1,8,0:0:0:0:
369,227,111648,1,0,0:0:0:0:
372,212,112124,1,8,0:0:0:0:
330,226,112600,1,8,0:0:0:0:
380,228,113552,1,0,0:0:0:0:
409,221,114505,1,8,0:0:0:0:
388,182,116409,1,8,0:0:0:0:
329,216,117362,5,4,0:0:0:0:
407,193,118314,1,8,0:0:0:0:
400,188,118790,1,8,0:0:0:0:
431,210,119267,1,0,0:0:0:0:
397,187,120219,1,8,0:0:0:0:
373,204,121171,1,0,0:0:0:0:
371,226,122124,1,0,0:0:0:0:
313,139,123076,1,8,0:0:0:0:
382,213,124981,1,8,0:0:0:0:
323,204,125457,1,8,0:0:0:0:
352,202,125933,1,8,0:0:0:0:
416,197,126886,1,0,0:0:0:0:
320,199,127838,1,8,0:0:0:0:
329,203,128790,1,8,0:0:0:0:
324,212,129267,1,8,0:0:0:0:
320,179,129743,1,8,0:0:0:0:
368,205,130695,1,0,0:0:0:0:
312,200,132600,1,0,0:0:0:0:
388,192,133552,1,0,0:0:0:0:
399,168,134505,1,8,0:0:0:0:
402,194,135457,1,8,0:0:0:0:
332,167,136409,1,0,0:0:0:0:
360,173,137362,1,8,0:0:0:0:
355,193,138314,1,0,0:0:0:0:
386,197,140219,1,0,0:0:0:0:
367,184,141171,1,0,0:0:0:0:
379,168,142124,1,8,0:0:0:0:
362,171,143076,1,8,0:0:0:0:
331,171,144028,1,0,0:0:0:0:
394,183,144981,1,0,0:0:0:0:
346,178,145933,1,8,0:0:0:0:
429,172,147838,1,4,0:0:0:0:
418,168,148790,1,8,0:0:0:0:
408,202,149743,1,0,0:0:0:0:
406,188,150219,1,8,0:0:0:0:
419,177,150695,1,0,0:0:0:0:
430,187,151648,1,0,0:0:0:0:
434,187,152600,1,8,0:0:0:0:
325,140,153552,1,8,0:0:0:0:
382,171,154028,1,8,0:0:0:0:
411,176,154505,1,0,0:0:0:0:
389,205,156409,1,0,0:0:0:0:
314,197,158314,1,8,0:0:0:0:
314,197,158790,1,0,0:0:0:0:
382,180,159267,1,8,0:0:0:0:
313,183,160219,1,0,0:0:0:0:
380,199,160695,1,8,0:0:0:0:
336,198,161171,1,0,0:0:0:0:
394,183,162124,1,8,0:0:0:0:
341,186,164028,1,4,0:0:0:0:
331,195,164981,1,8,0:0:0:0:
369,227,165933,1,0,0:0:0:0:
372,212,166409,1,8,0:0:0:0:
330,226,166886,1,8,0:0:0:0:
380,228,167838,1,0,0:0:0:0:
409,221,168790,1,8,0:0:0:0:
385,212,170695,1,0,0:0:0:0:
429,145,171171,1,8,0:0:0:0:
380,173,171648,1,0,0:0:0:0:
372,224,172600,1,0,0:0:0:0:
388,187,173552,1,8,0:0:0:0:
387,212,174028,1,0,0:0:0:0:
377,195,174505,1,8,0:0:0:0:
384,163,175457,1,0,0:0:0:0:
367,170,176409,1,8,0:0:0:0:
314,241,178314,1,0,0:0:0:0:
418,143,179267,1,8,0:0:0:0:
418,143,179743,1,8,0:0:0:0:
382,161,180219,1,0,0:0:0:0:
441,195,181171,1,0,0:0:0:0:
297,111,182124,1,8,0:0:0:0:
345,90,183076,1,0,0:0:0:0:
338,198,184981,1,8,0:0:0:0:
