osu file format v14

[General]
AudioFilename: audio.mp3
AudioLeadIn: 0
PreviewTime: 40140
Countdown: 0
SampleSet: Normal
StackLeniency: 0.7
Mode: 1
LetterboxInBreaks: 0
WidescreenStoryboard: 1

[Editor]
DistanceSpacing: 1
BeatDivisor: 4
GridSize: 32
TimelineZoom: 4.299998

[Metadata]
Title:Kyu-kurarin (7_7 bootleg)
TitleUnicode:きゅうくらりん (7_7 bootleg)
Artist:Iyowa feat. KAFU
ArtistUnicode:いよわ feat. 可不
Creator:woosungko
Version:Oni
Source:
Tags:花譜 かふ CeVIO AI KAMITSUBAKI STUDIO 神椿スタジオ artificial singing synthesizer kaf-u vocaloid female vocalist japanese pop jpop j-pop electronic remix
BeatmapID:3772250
BeatmapSetID:1837174

[Difficulty]
HPDrainRate:5
CircleSize:5
OverallDifficulty:6
ApproachRate:5
SliderMultiplier:1.4
SliderTickRate:1

[Events]
//Background and Video events
0,0,"7.jpg",0,80
//Break Periods
//Storyboard Layer 0 (Background)
//Storyboard Layer 1 (Fail)
//Storyboard Layer 2 (Pass)
//Storyboard Layer 3 (Foreground)
//Storyboard Layer 4 (Overlay)
//Storyboard Sound Samples

[TimingPoints]
221,238.095238095238,4,1,0,60,1,0
221,-125,4,1,0,60,0,0
276,-124.13910230852,4,1,0,60,0,0
336,-123.269693645387,4,1,0,60,0,0
395,-122.420712887877,4,1,0,60,0,0
455,-121.563338971421,4,1,0,60,0,0
574,-119.880604428139,4,1,0,60,0,0
693,-118.221163055044,4,1,0,60,0,0
812,-116.584692417573,4,1,0,60,0,0
931,-114.970874544447,4,1,0,60,0,0
1050,-113.37939586589,4,1,0,60,0,0
1109,-112.598531384591,4,1,0,60,0,0
1169,-111.809947152698,4,1,0,60,0,0
1228,-111.039891749592,4,1,0,60,0,0
1288,-110.26222345616,4,1,0,60,0,0
1407,-108.7359240488,4,1,0,60,0,0
1526,-107.230752365949,4,1,0,60,0,0
1645,-105.74641594812,4,1,0,60,0,0
1883,-102.839099255313,4,1,0,60,0,0
2096,-102.839099255313,4,1,0,80,0,0
2125,-90.9090909090909,4,1,0,80,0,1
2155,-100,4,1,0,80,0,1
16406,-90.8899303335174,4,1,0,80,0,1
16524,-93.1986330343789,4,1,0,80,0,1
16643,-95.5659792850969,4,1,0,80,0,1
16762,-97.9934586953723,4,1,0,80,0,1
16881,-100.482598712606,4,1,0,80,0,1
17119,-105.652165337181,4,1,0,80,0,1
17179,-106.996866819661,4,1,0,80,0,1
17239,-108.358683162696,4,1,0,80,0,1
17358,-100,4,1,0,80,0,1
17363,-100,4,1,0,80,0,0
17393,-111.111111111111,4,1,0,80,0,0
24263,-111.111111111111,4,1,0,80,0,0
24501,-107.292429594403,4,1,0,80,0,0
24620,-105.424811071379,4,1,0,80,0,0
24740,-103.574416865129,4,1,0,80,0,0
24859,-101.771517068937,4,1,0,80,0,0
24952,-90.9090909090909,4,1,0,80,0,0
25012,-100,4,1,0,80,0,0
30691,-100,4,1,0,80,0,0
30810,-99.4063929239543,4,1,0,80,0,0
30929,-98.8163095415159,4,1,0,80,0,0
31048,-98.2297289357903,4,1,0,80,0,0
31167,-97.6466303140469,4,1,0,80,0,0
31405,-96.4907964679883,4,1,0,80,0,0
31643,-95.3486441168815,4,1,0,80,0,0
31762,-94.7826478184901,4,1,0,80,0,0
31881,-94.220011314176,4,1,0,80,0,0
32000,-93.660714659964,4,1,0,80,0,0
32119,-93.1047380302675,4,1,0,80,0,0
32239,-92.5474313061735,4,1,0,80,0,0
32358,-91.9963201471941,4,1,0,80,0,0
32421,-91.7255907734822,4,1,0,80,0,0
32481,-91.4510898325608,4,1,0,80,0,0
32596,-90.9090909090909,4,1,0,80,0,0
32834,-101.840284615623,4,1,0,80,0,0
33131,-104.184346521204,4,1,0,80,0,0
33310,-105.623076510388,4,1,0,80,0,0
33429,-106.590528448211,4,1,0,80,0,0
33549,-107.575083826472,4,1,0,80,0,0
33786,-109.546377777972,4,1,0,80,0,0
33965,-111.059154545098,4,1,0,80,0,0
34262,-113.615407548689,4,1,0,80,0,0
34381,-114.656065043538,4,1,0,80,0,0
34500,-115.706254414785,4,1,0,80,0,0
34739,-117.844607723517,4,1,0,80,0,0
35036,-120.557041774398,4,1,0,80,0,0
35215,-122.22186991029,4,1,0,80,0,0
35334,-123.341358082721,4,1,0,80,0,0
35453,-124.471100179176,4,1,0,80,0,0
35810,-127.922793527501,4,1,0,80,0,0
35989,-129.689338747523,4,1,0,80,0,0
36167,-131.470205375572,4,1,0,80,0,0
36286,-132.674403446286,4,1,0,80,0,0
36405,-133.889631339227,4,1,0,80,0,0
36643,-136.353581626678,4,1,0,80,0,0
36822,-138.236551511976,4,1,0,80,0,0
37119,-141.418347748908,4,1,0,80,0,0
37239,-142.724600723614,4,1,0,80,0,0
37358,-144.031883148128,4,1,0,80,0,0
37596,-146.682479735295,4,1,0,80,0,0
37893,-150.058676240062,4,1,0,80,0,0
38072,-152.130906136899,4,1,0,80,0,0
38191,-153.5243453815,4,1,0,80,0,0
38310,-154.930547798145,4,1,0,80,0,0
38548,-157.781710834175,4,1,0,80,0,0
38727,-159.960591699695,4,1,0,80,0,0
39024,-163.642411038797,4,1,0,80,0,0
39143,-165.141289625751,4,1,0,80,0,0
39262,-166.653897153779,4,1,0,80,0,0
39382,-100,4,1,0,80,0,0
40173,-100,4,1,0,100,0,0
40215,-100,4,1,0,100,0,0
40334,-99.3219307267954,4,1,0,100,0,0
40453,-98.6484592329835,4,1,0,100,0,0
40572,-97.9795543424349,4,1,0,100,0,0
40691,-97.315185090416,4,1,0,100,0,0
40810,-96.6553207221557,4,1,0,100,0,0
40929,-95.9999306914214,4,1,0,100,0,0
41048,-95.3489846591052,4,1,0,100,0,0
41168,-94.7024524918192,4,1,0,100,0,0
41286,-94.0603042605011,4,1,0,100,0,0
41405,-93.4225102390278,4,1,0,100,0,0
41524,-92.7890409028406,4,1,0,100,0,0
41643,-92.1598669275772,4,1,0,100,0,0
41703,-91.8442559706577,4,1,0,100,0,0
41762,-91.534959187715,4,1,0,100,0,0
41881,-90.9142887552228,4,1,0,100,0,0
42125,-99.9979885556315,4,1,0,100,0,1
42239,-100.239650992216,4,1,0,100,0,1
42298,-100.35868242986,4,1,0,100,0,1
42417,-100.599193008078,4,1,0,100,0,1
42477,-100.720677330968,4,1,0,100,0,1
42596,-100.962055433558,4,1,0,100,0,1
42715,-101.204012001166,4,1,0,100,0,1
42774,-101.324188587224,4,1,0,100,0,1
42893,-101.567013010528,4,1,0,100,0,1
42953,-101.689666079947,4,1,0,100,0,1
43072,-101.933366373688,4,1,0,100,0,1
43191,-102.177650697602,4,1,0,100,0,1
43250,-102.298983449036,4,1,0,100,0,1
43369,-102.544143977898,4,1,0,100,0,1
43429,-102.667977037836,4,1,0,100,0,1
43548,-102.914021863495,4,1,0,100,0,1
43667,-103.16065633802,4,1,0,100,0,1
43786,-103.40788187451,4,1,0,100,0,1
44025,-103.906201818171,4,1,0,100,0,1
44143,-104.153119037614,4,1,0,100,0,1
44203,-104.278895107628,4,1,0,100,0,1
44322,-104.528800514425,4,1,0,100,0,1
44381,-104.652925182431,4,1,0,100,0,1
44500,-104.903726956014,4,1,0,100,0,1
44619,-105.155129778535,4,1,0,100,0,1
44679,-105.282115884065,4,1,0,100,0,1
44798,-105.534425519407,4,1,0,100,0,1
44858,-105.661869665253,4,1,0,100,0,1
44977,-105.9150893843,4,1,0,100,0,1
45096,-106.168915946916,4,1,0,100,0,1
45155,-106.294988200492,4,1,0,100,0,1
45274,-106.54972519439,4,1,0,100,0,1
45334,-106.678395423567,4,1,0,100,0,1
45453,-106.934051256679,4,1,0,100,0,1
45572,-107.190319771533,4,1,0,100,0,1
45691,-107.447202436424,4,1,0,100,0,1
45930,-107.962816107118,4,1,0,100,0,1
46048,-108.221550067143,4,1,0,100,0,1
46108,-108.35223920429,4,1,0,100,0,1
46227,-108.611906420631,4,1,0,100,0,1
46286,-108.740879648676,4,1,0,100,0,1
46405,-109.001478245698,4,1,0,100,0,1
46524,-109.262701369844,4,1,0,100,0,1
46584,-109.394647808937,4,1,0,100,0,1
46703,-109.656813167842,4,1,0,100,0,1
46762,-109.787027189835,4,1,0,100,0,1
46882,-110.05013288982,4,1,0,100,0,1
47000,-110.313869125225,4,1,0,100,0,1
47119,-110.578237407135,4,1,0,100,0,1
47239,-110.845468845197,4,1,0,100,0,1
47358,-111.111111111111,4,1,0,100,0,1
47561,-105.409255338946,4,1,0,60,0,1
47810,-90.9090909090909,4,1,0,80,0,1
47840,-90.9090909090909,4,1,0,80,0,0
47869,-100,4,1,0,80,0,0
51645,-100,4,1,0,80,0,0
51882,-102.04246767907,4,1,0,80,0,0
52001,-103.083689479937,4,1,0,80,0,0
52240,-105.207089795568,4,1,0,80,0,0
52359,-106.280602794544,4,1,0,80,0,0
52478,-107.365069714602,4,1,0,80,0,0
52597,-108.460602327456,4,1,0,80,0,0
52835,-110.685317432528,4,1,0,80,0,0
52954,-111.814729217327,4,1,0,80,0,0
53192,-114.108243283461,4,1,0,80,0,0
53311,-115.272581948213,4,1,0,80,0,0
53550,-117.667144439242,4,1,0,80,0,0
53668,-115.300868810089,4,1,0,80,0,0
53787,-112.982178769757,4,1,0,80,0,0
53906,-110.710117376361,4,1,0,80,0,0
54025,-108.48374693203,4,1,0,80,0,0
54085,-107.378242121059,4,1,0,80,0,0
54144,-106.302148595911,4,1,0,80,0,0
54263,-104.184534968328,4,1,0,80,0,0
54502,-100,4,1,0,80,0,0
54506,-100,4,1,0,80,0,1
68787,-90.8899303335174,4,1,0,80,0,1
68905,-93.1986330343789,4,1,0,80,0,1
69024,-95.5659792850969,4,1,0,80,0,1
69143,-97.9934586953723,4,1,0,80,0,1
69262,-100.482598712606,4,1,0,80,0,1
69500,-105.652165337181,4,1,0,80,0,1
69560,-106.996866819661,4,1,0,80,0,1
69620,-108.358683162696,4,1,0,80,0,1
69739,-100,4,1,0,80,0,1
69744,-100,4,1,0,80,0,0
69774,-111.111111111111,4,1,0,60,0,0
70215,-112.28316412232,4,1,0,60,0,0
70453,-112.873818774456,4,1,0,60,0,0
70572,-113.170310236485,4,1,0,60,0,0
70691,-113.467580507879,4,1,0,60,0,0
70810,-113.765631634375,4,1,0,60,0,0
70929,-114.064465667087,4,1,0,60,0,0
71167,-114.664490682559,4,1,0,60,0,0
71644,-115.876580861646,4,1,0,60,0,0
72119,-117.096320951263,4,1,0,60,0,0
72358,-117.714889695429,4,1,0,60,0,0
72477,-118.024097447301,4,1,0,60,0,0
72596,-118.334117411069,4,1,0,60,0,0
72715,-118.644951720213,4,1,0,60,0,0
72834,-118.956602513814,4,1,0,60,0,0
73072,-119.582362138833,4,1,0,60,0,0
73549,-120.846437929671,4,1,0,60,0,0
74024,-122.118491729793,4,1,0,60,0,0
74262,-122.760884165167,4,1,0,60,0,0
74381,-123.0833464901,4,1,0,60,0,0
74501,-123.409376323877,4,1,0,60,0,0
74619,-123.730814449995,4,1,0,60,0,0
74739,-124.058559331968,4,1,0,60,0,0
74977,-124.711157304064,4,1,0,60,0,0
75453,-126.02667009111,4,1,0,60,0,0
75929,-127.356059534667,4,1,0,60,0,0
76167,-128.026003685509,4,1,0,60,0,0
76286,-128.362296170539,4,1,0,60,0,0
76406,-128.702309172112,4,1,0,60,0,0
76524,-129.03753353123,4,1,0,60,0,0
76643,-129.376483053703,4,1,0,60,0,0
76881,-130.057055445744,4,1,0,60,0,0
77358,-131.431856647829,4,1,0,60,0,0
77834,-132.818262578005,4,1,0,60,0,0
78072,-133.516940116116,4,1,0,60,0,0
78191,-133.867655926128,4,1,0,60,0,0
78310,-134.219292979387,4,1,0,60,0,0
78429,-134.57185369577,4,1,0,60,0,0
78548,-134.92534050151,4,1,0,60,0,0
78786,-135.635102117877,4,1,0,60,0,0
79263,-137.068867481836,4,1,0,60,0,0
79739,-138.514735291712,4,1,0,60,0,0
79977,-139.243378569882,4,1,0,60,0,0
80096,-139.609136310147,4,1,0,60,0,0
80215,-139.975854805071,4,1,0,60,0,0
80334,-140.343536578316,4,1,0,60,0,0
80453,-140.712184160175,4,1,0,60,0,0
80691,-141.452386904158,4,1,0,60,0,0
81168,-142.947645357359,4,1,0,60,0,0
81643,-144.452340891713,4,1,0,60,0,0
81881,-145.212218366012,4,1,0,60,0,0
82000,-145.593654764597,4,1,0,60,0,0
82120,-145.97931112198,4,1,0,60,0,0
82239,-146.362762482539,4,1,0,60,0,0
82358,-146.747221074499,4,1,0,60,0,0
82596,-147.519170542553,4,1,0,60,0,0
83072,-149.075273134962,4,1,0,60,0,0
83548,-150.647790239934,4,1,0,60,0,0
83786,-151.440258272294,4,1,0,60,0,0
83905,-151.838054183452,4,1,0,60,0,0
84024,-152.236895005578,4,1,0,60,0,0
84143,-152.636783483394,4,1,0,60,0,0
84262,-153.114037772815,4,1,0,60,0,0
84500,-137.660642427296,4,1,0,60,0,0
84982,238.095238095238,4,1,0,60,1,8
84982,-111.225717876248,4,1,0,60,0,0
85180,-111.225717876248,4,1,0,80,0,0
85220,238.095238095238,4,1,0,80,1,0
85220,-90.9090909090909,4,1,0,80,0,0
85250,-100,4,1,0,80,0,0
92358,-100.020025151784,4,1,0,80,0,0
92478,-97.6454089676311,4,1,0,80,0,0
92597,-95.3462589245592,4,1,0,80,0,0
92716,-93.1012444622223,4,1,0,80,0,0
92835,-90.9090909090909,4,1,0,80,0,0
92869,-100,4,1,0,80,0,0
99501,-100.010012074684,4,1,0,80,0,0
99619,-98.8255850521445,4,1,0,80,0,0
99738,-97.655185298902,4,1,0,80,0,0
99857,-96.4986466888206,4,1,0,80,0,0
99976,-95.3558050632108,4,1,0,80,0,0
100095,-94.2264982075282,4,1,0,80,0,0
100215,-93.1012444622223,4,1,0,80,0,0
100274,-92.5529323770645,4,1,0,80,0,0
100334,-91.9986385582181,4,1,0,80,0,0
100453,-83.3333333333333,4,1,0,40,0,0
101406,-142.857142857143,4,1,0,40,0,0
102323,-142.857142857143,4,1,0,100,0,0
102358,-100,4,1,0,100,0,0
102477,-99.3219307267954,4,1,0,100,0,0
102596,-98.6484592329835,4,1,0,100,0,0
102715,-97.9795543424349,4,1,0,100,0,0
102834,-97.315185090416,4,1,0,100,0,0
102953,-96.6553207221557,4,1,0,100,0,0
103072,-95.9999306914214,4,1,0,100,0,0
103191,-95.3489846591052,4,1,0,100,0,0
103311,-94.7024524918192,4,1,0,100,0,0
103429,-94.0603042605011,4,1,0,100,0,0
103548,-93.423019431988,4,1,0,100,0,0
103611,-93.1087316894932,4,1,0,100,0,0
103667,-92.790201354737,4,1,0,100,0,0
103786,-92.1598669275772,4,1,0,100,0,0
104024,-90.9142887552228,4,1,0,100,0,0
104029,238.095238095238,4,1,0,100,1,1
104029,-100,4,1,0,100,0,1
104144,-100.239650992216,4,1,0,100,0,1
104203,-100.35868242986,4,1,0,100,0,1
104322,-100.599193008078,4,1,0,100,0,1
104382,-100.720677330968,4,1,0,100,0,1
104501,-100.962055433558,4,1,0,100,0,1
104620,-101.204012001166,4,1,0,100,0,1
104679,-101.324188587224,4,1,0,100,0,1
104798,-101.567013010528,4,1,0,100,0,1
104858,-101.689666079947,4,1,0,100,0,1
104977,-101.933366373688,4,1,0,100,0,1
105096,-102.177650697602,4,1,0,100,0,1
105155,-102.298983449036,4,1,0,100,0,1
105274,-102.546206637797,4,1,0,100,0,1
105334,-102.667977037836,4,1,0,100,0,1
105453,-102.914021863495,4,1,0,100,0,1
105572,-103.16065633802,4,1,0,100,0,1
105691,-103.40788187451,4,1,0,100,0,1
105930,-103.904111802726,4,1,0,100,0,1
106048,-104.153119037614,4,1,0,100,0,1
106108,-104.278895107628,4,1,0,100,0,1
106227,-104.528800514425,4,1,0,100,0,1
106286,-104.652925182431,4,1,0,100,0,1
106405,-104.903726956014,4,1,0,100,0,1
106524,-105.157244958017,4,1,0,100,0,1
106584,-105.282115884065,4,1,0,100,0,1
106703,-105.534425519407,4,1,0,100,0,1
106763,-105.661869665253,4,1,0,100,0,1
106882,-105.9150893843,4,1,0,100,0,1
107001,-106.168915946916,4,1,0,100,0,1
107060,-106.294988200492,4,1,0,100,0,1
107179,-106.54972519439,4,1,0,100,0,1
107239,-106.678395423567,4,1,0,100,0,1
107358,-106.934051256679,4,1,0,100,0,1
107477,-107.190319771533,4,1,0,100,0,1
107596,-107.447202436424,4,1,0,100,0,1
107835,-107.962816107118,4,1,0,100,0,1
107953,-108.221550067143,4,1,0,100,0,1
108013,-108.35223920429,4,1,0,100,0,1
108132,-108.611906420631,4,1,0,100,0,1
108191,-108.740879648676,4,1,0,100,0,1
108310,-109.001478245698,4,1,0,100,0,1
108429,-109.262701369844,4,1,0,100,0,1
108489,-109.394647808937,4,1,0,100,0,1
108608,-109.656813167842,4,1,0,100,0,1
108667,-109.787027189835,4,1,0,100,0,1
108787,-110.05013288982,4,1,0,100,0,1
108905,-110.313869125225,4,1,0,100,0,1
109024,-110.580461671604,4,1,0,100,0,1
109144,-110.845468845197,4,1,0,100,0,1
109263,-111.111111111111,4,1,0,100,0,1
109500,-105.409255338946,4,1,0,60,0,1
109714,-90.9090909090909,4,1,0,80,0,1
109743,-90.9090909090909,4,1,0,80,0,0
109773,-100,4,1,0,80,0,0
113548,-100,4,1,0,80,0,0
113785,-102.04246767907,4,1,0,80,0,0
113904,-103.083689479937,4,1,0,80,0,0
114143,-105.207089795568,4,1,0,80,0,0
114262,-106.280602794544,4,1,0,80,0,0
114381,-107.365069714602,4,1,0,80,0,0
114500,-108.460602327456,4,1,0,80,0,0
114738,-110.685317432528,4,1,0,80,0,0
114857,-111.814729217327,4,1,0,80,0,0
115095,-114.108243283461,4,1,0,80,0,0
115214,-115.272581948213,4,1,0,80,0,0
115453,-117.707303636077,4,1,0,80,0,0
115571,-115.501838561276,4,1,0,80,0,0
115690,-113.337696973174,4,1,0,80,0,0
115809,-111.214104599454,4,1,0,80,0,0
115928,-109.13030167523,4,1,0,80,0,0
115988,-108.094496775091,4,1,0,80,0,0
116047,-107.085542671223,4,1,0,80,0,0
116166,-105.079096027031,4,1,0,80,0,0
116405,-101.17828185537,4,1,0,80,0,0
116643,-97.4067925446556,4,1,0,80,0,0
116881,-93.7907945855901,4,1,0,80,0,0
117119,-90.3090320417187,4,1,0,80,0,0
117357,-86.9565217391304,4,1,0,80,0,0
117595,-96.061479346782,4,1,0,80,0,0
117714,-96.4769306487741,4,1,0,80,0,0
117833,-96.8941787145211,4,1,0,80,0,0
117952,-97.3132313147531,4,1,0,80,0,0
118071,-97.7340962538077,4,1,0,80,0,0
118129,-97.9469868010798,4,1,0,80,0,0
118190,-98.1567813697748,4,1,0,80,0,0
118310,-98.5812945346431,4,1,0,80,0,0
118547,-99.4358366694103,4,1,0,80,0,0
118666,-99.8658815541019,4,1,0,80,0,0
118785,-100.297786317576,4,1,0,80,0,0
118904,-100.731559003526,4,1,0,80,0,0
119024,-101.170876575352,4,1,0,80,0,0
119262,-102.047866244164,4,1,0,80,0,0
119319,-102.266444566828,4,1,0,80,0,0
119381,-102.489207759878,4,1,0,80,0,0
119500,-102.932458010588,4,1,0,80,0,0
119619,-103.377625251281,4,1,0,80,0,0
119738,-103.824717772649,4,1,0,80,0,0
119797,-104.04710196839,4,1,0,80,0,0
119857,-104.273743901238,4,1,0,80,0,0
119976,-104.724711999605,4,1,0,80,0,0
120214,-105.632507736895,4,1,0,80,0,0
120272,-105.862603100169,4,1,0,80,0,0
120333,-106.089352282392,4,1,0,80,0,0
120452,-106.548172611133,4,1,0,80,0,0
120571,-107.00897726808,4,1,0,80,0,0
120690,-107.47177483515,4,1,0,80,0,0
120809,-107.936573931378,4,1,0,80,0,0
120928,-108.403383213072,4,1,0,80,0,0
121167,-109.343067145447,4,1,0,80,0,0
121226,-109.58124508229,4,1,0,80,0,0
121285,-109.81595929658,4,1,0,80,0,0
121404,-110.290896634414,4,1,0,80,0,0
121524,-110.771905062986,4,1,0,80,0,0
121643,-111.250976721007,4,1,0,80,0,0
121700,-111.489267366185,4,1,0,80,0,0
121762,-111.732120291155,4,1,0,80,0,0
121881,-112.215344734136,4,1,0,80,0,0
122000,-112.700659049409,4,1,0,80,0,0
122119,-113.188072275354,4,1,0,80,0,0
122238,-113.677593489441,4,1,0,80,0,0
122357,-114.169231808397,4,1,0,80,0,0
122595,-115.158896425146,4,1,0,80,0,0
122714,-115.656941154221,4,1,0,80,0,0
122833,-116.157139851074,4,1,0,80,0,0
122952,-116.659501831286,4,1,0,80,0,0
123071,-117.164036450731,4,1,0,80,0,0
123129,-117.419250514161,4,1,0,80,0,0
123190,-117.670753105743,4,1,0,80,0,0
123309,-118.179661233295,4,1,0,80,0,0
123428,-118.690770311171,4,1,0,80,0,0
123547,-119.204089858148,4,1,0,80,0,0
123605,-119.463747694048,4,1,0,80,0,0
123666,-119.719629434168,4,1,0,80,0,0
123785,-120.237398640521,4,1,0,80,0,0
123904,-120.757407120018,4,1,0,80,0,0
124024,-121.279664557176,4,1,0,80,0,0
124143,-121.80859797459,4,1,0,80,0,0
124202,-122.069502195434,4,1,0,80,0,0
124262,-122.335401652469,4,1,0,80,0,0
124381,-122.864483676208,4,1,0,80,0,0
124500,-123.395853899309,4,1,0,80,0,0
124976,-111.111111111111,4,1,0,80,0,0
125095,-110.826132864576,4,1,0,80,0,0
125214,-110.541885531451,4,1,0,80,0,0
125333,-110.258367237084,4,1,0,80,0,0
125393,-110.115692703653,4,1,0,80,0,0
125452,-109.975576111635,4,1,0,80,0,0
125571,-109.693510290058,4,1,0,80,0,0
125690,-109.412167912089,4,1,0,80,0,0
125809,-109.131547122239,4,1,0,80,0,0
125869,-108.990330696144,4,1,0,80,0,0
125929,-108.851646069774,4,1,0,80,0,0
126047,-108.57246290871,4,1,0,80,0,0
126166,-108.293995797795,4,1,0,80,0,0
126285,-108.0162429005,4,1,0,80,0,0
126349,-107.876469680155,4,1,0,80,0,0
126404,-107.739202385009,4,1,0,80,0,0
126523,-107.4628724242,4,1,0,80,0,0
126643,-107.184938048595,4,1,0,80,0,0
126881,-106.63582637217,4,1,0,80,0,0
127000,-106.362326354814,4,1,0,80,0,0
127119,-106.089527811457,4,1,0,80,0,0
127238,-105.817428942954,4,1,0,80,0,0
127297,-105.682781671929,4,1,0,80,0,0
127357,-105.546027954777,4,1,0,80,0,0
127476,-105.275323057,4,1,0,80,0,0
127595,-105.005312464287,4,1,0,80,0,0
127714,-104.73599439588,4,1,0,80,0,0
127773,-104.602723195054,4,1,0,80,0,0
127834,-104.467367075592,4,1,0,80,0,0
127952,-104.199428731789,4,1,0,80,0,0
128071,-103.93217759738,4,1,0,80,0,0
128131,-103.797689165175,4,1,0,80,0,0
128190,-103.665611909807,4,1,0,80,0,0
128309,-103.399729911035,4,1,0,80,0,0
128428,-103.134529847535,4,1,0,80,0,0
128547,-102.870009970277,4,1,0,80,0,0
128786,-102.343003800782,4,1,0,80,0,0
128904,-102.080514032868,4,1,0,80,0,0
129023,-101.818697499818,4,1,0,80,0,0
129143,-101.555360819193,4,1,0,80,0,0
129202,-101.426136812062,4,1,0,80,0,0
129262,-101.294891201321,4,1,0,80,0,0
129381,-101.035089637024,4,1,0,80,0,0
129500,-100.775954412874,4,1,0,80,0,0
129619,-100.517483819841,4,1,0,80,0,0
129682,-100.389580458156,4,1,0,80,0,0
129738,-100.259676153276,4,1,0,80,0,0
129857,-100.002529712901,4,1,0,80,0,0
129976,-99.7460428028016,4,1,0,80,0,0
130095,-99.4902137314111,4,1,0,80,0,0
130158,-99.3636175184195,4,1,0,80,0,0
130214,-99.2350408115022,4,1,0,80,0,0
130333,-98.9805223601748,4,1,0,80,0,0
130452,-98.7266566988452,4,1,0,80,0,0
130691,-98.2208770533591,4,1,0,80,0,0
130809,-97.9689597335172,4,1,0,80,0,0
130928,-97.71768853228,4,1,0,80,0,0
131047,-97.4670617924798,4,1,0,80,0,0
131111,-97.3409392322191,4,1,0,80,0,0
131166,-97.2170778611992,4,1,0,80,0,0
131285,-96.9677350897601,4,1,0,80,0,0
131404,-96.7190318337132,4,1,0,80,0,0
131643,-96.2214607656967,4,1,0,80,0,0
131766,-95.9746715571845,4,1,0,80,0,0
131885,-95.7285153146755,4,1,0,80,0,0
132004,-95.4829904147358,4,1,0,80,0,0
132123,-95.2380952380952,4,1,0,80,0,0
132560,-71.4285714285714,4,1,0,60,0,0
132595,-111.111111111111,4,1,0,60,0,0
133071,-112.57333828336,4,1,0,60,0,0
133428,-113.682623072357,4,1,0,60,0,0
133548,-114.05794119557,4,1,0,60,0,0
133785,-114.802838626683,4,1,0,60,0,0
134024,-115.558948783012,4,1,0,60,0,0
134262,-116.316843906744,4,1,0,60,0,0
134500,-117.079709697176,4,1,0,60,0,0
134976,-118.62048389272,4,1,0,60,0,0
135333,-119.789356562325,4,1,0,60,0,0
135453,-120.184835794513,4,1,0,60,0,0
135928,-121.763129096684,4,1,0,60,0,0
136166,-122.561714431395,4,1,0,60,0,0
136405,-123.368925804974,4,1,0,60,0,0
136881,-124.992466364683,4,1,0,60,0,0
137238,-126.224127820156,4,1,0,60,0,0
137357,-126.637372790487,4,1,0,60,0,0
137595,-127.467925926621,4,1,0,60,0,0
137833,-128.303926258135,4,1,0,60,0,0
138071,-129.145409510542,4,1,0,60,0,0
138309,-129.992411643663,4,1,0,60,0,0
138785,-131.703117572087,4,1,0,60,0,0
139143,-133.004558177667,4,1,0,60,0,0
139262,-133.440001588109,4,1,0,60,0,0
139738,-135.196077953792,4,1,0,60,0,0
139976,-136.082763487954,4,1,0,60,0,0
140214,-136.975264362682,4,1,0,60,0,0
140690,-138.777864943976,4,1,0,60,0,0
141047,-140.145366139013,4,1,0,60,0,0
141167,-140.608049831338,4,1,0,60,0,0
141404,-141.526342534286,4,1,0,60,0,0
141643,-142.458458031241,4,1,0,60,0,0
141881,-143.392773995632,4,1,0,60,0,0
142119,-144.33321768549,4,1,0,60,0,0
142595,-146.232649260311,4,1,0,60,0,0
142952,-147.673609046641,4,1,0,60,0,0
143072,-148.161146898051,4,1,0,60,0,0
143547,-150.106831178811,4,1,0,60,0,0
143785,-151.091309114855,4,1,0,60,0,0
144024,-152.086421036488,4,1,0,60,0,0
144500,-154.087885112815,4,1,0,60,0,0
144857,-155.606249494034,4,1,0,60,0,0
144976,-156.115688545552,4,1,0,60,0,0
145214,-157.139575664056,4,1,0,60,0,0
145452,-158.170177961803,4,1,0,60,0,0
145690,-159.2075394804,4,1,0,60,0,0
145929,-160.25610621451,4,1,0,60,0,0
146404,-162.360624121434,4,1,0,60,0,0
146762,-163.96501066045,4,1,0,60,0,0
146881,-164.501815446791,4,1,0,60,0,0
147357,-166.666666666667,4,1,0,60,0,0
147809,-105.263157894737,4,1,0,80,0,0
147868,-117.647058823529,4,1,0,80,0,0
154500,-117.647058823529,4,1,0,80,0,0
154976,-112.965302162971,4,1,0,80,0,0
155214,-110.694760596116,4,1,0,80,0,0
155453,-108.460602327456,4,1,0,80,0,0
155690,-106.289670168083,4,1,0,80,0,0
155928,-104.153305199168,4,1,0,80,0,0
156370,-100.011373559931,4,1,0,100,0,0
156405,-100,4,1,0,100,0,0
156524,-99.3219307267954,4,1,0,100,0,0
156643,-98.6484592329835,4,1,0,100,0,0
156762,-97.9795543424349,4,1,0,100,0,0
156881,-97.315185090416,4,1,0,100,0,0
157000,-96.6553207221557,4,1,0,100,0,0
157119,-95.9999306914214,4,1,0,100,0,0
157238,-95.3489846591052,4,1,0,100,0,0
157358,-94.7024524918192,4,1,0,100,0,0
157476,-94.0603042605011,4,1,0,100,0,0
157595,-93.4225102390278,4,1,0,100,0,0
157714,-92.7890409028406,4,1,0,100,0,0
157833,-92.1598669275772,4,1,0,100,0,0
157893,-91.8442559706577,4,1,0,100,0,0
157952,-91.534959187715,4,1,0,100,0,0
158071,-90.9142887552228,4,1,0,100,0,0
158310,-117.641295548152,4,1,0,100,0,0
158314,-99.9979885556315,4,1,0,100,0,1
158429,-100.237634727401,4,1,0,100,0,1
158488,-100.35868242986,4,1,0,100,0,1
158607,-100.599193008078,4,1,0,100,0,1
158667,-100.718651390576,4,1,0,100,0,1
158786,-100.96002463798,4,1,0,100,0,1
158905,-101.201976338766,4,1,0,100,0,1
158964,-101.324188587224,4,1,0,100,0,1
159083,-101.567013010528,4,1,0,100,0,1
159143,-101.689666079947,4,1,0,100,0,1
159262,-101.933366373688,4,1,0,100,0,1
159381,-102.177650697602,4,1,0,100,0,1
159440,-102.298983449036,4,1,0,100,0,1
159559,-102.544143977898,4,1,0,100,0,1
159619,-102.667977037836,4,1,0,100,0,1
159738,-102.914021863495,4,1,0,100,0,1
159857,-103.16065633802,4,1,0,100,0,1
159976,-103.40788187451,4,1,0,100,0,1
160215,-103.904111802726,4,1,0,100,0,1
160333,-104.153119037614,4,1,0,100,0,1
160393,-104.278895107628,4,1,0,100,0,1
160512,-104.528800514425,4,1,0,100,0,1
160571,-104.652925182431,4,1,0,100,0,1
160690,-104.903726956014,4,1,0,100,0,1
160809,-105.155129778535,4,1,0,100,0,1
160869,-105.282115884065,4,1,0,100,0,1
160988,-105.534425519407,4,1,0,100,0,1
161048,-105.659744335526,4,1,0,100,0,1
161167,-105.912958961199,4,1,0,100,0,1
161286,-106.166780418235,4,1,0,100,0,1
161345,-106.294988200492,4,1,0,100,0,1
161464,-106.54972519439,4,1,0,100,0,1
161524,-106.67624964699,4,1,0,100,0,1
161643,-106.934051256679,4,1,0,100,0,1
161762,-107.190319771533,4,1,0,100,0,1
161881,-107.447202436424,4,1,0,100,0,1
162120,-107.962816107118,4,1,0,100,0,1
162238,-108.221550067143,4,1,0,100,0,1
162298,-108.350059759276,4,1,0,100,0,1
162417,-108.609721752556,4,1,0,100,0,1
162476,-108.740879648676,4,1,0,100,0,1
162595,-109.001478245698,4,1,0,100,0,1
162714,-109.262701369844,4,1,0,100,0,1
162774,-109.392447396454,4,1,0,100,0,1
162893,-109.656813167842,4,1,0,100,0,1
162952,-109.787027189835,4,1,0,100,0,1
163072,-110.05013288982,4,1,0,100,0,1
163190,-110.313869125225,4,1,0,100,0,1
163309,-110.578237407135,4,1,0,100,0,1
163429,-110.843239250256,4,1,0,100,0,1
163548,-111.108876172924,4,1,0,100,0,1
163786,-105.409255338946,4,1,0,60,0,1
163999,-90.9090909090909,4,1,0,80,0,1
164028,-90.9090909090909,4,1,0,80,0,0
164059,-100,4,1,0,80,0,0
167834,-100,4,1,0,80,0,0
168071,-102.04246767907,4,1,0,80,0,0
168190,-103.083689479937,4,1,0,80,0,0
168429,-105.207089795568,4,1,0,80,0,0
168548,-106.280602794544,4,1,0,80,0,0
168667,-107.365069714602,4,1,0,80,0,0
168786,-108.460602327456,4,1,0,80,0,0
169024,-110.685317432528,4,1,0,80,0,0
169143,-111.814729217327,4,1,0,80,0,0
169381,-114.108243283461,4,1,0,80,0,0
169500,-115.272581948213,4,1,0,80,0,0
169739,-117.660901282504,4,1,0,80,0,0
169857,-116.62928557404,4,1,0,80,0,0
169976,-115.60671476459,4,1,0,80,0,0
170095,-114.593109551176,4,1,0,80,0,0
170214,-113.588391326123,4,1,0,80,0,0
170274,-113.085156056643,4,1,0,80,0,0
170333,-112.592482170967,4,1,0,80,0,0
170452,-111.605304850409,4,1,0,80,0,0
170691,-109.656840151836,4,1,0,80,0,0
170809,-108.695401665405,4,1,0,80,0,0
170928,-107.742392785025,4,1,0,80,0,0
171047,-106.797739602422,4,1,0,80,0,0
171166,-105.861368857328,4,1,0,80,0,0
171285,-104.933207931802,4,1,0,80,0,0
171404,-104.013184844591,4,1,0,80,0,0
171464,-103.552371001789,4,1,0,80,0,0
171523,-103.101228245556,4,1,0,80,0,0
171643,-102.189704779266,4,1,0,80,0,0
171762,-101.293735909875,4,1,0,80,0,0
171881,-100.405622628449,4,1,0,80,0,0
172000,-99.5252960595333,4,1,0,80,0,0
172119,-98.6526879315538,4,1,0,80,0,0
172238,-97.7877305715215,4,1,0,80,0,0
172357,-96.9303568997835,4,1,0,80,0,0
172416,-96.5080640256429,4,1,0,80,0,0
172476,-96.0805004248216,4,1,0,80,0,0
172595,-90.9090909090909,4,1,0,100,0,0
172600,-95.2380952380952,4,1,0,100,0,1
182119,-95.4653937947494,4,1,0,100,0,1
182356,-97.3251031739496,4,1,0,100,0,1
182475,-98.2718334757826,4,1,0,100,0,1
182714,-100.199769857733,4,1,0,100,0,1
182833,-101.173054514852,4,1,0,100,0,1
182952,-102.155311450207,4,1,0,100,0,1
183071,-103.146613984098,4,1,0,100,0,1
183309,-105.156651206058,4,1,0,100,0,1
183428,-106.175534607782,4,1,0,100,0,1
183666,-108.241405863494,4,1,0,100,0,1
183785,-109.288544893287,4,1,0,100,0,1
184024,-111.43862847275,4,1,0,100,0,1
184261,-107.227642736896,4,1,0,100,0,1
184499,-103.167546004655,4,1,0,100,0,1
184618,-101.192579024104,4,1,0,100,0,1
184737,-99.2535451288224,4,1,0,100,0,1
184856,-97.3520249221183,4,1,0,100,0,1
184914,-96.4117891225564,4,1,0,100,0,1
184976,-95.4653937947494,4,1,0,100,0,1
184981,-95.4653937947494,4,1,0,100,0,0

[HitObjects]
296,169,221,5,0,0:0:0:0:
372,189,340,1,8,0:0:0:0:
296,169,399,1,0,0:0:0:0:
343,172,459,1,8,0:0:0:0:
372,201,578,1,8,0:0:0:0:
384,187,697,1,0,0:0:0:0:
384,187,816,1,0,0:0:0:0:
365,186,935,1,8,0:0:0:0:
424,203,1173,1,0,0:0:0:0:
424,203,1232,1,0,0:0:0:0:
321,184,1292,1,8,0:0:0:0:
321,184,1411,1,8,0:0:0:0:
424,203,1530,1,0,0:0:0:0:
321,184,1649,1,8,0:0:0:0:
335,189,1887,1,8,0:0:0:0:
357,181,2125,1,4,0:0:0:0:
364,201,2363,1,8,0:0:0:0:
372,203,2482,1,0,0:0:0:0:
315,199,2601,1,8,0:0:0:0:
315,199,2661,1,8,0:0:0:0:
408,241,2720,1,0,0:0:0:0:
320,200,2840,1,8,0:0:0:0:
417,215,2959,1,0,0:0:0:0:
370,203,3078,1,8,0:0:0:0:
389,225,3316,1,8,0:0:0:0:
417,215,3435,1,0,0:0:0:0:
338,168,3494,1,0,0:0:0:0:
383,224,3554,1,8,0:0:0:0:
417,215,3673,1,0,0:0:0:0:
304,155,3792,1,8,0:0:0:0:
413,196,3911,1,8,0:0:0:0:
417,215,4030,1,0,0:0:0:0:
373,207,4268,1,8,0:0:0:0:
378,204,4387,1,0,0:0:0:0:
373,207,4506,1,8,0:0:0:0:
304,139,4625,1,8,0:0:0:0:
323,145,4685,1,8,0:0:0:0:
338,165,4744,1,0,0:0:0:0:
352,187,4863,1,8,0:0:0:0:
399,193,4982,1,0,0:0:0:0:
302,201,5220,1,8,0:0:0:0:
385,201,5340,1,0,0:0:0:0:
367,195,5399,1,0,0:0:0:0:
302,201,5459,1,8,0:0:0:0:
385,201,5578,1,0,0:0:0:0:
302,201,5697,1,8,0:0:0:0:
308,183,5816,1,8,0:0:0:0:
362,167,5935,1,0,0:0:0:0:
418,191,6173,1,8,0:0:0:0:
370,172,6292,1,0,0:0:0:0:
367,199,6411,1,8,0:0:0:0:
394,221,6649,1,8,0:0:0:0:
328,223,6768,1,0,0:0:0:0:
346,198,6828,1,0,0:0:0:0:
394,221,6887,1,8,0:0:0:0:
361,195,7006,1,0,0:0:0:0:
385,190,7125,1,8,0:0:0:0:
385,201,7185,1,8,0:0:0:0:
377,210,7244,1,0,0:0:0:0:
385,190,7363,1,8,0:0:0:0:
401,204,7601,1,0,0:0:0:0:
374,175,7720,1,8,0:0:0:0:
352,230,7780,1,8,0:0:0:0:
337,187,7840,1,0,0:0:0:0:
352,230,8078,1,8,0:0:0:0:
371,226,8197,1,0,0:0:0:0:
393,202,8316,1,8,0:0:0:0:
393,202,8554,1,8,0:0:0:0:
399,212,8673,1,8,0:0:0:0:
399,212,8732,1,8,0:0:0:0:
414,203,8792,1,0,0:0:0:0:
318,244,8911,1,8,0:0:0:0:
388,207,9030,1,0,0:0:0:0:
318,244,9149,1,8,0:0:0:0:
397,202,9268,1,0,0:0:0:0:
359,180,9328,1,0,0:0:0:0:
359,180,9387,1,0,0:0:0:0:
408,178,9506,1,8,0:0:0:0:
298,215,9625,1,8,0:0:0:0:
365,199,9744,1,0,0:0:0:0:
364,201,9982,1,8,0:0:0:0:
372,203,10101,1,0,0:0:0:0:
315,199,10220,1,8,0:0:0:0:
315,199,10280,1,8,0:0:0:0:
408,241,10340,1,0,0:0:0:0:
320,200,10459,1,8,0:0:0:0:
417,215,10578,1,0,0:0:0:0:
375,201,10637,1,0,0:0:0:0:
370,203,10697,1,8,0:0:0:0:
389,225,10935,1,8,0:0:0:0:
417,215,11054,1,0,0:0:0:0:
338,168,11113,1,0,0:0:0:0:
383,224,11173,1,8,0:0:0:0:
417,215,11292,1,0,0:0:0:0:
304,155,11411,1,8,0:0:0:0:
376,209,11470,1,0,0:0:0:0:
413,196,11530,1,8,0:0:0:0:
417,215,11649,1,0,0:0:0:0:
373,207,11887,1,8,0:0:0:0:
378,204,12006,1,0,0:0:0:0:
373,207,12125,1,8,0:0:0:0:
304,139,12244,1,8,0:0:0:0:
323,145,12304,1,8,0:0:0:0:
338,165,12363,1,0,0:0:0:0:
352,187,12482,1,8,0:0:0:0:
399,193,12601,1,0,0:0:0:0:
302,201,12840,1,8,0:0:0:0:
385,201,12959,1,0,0:0:0:0:
367,195,13018,1,0,0:0:0:0:
302,201,13078,1,8,0:0:0:0:
385,201,13197,1,0,0:0:0:0:
302,201,13316,1,8,0:0:0:0:
308,183,13435,1,8,0:0:0:0:
362,167,13554,1,0,0:0:0:0:
418,191,13792,1,8,0:0:0:0:
370,172,13911,1,0,0:0:0:0:
367,199,14030,1,8,0:0:0:0:
394,221,14268,1,8,0:0:0:0:
328,223,14387,1,0,0:0:0:0:
346,198,14447,1,0,0:0:0:0:
394,221,14506,1,8,0:0:0:0:
361,195,14625,1,0,0:0:0:0:
385,190,14744,1,8,0:0:0:0:
385,201,14804,1,8,0:0:0:0:
377,210,14863,1,0,0:0:0:0:
385,190,14982,1,8,0:0:0:0:
401,204,15220,5,0,0:0:0:0:
374,175,15340,1,8,0:0:0:0:
352,230,15399,1,8,0:0:0:0:
337,187,15459,1,0,0:0:0:0:
352,230,15697,1,8,0:0:0:0:
371,226,15816,1,0,0:0:0:0:
393,202,15935,1,8,0:0:0:0:
344,199,16173,1,0,0:0:0:0:
391,232,16411,5,8,0:0:0:0:
391,232,16530,1,8,0:0:0:0:
391,232,16649,1,8,0:0:0:0:
391,232,16768,1,8,0:0:0:0:
391,232,16887,1,8,0:0:0:0:
375,207,17125,1,8,0:0:0:0:
375,207,17185,1,8,0:0:0:0:
375,207,17244,1,8,0:0:0:0:
342,226,17363,1,4,0:0:0:0:
356,211,17601,1,8,0:0:0:0:
355,211,17720,1,0,0:0:0:0:
342,214,17959,1,0,0:0:0:0:
334,232,18078,1,8,0:0:0:0:
340,206,18197,1,8,0:0:0:0:
365,205,18256,1,8,0:0:0:0:
342,214,18316,1,0,0:0:0:0:
354,228,18554,1,8,0:0:0:0:
405,199,18673,1,0,0:0:0:0:
392,199,18911,1,0,0:0:0:0:
420,194,19030,1,8,0:0:0:0:
420,194,19149,1,0,0:0:0:0:
392,200,19268,1,0,0:0:0:0:
328,191,19506,1,8,0:0:0:0:
335,223,19625,1,0,0:0:0:0:
335,223,19863,1,0,0:0:0:0:
335,223,19982,1,0,0:0:0:0:
308,194,20101,1,8,0:0:0:0:
370,182,20161,1,8,0:0:0:0:
350,188,20220,1,0,0:0:0:0:
191,234,20459,1,8,0:0:0:0:
389,187,20578,1,0,0:0:0:0:
369,206,20697,1,8,0:0:0:0:
395,189,20756,1,0,0:0:0:0:
368,206,20816,1,8,0:0:0:0:
368,207,20935,1,8,0:0:0:0:
353,249,21173,1,0,0:0:0:0:
407,194,21411,1,8,0:0:0:0:
407,194,21530,1,0,0:0:0:0:
397,194,21768,1,0,0:0:0:0:
369,202,21887,1,8,0:0:0:0:
369,202,22006,1,8,0:0:0:0:
338,191,22066,1,8,0:0:0:0:
298,216,22125,1,0,0:0:0:0:
296,222,22363,1,8,0:0:0:0:
298,216,22482,1,0,0:0:0:0:
335,213,22720,1,0,0:0:0:0:
294,222,22840,1,8,0:0:0:0:
296,222,22959,1,0,0:0:0:0:
364,193,23018,1,8,0:0:0:0:
335,213,23078,1,0,0:0:0:0:
343,211,23316,1,8,0:0:0:0:
335,213,23435,1,0,0:0:0:0:
332,208,23673,1,0,0:0:0:0:
332,208,23792,1,0,0:0:0:0:
342,211,23911,1,8,0:0:0:0:
364,193,23970,1,8,0:0:0:0:
332,208,24030,1,0,0:0:0:0:
332,208,24268,1,8,0:0:0:0:
342,193,24506,1,0,0:0:0:0:
342,193,24625,1,0,0:0:0:0:
342,193,24744,1,0,0:0:0:0:
342,193,24863,1,0,0:0:0:0:
340,201,24982,1,12,0:0:0:0:
395,200,25220,1,8,0:0:0:0:
352,196,25340,1,0,0:0:0:0:
283,189,25459,1,8,0:0:0:0:
283,189,25518,1,8,0:0:0:0:
385,200,25578,1,0,0:0:0:0:
353,222,25697,1,8,0:0:0:0:
366,196,25816,1,8,0:0:0:0:
368,197,25935,1,0,0:0:0:0:
428,194,26173,1,8,0:0:0:0:
318,187,26292,1,0,0:0:0:0:
318,187,26530,1,0,0:0:0:0:
361,191,26649,1,8,0:0:0:0:
412,213,26768,1,0,0:0:0:0:
390,222,26828,1,8,0:0:0:0:
351,219,26887,1,0,0:0:0:0:
310,206,27006,1,0,0:0:0:0:
373,224,27125,1,8,0:0:0:0:
350,216,27244,1,0,0:0:0:0:
373,224,27363,1,8,0:0:0:0:
388,220,27423,1,8,0:0:0:0:
356,215,27482,1,0,0:0:0:0:
302,224,27601,1,8,0:0:0:0:
327,198,27720,1,8,0:0:0:0:
350,216,27840,1,0,0:0:0:0:
367,191,28078,1,8,0:0:0:0:
379,214,28197,1,0,0:0:0:0:
418,229,28435,1,8,0:0:0:0:
328,171,28673,1,0,0:0:0:0:
421,195,28792,1,8,0:0:0:0:
386,211,28851,1,0,0:0:0:0:
344,218,28911,1,0,0:0:0:0:
386,212,29030,1,8,0:0:0:0:
340,228,29149,1,0,0:0:0:0:
304,210,29268,1,8,0:0:0:0:
336,210,29328,1,8,0:0:0:0:
357,229,29387,1,0,0:0:0:0:
364,211,29506,1,8,0:0:0:0:
319,141,29625,1,8,0:0:0:0:
288,112,29744,1,0,0:0:0:0:
383,211,29863,1,0,0:0:0:0:
371,181,29982,1,8,0:0:0:0:
304,185,30101,1,0,0:0:0:0:
371,181,30220,1,8,0:0:0:0:
368,169,30459,1,8,0:0:0:0:
354,185,30578,1,0,0:0:0:0:
368,169,30637,1,8,0:0:0:0:
354,185,30697,1,0,0:0:0:0:
318,199,30816,1,0,0:0:0:0:
349,189,30935,1,8,0:0:0:0:
349,189,31054,1,8,0:0:0:0:
318,199,31173,1,0,0:0:0:0:
369,199,31411,1,8,0:0:0:0:
379,189,31649,1,0,0:0:0:0:
320,176,31768,1,8,0:0:0:0:
379,189,31887,1,0,0:0:0:0:
321,175,32006,1,8,0:0:0:0:
379,189,32125,1,0,0:0:0:0:
395,180,32244,1,0,0:0:0:0:
401,205,32363,1,8,0:0:0:0:
388,214,32423,1,8,0:0:0:0:
388,214,32482,1,8,0:0:0:0:
385,179,32601,1,4,0:0:0:0:
336,192,32840,1,0,0:0:0:0:
369,199,33137,1,8,0:0:0:0:
341,181,33316,1,0,0:0:0:0:
325,187,33435,1,0,0:0:0:0:
349,207,33554,1,8,0:0:0:0:
336,227,33792,1,0,0:0:0:0:
356,221,33970,1,8,0:0:0:0:
331,206,34268,1,0,0:0:0:0:
307,192,34387,1,8,0:0:0:0:
308,228,34506,1,0,0:0:0:0:
366,174,34744,1,0,0:0:0:0:
340,216,35042,1,8,0:0:0:0:
312,205,35220,1,0,0:0:0:0:
313,203,35340,1,0,0:0:0:0:
357,209,35459,1,8,0:0:0:0:
252,210,35816,1,0,0:0:0:0:
313,203,35994,1,8,0:0:0:0:
397,218,36173,1,0,0:0:0:0:
365,188,36292,1,0,0:0:0:0:
320,218,36411,1,0,0:0:0:0:
343,203,36649,1,0,0:0:0:0:
309,194,36828,1,8,0:0:0:0:
337,212,37125,1,8,0:0:0:0:
337,212,37244,1,8,0:0:0:0:
417,196,37363,1,0,0:0:0:0:
409,200,37601,1,0,0:0:0:0:
308,195,37899,1,8,0:0:0:0:
373,209,38078,1,0,0:0:0:0:
288,198,38197,1,8,0:0:0:0:
373,209,38316,1,0,0:0:0:0:
373,209,38554,1,0,0:0:0:0:
303,197,38732,1,8,0:0:0:0:
380,190,39030,1,0,0:0:0:0:
272,231,39149,1,0,0:0:0:0:
289,196,39268,1,8,0:0:0:0:
256,192,39387,12,8,39982,0:0:0:0:
376,206,40220,5,0,0:0:0:0:
376,206,40340,1,0,0:0:0:0:
347,189,40459,1,8,0:0:0:0:
376,206,40578,1,0,0:0:0:0:
376,206,40697,1,0,0:0:0:0:
388,207,40816,1,8,0:0:0:0:
362,214,40935,1,0,0:0:0:0:
388,207,41054,1,8,0:0:0:0:
344,213,41173,1,0,0:0:0:0:
344,212,41292,1,0,0:0:0:0:
319,209,41411,1,8,0:0:0:0:
341,200,41530,1,0,0:0:0:0:
332,205,41649,1,8,0:0:0:0:
332,205,41709,1,8,0:0:0:0:
388,207,41768,1,8,0:0:0:0:
332,205,41887,1,0,0:0:0:0:
314,197,42125,1,8,0:0:0:0:
321,178,42244,1,0,0:0:0:0:
314,197,42304,1,8,0:0:0:0:
321,178,42423,1,0,0:0:0:0:
314,197,42482,1,8,0:0:0:0:
298,177,42601,1,0,0:0:0:0:
374,188,42720,1,8,0:0:0:0:
298,176,42780,1,0,0:0:0:0:
399,172,42899,1,8,0:0:0:0:
298,176,42959,1,0,0:0:0:0:
382,180,43078,1,8,0:0:0:0:
400,195,43197,1,0,0:0:0:0:
371,207,43256,1,8,0:0:0:0:
400,195,43375,1,0,0:0:0:0:
371,207,43435,1,8,0:0:0:0:
406,200,43554,1,0,0:0:0:0:
406,200,43673,1,8,0:0:0:0:
406,200,43792,1,0,0:0:0:0:
373,199,44030,1,8,0:0:0:0:
345,187,44149,1,0,0:0:0:0:
354,195,44209,1,8,0:0:0:0:
380,199,44328,1,0,0:0:0:0:
354,195,44387,1,8,0:0:0:0:
311,199,44506,1,0,0:0:0:0:
336,198,44625,1,8,0:0:0:0:
311,199,44685,1,0,0:0:0:0:
336,198,44804,1,8,0:0:0:0:
311,199,44863,1,0,0:0:0:0:
336,198,44982,1,8,0:0:0:0:
354,180,45101,1,0,0:0:0:0:
328,195,45161,1,8,0:0:0:0:
354,180,45280,1,0,0:0:0:0:
328,196,45340,1,8,0:0:0:0:
336,198,45459,1,0,0:0:0:0:
338,195,45578,1,0,0:0:0:0:
379,192,45697,1,8,0:0:0:0:
413,181,45935,1,8,0:0:0:0:
366,177,46054,1,0,0:0:0:0:
389,183,46113,1,8,0:0:0:0:
366,177,46232,1,0,0:0:0:0:
389,183,46292,1,8,0:0:0:0:
366,176,46411,1,0,0:0:0:0:
350,187,46530,1,8,0:0:0:0:
369,207,46590,1,0,0:0:0:0:
350,189,46709,1,8,0:0:0:0:
387,209,46768,1,0,0:0:0:0:
427,207,46887,1,8,0:0:0:0:
324,234,47006,1,8,0:0:0:0:
342,193,47125,1,8,0:0:0:0:
379,213,47244,1,8,0:0:0:0:
371,189,47363,1,0,0:0:0:0:
329,230,47601,5,8,0:0:0:0:
341,186,47840,1,4,0:0:0:0:
362,196,48078,1,8,0:0:0:0:
322,203,48197,1,0,0:0:0:0:
373,211,48316,1,8,0:0:0:0:
282,214,48375,1,0,0:0:0:0:
280,202,48435,1,0,0:0:0:0:
344,226,48554,1,8,0:0:0:0:
406,204,48673,1,8,0:0:0:0:
405,178,48792,1,0,0:0:0:0:
333,223,49030,1,8,0:0:0:0:
282,212,49149,1,0,0:0:0:0:
297,209,49268,1,8,0:0:0:0:
333,223,49387,1,0,0:0:0:0:
301,189,49447,1,8,0:0:0:0:
235,245,49506,1,0,0:0:0:0:
235,245,49625,1,0,0:0:0:0:
369,227,49744,1,8,0:0:0:0:
372,212,49982,1,0,0:0:0:0:
344,210,50101,1,8,0:0:0:0:
386,217,50220,1,0,0:0:0:0:
386,217,50280,1,0,0:0:0:0:
344,210,50340,1,8,0:0:0:0:
194,205,50459,1,0,0:0:0:0:
346,220,50578,1,8,0:0:0:0:
330,226,50697,1,0,0:0:0:0:
342,215,50935,1,8,0:0:0:0:
344,200,51054,1,0,0:0:0:0:
342,215,51173,1,8,0:0:0:0:
320,190,51292,1,8,0:0:0:0:
342,215,51351,1,8,0:0:0:0:
344,200,51411,1,0,0:0:0:0:
344,200,51530,1,0,0:0:0:0:
380,228,51649,1,8,0:0:0:0:
360,212,51887,1,0,0:0:0:0:
334,223,52006,1,8,0:0:0:0:
289,218,52244,1,0,0:0:0:0:
325,227,52363,1,8,0:0:0:0:
325,227,52482,1,8,0:0:0:0:
282,210,52601,1,0,0:0:0:0:
338,223,52840,1,8,0:0:0:0:
409,221,52959,1,8,0:0:0:0:
358,212,53197,1,0,0:0:0:0:
378,221,53316,1,8,0:0:0:0:
361,218,53554,1,0,0:0:0:0:
361,218,53673,1,0,0:0:0:0:
392,203,53792,1,8,0:0:0:0:
359,205,53911,1,0,0:0:0:0:
389,203,54030,1,8,0:0:0:0:
389,203,54090,1,8,0:0:0:0:
385,194,54149,1,0,0:0:0:0:
397,199,54268,1,8,0:0:0:0:
235,126,54506,1,4,0:0:0:0:
364,201,54744,1,8,0:0:0:0:
372,203,54863,1,0,0:0:0:0:
315,199,54982,1,8,0:0:0:0:
315,199,55042,1,8,0:0:0:0:
408,241,55101,1,0,0:0:0:0:
320,200,55220,1,8,0:0:0:0:
417,215,55340,1,0,0:0:0:0:
370,203,55459,1,8,0:0:0:0:
389,225,55697,1,8,0:0:0:0:
417,215,55816,1,0,0:0:0:0:
338,168,55875,1,0,0:0:0:0:
383,224,55935,1,8,0:0:0:0:
417,215,56054,1,0,0:0:0:0:
304,155,56173,1,8,0:0:0:0:
413,196,56292,1,8,0:0:0:0:
417,215,56411,1,0,0:0:0:0:
373,207,56649,1,8,0:0:0:0:
378,204,56768,1,0,0:0:0:0:
373,207,56887,1,8,0:0:0:0:
304,139,57006,1,8,0:0:0:0:
323,145,57066,1,8,0:0:0:0:
338,165,57125,1,0,0:0:0:0:
352,187,57244,1,8,0:0:0:0:
399,193,57363,1,0,0:0:0:0:
302,201,57601,1,8,0:0:0:0:
385,201,57720,1,0,0:0:0:0:
367,195,57780,1,0,0:0:0:0:
302,201,57840,1,8,0:0:0:0:
385,201,57959,1,0,0:0:0:0:
302,201,58078,1,8,0:0:0:0:
308,183,58197,1,8,0:0:0:0:
362,167,58316,1,0,0:0:0:0:
418,191,58554,1,8,0:0:0:0:
370,172,58673,1,0,0:0:0:0:
367,199,58792,1,8,0:0:0:0:
394,221,59030,1,8,0:0:0:0:
328,223,59149,1,0,0:0:0:0:
346,198,59209,1,0,0:0:0:0:
394,221,59268,1,8,0:0:0:0:
361,195,59387,1,0,0:0:0:0:
385,190,59506,1,8,0:0:0:0:
385,201,59566,1,8,0:0:0:0:
377,210,59625,1,0,0:0:0:0:
385,190,59744,1,8,0:0:0:0:
401,204,59982,1,0,0:0:0:0:
374,175,60101,1,8,0:0:0:0:
352,230,60161,1,8,0:0:0:0:
337,187,60220,1,0,0:0:0:0:
352,230,60459,1,8,0:0:0:0:
371,226,60578,1,0,0:0:0:0:
393,202,60697,1,8,0:0:0:0:
393,202,60935,1,8,0:0:0:0:
399,212,61054,1,8,0:0:0:0:
399,212,61113,1,8,0:0:0:0:
414,203,61173,1,0,0:0:0:0:
318,244,61292,1,8,0:0:0:0:
388,207,61411,1,0,0:0:0:0:
318,244,61530,1,8,0:0:0:0:
397,202,61649,1,0,0:0:0:0:
359,180,61709,1,0,0:0:0:0:
359,180,61768,1,0,0:0:0:0:
408,178,61887,1,8,0:0:0:0:
298,215,62006,1,8,0:0:0:0:
365,199,62125,1,0,0:0:0:0:
364,201,62363,1,8,0:0:0:0:
372,203,62482,1,0,0:0:0:0:
315,199,62601,1,8,0:0:0:0:
315,199,62661,1,8,0:0:0:0:
408,241,62720,1,0,0:0:0:0:
320,200,62840,1,8,0:0:0:0:
417,215,62959,1,0,0:0:0:0:
375,201,63018,1,0,0:0:0:0:
370,203,63078,1,8,0:0:0:0:
389,225,63316,1,8,0:0:0:0:
417,215,63435,1,0,0:0:0:0:
338,168,63494,1,0,0:0:0:0:
383,224,63554,1,8,0:0:0:0:
417,215,63673,1,0,0:0:0:0:
304,155,63792,1,8,0:0:0:0:
376,209,63851,1,0,0:0:0:0:
413,196,63911,1,8,0:0:0:0:
417,215,64030,1,0,0:0:0:0:
373,207,64268,1,8,0:0:0:0:
378,204,64387,1,0,0:0:0:0:
373,207,64506,1,8,0:0:0:0:
304,139,64625,1,8,0:0:0:0:
323,145,64685,1,8,0:0:0:0:
338,165,64744,1,0,0:0:0:0:
352,187,64863,1,8,0:0:0:0:
399,193,64982,1,0,0:0:0:0:
302,201,65220,1,8,0:0:0:0:
385,201,65340,1,0,0:0:0:0:
367,195,65399,1,0,0:0:0:0:
302,201,65459,1,8,0:0:0:0:
385,201,65578,1,0,0:0:0:0:
302,201,65697,1,8,0:0:0:0:
308,183,65816,1,8,0:0:0:0:
362,167,65935,1,0,0:0:0:0:
418,191,66173,1,8,0:0:0:0:
370,172,66292,1,0,0:0:0:0:
367,199,66411,1,8,0:0:0:0:
394,221,66649,1,8,0:0:0:0:
328,223,66768,1,0,0:0:0:0:
346,198,66828,1,0,0:0:0:0:
394,221,66887,1,8,0:0:0:0:
361,195,67006,1,0,0:0:0:0:
385,190,67125,1,8,0:0:0:0:
385,201,67185,1,8,0:0:0:0:
377,210,67244,1,0,0:0:0:0:
385,190,67363,1,8,0:0:0:0:
401,204,67601,5,0,0:0:0:0:
374,175,67720,1,8,0:0:0:0:
352,230,67780,1,8,0:0:0:0:
337,187,67840,1,0,0:0:0:0:
352,230,68078,1,8,0:0:0:0:
371,226,68197,1,0,0:0:0:0:
393,202,68316,1,8,0:0:0:0:
344,199,68554,5,0,0:0:0:0:
391,232,68792,5,8,0:0:0:0:
391,232,68911,1,8,0:0:0:0:
391,232,69030,1,8,0:0:0:0:
391,232,69149,1,8,0:0:0:0:
391,232,69268,1,8,0:0:0:0:
375,207,69506,1,8,0:0:0:0:
375,207,69566,1,8,0:0:0:0:
375,207,69625,1,8,0:0:0:0:
342,226,69744,5,4,0:0:0:0:
329,199,70220,1,8,0:0:0:0:
414,187,70459,1,0,0:0:0:0:
414,187,70578,1,0,0:0:0:0:
329,199,70697,1,8,0:0:0:0:
329,199,70816,1,8,0:0:0:0:
369,174,70935,1,0,0:0:0:0:
372,191,71173,1,8,0:0:0:0:
395,184,71649,1,0,0:0:0:0:
354,192,72125,1,8,0:0:0:0:
359,170,72363,1,0,0:0:0:0:
354,192,72482,1,8,0:0:0:0:
359,170,72601,1,0,0:0:0:0:
354,192,72720,1,8,0:0:0:0:
359,170,72840,1,0,0:0:0:0:
355,176,73078,1,8,0:0:0:0:
319,169,73554,1,0,0:0:0:0:
423,224,74030,1,8,0:0:0:0:
384,195,74268,1,0,0:0:0:0:
365,207,74387,1,8,0:0:0:0:
365,207,74506,1,8,0:0:0:0:
365,207,74625,1,8,0:0:0:0:
384,195,74744,1,0,0:0:0:0:
374,193,74982,1,8,0:0:0:0:
311,201,75459,1,0,0:0:0:0:
362,180,75935,1,8,0:0:0:0:
251,206,76173,1,0,0:0:0:0:
251,206,76292,1,0,0:0:0:0:
324,194,76411,1,8,0:0:0:0:
251,206,76530,1,0,0:0:0:0:
251,206,76649,1,0,0:0:0:0:
352,206,76887,1,8,0:0:0:0:
365,163,77363,1,0,0:0:0:0:
348,181,77840,1,8,0:0:0:0:
334,186,78078,1,0,0:0:0:0:
334,186,78197,1,0,0:0:0:0:
298,194,78316,1,8,0:0:0:0:
298,194,78435,1,8,0:0:0:0:
334,186,78554,1,0,0:0:0:0:
376,183,78792,1,8,0:0:0:0:
309,175,79268,1,0,0:0:0:0:
345,188,79744,1,8,0:0:0:0:
420,176,79982,1,0,0:0:0:0:
345,188,80101,1,8,0:0:0:0:
420,176,80220,1,0,0:0:0:0:
345,188,80340,1,8,0:0:0:0:
420,176,80459,1,0,0:0:0:0:
384,183,80697,1,8,0:0:0:0:
369,164,81173,1,0,0:0:0:0:
419,161,81649,1,8,0:0:0:0:
389,185,81887,1,0,0:0:0:0:
333,167,82006,1,8,0:0:0:0:
333,167,82125,1,8,0:0:0:0:
333,167,82244,1,8,0:0:0:0:
389,185,82363,1,0,0:0:0:0:
404,200,82601,1,8,0:0:0:0:
373,200,83078,1,0,0:0:0:0:
400,192,83554,1,8,0:0:0:0:
409,188,83792,1,0,0:0:0:0:
409,188,83911,1,0,0:0:0:0:
388,195,84030,1,8,0:0:0:0:
409,188,84149,1,0,0:0:0:0:
409,188,84268,1,0,0:0:0:0:
403,197,84506,1,8,0:0:0:0:
451,184,84982,1,8,0:0:0:0:
420,181,85220,1,4,0:0:0:0:
356,211,85458,1,8,0:0:0:0:
355,211,85577,1,0,0:0:0:0:
342,214,85815,1,0,0:0:0:0:
334,232,85934,1,8,0:0:0:0:
340,206,86053,1,8,0:0:0:0:
365,205,86112,1,8,0:0:0:0:
342,214,86172,1,0,0:0:0:0:
354,228,86410,1,8,0:0:0:0:
405,199,86529,1,0,0:0:0:0:
392,199,86767,1,0,0:0:0:0:
420,194,86886,1,8,0:0:0:0:
420,194,87005,1,0,0:0:0:0:
392,200,87124,1,0,0:0:0:0:
328,191,87362,1,8,0:0:0:0:
335,223,87481,1,0,0:0:0:0:
335,223,87720,1,0,0:0:0:0:
335,223,87839,1,0,0:0:0:0:
308,194,87958,1,8,0:0:0:0:
370,182,88017,1,8,0:0:0:0:
350,188,88077,1,0,0:0:0:0:
191,234,88315,1,8,0:0:0:0:
389,187,88434,1,0,0:0:0:0:
369,206,88553,1,8,0:0:0:0:
395,189,88612,1,0,0:0:0:0:
368,206,88672,1,8,0:0:0:0:
368,207,88791,1,8,0:0:0:0:
353,249,89029,1,0,0:0:0:0:
407,194,89267,1,8,0:0:0:0:
407,194,89386,1,0,0:0:0:0:
397,194,89624,1,0,0:0:0:0:
369,202,89743,1,8,0:0:0:0:
369,202,89862,1,8,0:0:0:0:
338,191,89922,1,8,0:0:0:0:
298,216,89981,1,0,0:0:0:0:
296,222,90220,1,8,0:0:0:0:
298,216,90339,1,0,0:0:0:0:
335,213,90577,1,0,0:0:0:0:
294,222,90696,1,8,0:0:0:0:
296,222,90815,1,0,0:0:0:0:
364,193,90874,1,8,0:0:0:0:
335,213,90934,1,0,0:0:0:0:
343,211,91172,1,8,0:0:0:0:
335,213,91291,1,0,0:0:0:0:
332,208,91529,1,0,0:0:0:0:
332,208,91648,1,0,0:0:0:0:
342,211,91767,1,8,0:0:0:0:
364,193,91827,1,8,0:0:0:0:
332,208,91886,1,0,0:0:0:0:
332,208,92124,1,8,0:0:0:0:
397,193,92362,1,0,0:0:0:0:
407,194,92481,1,0,0:0:0:0:
339,207,92600,1,0,0:0:0:0:
339,207,92720,1,0,0:0:0:0:
394,201,92839,1,12,0:0:0:0:
355,207,93077,1,8,0:0:0:0:
306,194,93196,1,0,0:0:0:0:
358,195,93315,1,8,0:0:0:0:
358,195,93374,1,8,0:0:0:0:
329,207,93434,1,0,0:0:0:0:
345,198,93553,1,8,0:0:0:0:
300,210,93672,1,0,0:0:0:0:
345,198,93791,1,8,0:0:0:0:
277,203,94029,1,0,0:0:0:0:
345,188,94148,1,8,0:0:0:0:
306,194,94267,1,0,0:0:0:0:
391,172,94327,1,8,0:0:0:0:
345,198,94386,1,0,0:0:0:0:
325,183,94505,1,8,0:0:0:0:
426,193,94624,1,0,0:0:0:0:
325,183,94743,1,8,0:0:0:0:
377,203,94981,1,8,0:0:0:0:
377,203,95100,1,8,0:0:0:0:
325,188,95220,1,0,0:0:0:0:
396,193,95279,1,0,0:0:0:0:
396,193,95339,1,0,0:0:0:0:
377,203,95458,1,8,0:0:0:0:
377,203,95577,1,8,0:0:0:0:
325,188,95696,1,0,0:0:0:0:
357,177,95934,1,8,0:0:0:0:
366,209,95993,1,0,0:0:0:0:
359,167,96053,1,8,0:0:0:0:
252,196,96172,1,0,0:0:0:0:
377,203,96291,1,8,0:0:0:0:
286,183,96410,1,0,0:0:0:0:
388,148,96529,1,0,0:0:0:0:
378,164,96648,1,8,0:0:0:0:
274,153,96886,1,8,0:0:0:0:
274,153,97005,1,0,0:0:0:0:
274,153,97065,1,0,0:0:0:0:
337,194,97124,1,8,0:0:0:0:
333,157,97243,1,0,0:0:0:0:
320,203,97362,1,8,0:0:0:0:
349,231,97481,1,8,0:0:0:0:
372,192,97600,1,0,0:0:0:0:
280,233,97720,1,8,0:0:0:0:
372,192,97839,1,0,0:0:0:0:
354,238,97898,1,0,0:0:0:0:
354,238,97958,1,0,0:0:0:0:
285,96,98077,1,8,0:0:0:0:
363,209,98315,1,8,0:0:0:0:
383,204,98434,1,0,0:0:0:0:
365,219,98553,1,8,0:0:0:0:
339,211,98672,1,0,0:0:0:0:
339,211,98731,1,0,0:0:0:0:
357,205,98791,1,8,0:0:0:0:
357,205,98910,1,8,0:0:0:0:
368,203,99029,1,0,0:0:0:0:
368,203,99148,1,0,0:0:0:0:
368,203,99267,1,8,0:0:0:0:
358,205,99505,1,0,0:0:0:0:
406,201,99624,1,8,0:0:0:0:
358,205,99743,1,0,0:0:0:0:
406,201,99862,1,8,0:0:0:0:
358,205,99981,1,0,0:0:0:0:
363,206,100100,1,0,0:0:0:0:
423,197,100220,1,8,0:0:0:0:
423,197,100279,1,8,0:0:0:0:
423,197,100339,1,8,0:0:0:0:
362,201,102362,1,0,0:0:0:0:
362,201,102481,1,0,0:0:0:0:
382,204,102600,1,8,0:0:0:0:
362,201,102720,1,0,0:0:0:0:
362,201,102839,1,0,0:0:0:0:
368,206,102958,1,8,0:0:0:0:
362,201,103077,1,0,0:0:0:0:
368,206,103196,1,8,0:0:0:0:
362,201,103315,1,0,0:0:0:0:
362,201,103434,1,0,0:0:0:0:
392,205,103553,1,0,0:0:0:0:
392,205,103612,1,0,0:0:0:0:
383,204,103672,1,8,0:0:0:0:
362,201,103791,1,0,0:0:0:0:
314,197,104029,1,8,0:0:0:0:
321,178,104148,1,0,0:0:0:0:
314,197,104207,1,8,0:0:0:0:
321,178,104326,1,0,0:0:0:0:
314,197,104386,1,8,0:0:0:0:
298,177,104505,1,0,0:0:0:0:
374,188,104624,1,8,0:0:0:0:
298,176,104683,1,0,0:0:0:0:
399,172,104802,1,8,0:0:0:0:
298,176,104862,1,0,0:0:0:0:
382,180,104981,1,8,0:0:0:0:
400,195,105100,1,0,0:0:0:0:
371,207,105159,1,8,0:0:0:0:
400,195,105279,1,0,0:0:0:0:
371,207,105338,1,8,0:0:0:0:
406,200,105457,1,0,0:0:0:0:
373,200,105576,1,8,0:0:0:0:
373,200,105695,1,0,0:0:0:0:
373,199,105933,1,8,0:0:0:0:
345,187,106052,1,0,0:0:0:0:
354,195,106112,1,8,0:0:0:0:
380,199,106231,1,0,0:0:0:0:
354,195,106290,1,8,0:0:0:0:
311,199,106409,1,0,0:0:0:0:
336,198,106529,1,8,0:0:0:0:
311,199,106588,1,0,0:0:0:0:
336,198,106707,1,8,0:0:0:0:
311,199,106767,1,0,0:0:0:0:
336,198,106886,1,8,0:0:0:0:
354,180,107005,1,0,0:0:0:0:
328,195,107064,1,8,0:0:0:0:
354,180,107183,1,0,0:0:0:0:
328,196,107243,1,8,0:0:0:0:
336,198,107362,1,0,0:0:0:0:
336,198,107481,1,0,0:0:0:0:
345,207,107600,1,8,0:0:0:0:
413,181,107838,1,8,0:0:0:0:
366,177,107957,1,0,0:0:0:0:
389,183,108017,1,8,0:0:0:0:
366,177,108136,1,0,0:0:0:0:
389,183,108195,5,8,0:0:0:0:
366,176,108314,5,0,0:0:0:0:
350,187,108433,1,8,0:0:0:0:
369,207,108493,1,0,0:0:0:0:
350,189,108612,1,8,0:0:0:0:
387,209,108671,1,0,0:0:0:0:
427,207,108790,1,8,0:0:0:0:
324,234,108909,1,8,0:0:0:0:
342,193,109029,1,8,0:0:0:0:
371,189,109148,1,8,0:0:0:0:
379,213,109267,1,0,0:0:0:0:
398,204,109505,1,8,0:0:0:0:
341,186,109743,1,4,0:0:0:0:
362,196,109981,1,8,0:0:0:0:
322,203,110100,1,0,0:0:0:0:
373,211,110219,1,8,0:0:0:0:
282,214,110279,1,0,0:0:0:0:
280,202,110338,1,0,0:0:0:0:
344,226,110457,1,8,0:0:0:0:
406,204,110576,1,8,0:0:0:0:
405,178,110695,1,0,0:0:0:0:
333,223,110933,1,8,0:0:0:0:
282,212,111052,1,0,0:0:0:0:
297,209,111171,1,8,0:0:0:0:
333,223,111290,1,0,0:0:0:0:
301,189,111350,1,8,0:0:0:0:
235,245,111409,1,0,0:0:0:0:
235,245,111529,1,0,0:0:0:0:
369,227,111648,1,8,0:0:0:0:
372,212,111886,1,0,0:0:0:0:
344,210,112005,1,8,0:0:0:0:
386,217,112124,1,0,0:0:0:0:
386,217,112183,1,0,0:0:0:0:
344,210,112243,1,8,0:0:0:0:
194,205,112362,1,0,0:0:0:0:
346,220,112481,1,8,0:0:0:0:
330,226,112600,1,0,0:0:0:0:
342,215,112838,1,8,0:0:0:0:
344,200,112957,1,0,0:0:0:0:
342,215,113076,1,8,0:0:0:0:
320,190,113195,1,8,0:0:0:0:
342,215,113255,1,8,0:0:0:0:
344,200,113314,1,0,0:0:0:0:
344,200,113433,1,0,0:0:0:0:
380,228,113552,1,8,0:0:0:0:
360,212,113790,1,0,0:0:0:0:
334,223,113909,1,8,0:0:0:0:
289,218,114148,1,0,0:0:0:0:
325,227,114267,1,8,0:0:0:0:
325,227,114386,1,8,0:0:0:0:
282,210,114505,1,0,0:0:0:0:
338,223,114743,1,8,0:0:0:0:
409,221,114862,1,8,0:0:0:0:
358,212,115100,1,0,0:0:0:0:
378,221,115219,1,8,0:0:0:0:
361,218,115457,5,0,0:0:0:0:
361,218,115576,1,0,0:0:0:0:
392,203,115695,1,8,0:0:0:0:
359,205,115814,1,0,0:0:0:0:
389,203,115933,1,8,0:0:0:0:
389,203,115993,1,8,0:0:0:0:
385,194,116052,1,0,0:0:0:0:
397,199,116171,1,8,0:0:0:0:
385,207,116409,1,8,0:0:0:0:
371,218,116648,1,8,0:0:0:0:
371,218,116886,1,8,0:0:0:0:
366,188,117124,1,12,0:0:0:0:
329,216,117362,1,4,0:0:0:0:
283,201,117600,1,8,0:0:0:0:
366,188,117719,1,0,0:0:0:0:
378,203,117838,1,0,0:0:0:0:
297,171,117957,1,0,0:0:0:0:
367,199,118076,1,8,0:0:0:0:
442,172,118136,1,8,0:0:0:0:
391,179,118195,1,0,0:0:0:0:
383,214,118314,1,8,0:0:0:0:
385,176,118552,1,0,0:0:0:0:
395,207,118671,1,8,0:0:0:0:
379,200,118790,1,0,0:0:0:0:
436,197,118909,1,0,0:0:0:0:
359,156,119029,1,8,0:0:0:0:
413,207,119267,1,8,0:0:0:0:
413,207,119326,1,8,0:0:0:0:
412,207,119386,1,8,0:0:0:0:
431,210,119505,1,0,0:0:0:0:
434,210,119624,1,0,0:0:0:0:
392,190,119743,1,8,0:0:0:0:
392,190,119802,1,8,0:0:0:0:
412,193,119862,1,0,0:0:0:0:
392,190,119981,1,8,0:0:0:0:
403,203,120219,1,0,0:0:0:0:
421,200,120278,1,0,0:0:0:0:
421,200,120338,1,0,0:0:0:0:
448,193,120457,1,8,0:0:0:0:
432,207,120576,1,0,0:0:0:0:
391,192,120695,1,8,0:0:0:0:
280,191,120814,1,8,0:0:0:0:
338,209,120933,1,0,0:0:0:0:
347,201,121171,1,8,0:0:0:0:
388,220,121231,1,0,0:0:0:0:
359,219,121290,1,8,0:0:0:0:
396,206,121409,1,0,0:0:0:0:
364,221,121529,1,0,0:0:0:0:
369,206,121648,1,8,0:0:0:0:
369,206,121707,1,8,0:0:0:0:
369,206,121767,1,8,0:0:0:0:
371,226,121886,1,0,0:0:0:0:
408,229,122005,1,8,0:0:0:0:
296,239,122124,1,0,0:0:0:0:
296,239,122243,1,0,0:0:0:0:
408,229,122362,1,8,0:0:0:0:
329,193,122600,1,8,0:0:0:0:
296,239,122719,1,0,0:0:0:0:
329,193,122838,1,8,0:0:0:0:
329,193,122957,1,8,0:0:0:0:
337,203,123076,1,0,0:0:0:0:
338,203,123136,1,0,0:0:0:0:
338,203,123195,1,0,0:0:0:0:
325,207,123314,1,8,0:0:0:0:
354,197,123433,1,0,0:0:0:0:
361,174,123552,1,8,0:0:0:0:
388,190,123612,1,0,0:0:0:0:
361,174,123671,1,8,0:0:0:0:
388,190,123790,1,0,0:0:0:0:
385,200,123909,1,0,0:0:0:0:
309,188,124028,1,8,0:0:0:0:
372,204,124148,1,0,0:0:0:0:
372,204,124207,1,0,0:0:0:0:
293,216,124267,1,8,0:0:0:0:
372,204,124386,1,0,0:0:0:0:
293,216,124505,1,8,0:0:0:0:
382,213,124981,1,8,0:0:0:0:
394,214,125100,1,0,0:0:0:0:
383,199,125219,1,8,0:0:0:0:
320,208,125338,1,0,0:0:0:0:
382,213,125398,1,0,0:0:0:0:
323,204,125457,1,8,0:0:0:0:
325,191,125576,1,0,0:0:0:0:
323,204,125695,1,8,0:0:0:0:
326,191,125814,1,0,0:0:0:0:
300,159,125874,1,8,0:0:0:0:
323,204,125933,1,8,0:0:0:0:
325,191,126052,1,0,0:0:0:0:
354,213,126171,1,8,0:0:0:0:
337,204,126290,1,0,0:0:0:0:
323,174,126350,1,0,0:0:0:0:
354,213,126409,1,8,0:0:0:0:
314,198,126528,1,0,0:0:0:0:
354,213,126648,1,8,0:0:0:0:
266,214,126886,1,8,0:0:0:0:
285,201,127005,1,0,0:0:0:0:
266,214,127124,1,8,0:0:0:0:
285,201,127243,1,0,0:0:0:0:
285,201,127302,1,0,0:0:0:0:
266,214,127362,1,8,0:0:0:0:
310,204,127481,1,0,0:0:0:0:
320,199,127600,1,8,0:0:0:0:
310,204,127719,1,0,0:0:0:0:
380,168,127778,1,8,0:0:0:0:
320,199,127838,1,8,0:0:0:0:
339,217,127957,1,0,0:0:0:0:
320,199,128076,1,8,0:0:0:0:
314,200,128136,1,0,0:0:0:0:
365,194,128195,1,0,0:0:0:0:
339,200,128314,1,8,0:0:0:0:
319,166,128433,1,0,0:0:0:0:
342,200,128552,1,8,0:0:0:0:
329,203,128790,1,8,0:0:0:0:
376,209,128909,1,0,0:0:0:0:
324,212,129028,1,8,0:0:0:0:
376,209,129148,1,0,0:0:0:0:
376,209,129207,1,0,0:0:0:0:
324,212,129267,1,8,0:0:0:0:
376,209,129386,1,0,0:0:0:0:
346,226,129505,1,8,0:0:0:0:
334,204,129624,1,0,0:0:0:0:
241,80,129683,1,8,0:0:0:0:
325,201,129743,1,8,0:0:0:0:
314,187,129862,1,0,0:0:0:0:
324,201,129981,1,8,0:0:0:0:
346,195,130100,1,0,0:0:0:0:
346,148,130159,1,0,0:0:0:0:
378,198,130219,1,8,0:0:0:0:
401,200,130338,1,0,0:0:0:0:
378,198,130457,1,8,0:0:0:0:
357,206,130695,1,8,0:0:0:0:
401,200,130814,1,0,0:0:0:0:
378,198,130933,1,8,0:0:0:0:
356,207,131052,1,0,0:0:0:0:
311,149,131112,1,0,0:0:0:0:
376,198,131171,1,8,0:0:0:0:
357,206,131290,1,0,0:0:0:0:
384,204,131409,1,8,0:0:0:0:
356,207,131648,1,8,0:0:0:0:
356,207,131767,1,8,0:0:0:0:
352,206,131886,1,8,0:0:0:0:
357,206,132005,1,8,0:0:0:0:
356,207,132124,1,8,0:0:0:0:
312,200,132600,1,0,0:0:0:0:
361,195,133076,1,8,0:0:0:0:
388,192,133433,1,0,0:0:0:0:
388,192,133552,1,0,0:0:0:0:
414,189,133790,1,0,0:0:0:0:
388,183,134029,1,8,0:0:0:0:
367,161,134267,1,0,0:0:0:0:
373,161,134505,1,0,0:0:0:0:
402,194,134981,1,8,0:0:0:0:
348,206,135338,1,0,0:0:0:0:
359,204,135457,1,0,0:0:0:0:
347,193,135933,1,8,0:0:0:0:
332,167,136171,1,0,0:0:0:0:
332,167,136409,1,0,0:0:0:0:
359,152,136886,1,8,0:0:0:0:
334,181,137243,1,0,0:0:0:0:
263,182,137362,1,0,0:0:0:0:
416,210,137600,1,0,0:0:0:0:
400,200,137838,1,8,0:0:0:0:
355,193,138076,1,0,0:0:0:0:
355,193,138314,1,0,0:0:0:0:
370,163,138790,1,8,0:0:0:0:
389,184,139148,1,0,0:0:0:0:
425,177,139267,1,0,0:0:0:0:
384,177,139743,1,8,0:0:0:0:
386,197,139981,1,0,0:0:0:0:
386,197,140219,1,0,0:0:0:0:
367,192,140695,1,8,0:0:0:0:
367,184,141052,1,0,0:0:0:0:
367,184,141171,1,0,0:0:0:0:
348,223,141409,1,0,0:0:0:0:
375,200,141648,1,8,0:0:0:0:
389,193,141886,1,0,0:0:0:0:
389,193,142124,1,0,0:0:0:0:
362,171,142600,1,8,0:0:0:0:
394,186,142957,1,0,0:0:0:0:
394,186,143076,1,0,0:0:0:0:
339,171,143552,1,8,0:0:0:0:
331,171,143790,1,0,0:0:0:0:
331,171,144028,1,0,0:0:0:0:
361,186,144505,1,8,0:0:0:0:
394,183,144862,1,0,0:0:0:0:
394,183,144981,1,0,0:0:0:0:
338,137,145219,1,0,0:0:0:0:
405,186,145457,1,8,0:0:0:0:
324,188,145695,1,0,0:0:0:0:
324,188,145933,1,0,0:0:0:0:
362,169,146409,1,8,0:0:0:0:
414,181,146767,1,0,0:0:0:0:
414,181,146886,1,0,0:0:0:0:
419,172,147362,1,8,0:0:0:0:
429,172,147838,1,4,0:0:0:0:
439,175,148076,1,8,0:0:0:0:
402,175,148195,1,0,0:0:0:0:
408,172,148314,1,8,0:0:0:0:
407,188,148433,1,8,0:0:0:0:
407,188,148552,1,0,0:0:0:0:
393,187,148671,1,0,0:0:0:0:
382,251,148790,1,8,0:0:0:0:
413,228,149028,1,0,0:0:0:0:
413,228,149148,1,0,0:0:0:0:
469,187,149267,1,8,0:0:0:0:
469,187,149505,1,8,0:0:0:0:
408,202,149743,1,0,0:0:0:0:
406,186,149862,1,0,0:0:0:0:
428,198,149981,1,8,0:0:0:0:
408,202,150040,1,8,0:0:0:0:
428,198,150100,1,0,0:0:0:0:
406,188,150219,1,8,0:0:0:0:
403,204,150457,1,8,0:0:0:0:
415,203,150576,1,8,0:0:0:0:
411,187,150695,1,0,0:0:0:0:
411,187,150814,1,0,0:0:0:0:
412,182,150933,1,8,0:0:0:0:
411,187,151052,1,0,0:0:0:0:
413,180,151171,1,8,0:0:0:0:
377,209,151290,1,0,0:0:0:0:
377,209,151350,1,0,0:0:0:0:
407,191,151409,1,8,0:0:0:0:
413,180,151528,1,8,0:0:0:0:
430,187,151648,1,0,0:0:0:0:
360,202,151886,1,8,0:0:0:0:
376,189,152005,1,0,0:0:0:0:
391,194,152124,1,8,0:0:0:0:
391,194,152243,1,8,0:0:0:0:
402,212,152362,1,0,0:0:0:0:
434,187,152600,1,8,0:0:0:0:
434,187,152719,1,8,0:0:0:0:
372,192,152838,1,0,0:0:0:0:
337,173,152957,1,0,0:0:0:0:
419,179,153076,1,8,0:0:0:0:
402,173,153195,1,0,0:0:0:0:
399,196,153314,1,8,0:0:0:0:
445,172,153552,1,0,0:0:0:0:
445,172,153671,1,0,0:0:0:0:
466,187,153790,1,8,0:0:0:0:
463,187,153909,1,0,0:0:0:0:
382,171,154028,1,8,0:0:0:0:
396,184,154148,1,8,0:0:0:0:
373,180,154267,1,0,0:0:0:0:
374,180,154386,1,0,0:0:0:0:
411,176,154505,1,8,0:0:0:0:
379,166,154981,1,8,0:0:0:0:
400,190,155219,1,0,0:0:0:0:
400,190,155695,1,0,0:0:0:0:
443,195,155933,1,8,0:0:0:0:
389,205,156409,1,0,0:0:0:0:
389,205,156528,1,0,0:0:0:0:
402,205,156648,1,8,0:0:0:0:
389,205,156767,1,0,0:0:0:0:
389,205,156886,1,0,0:0:0:0:
402,205,157005,1,8,0:0:0:0:
389,205,157124,1,0,0:0:0:0:
402,205,157243,1,8,0:0:0:0:
389,205,157362,1,0,0:0:0:0:
389,205,157481,1,0,0:0:0:0:
423,188,157600,1,8,0:0:0:0:
354,192,157719,1,0,0:0:0:0:
354,192,157838,1,0,0:0:0:0:
354,192,157898,1,0,0:0:0:0:
402,205,157957,1,8,0:0:0:0:
354,192,158076,1,0,0:0:0:0:
314,197,158314,1,8,0:0:0:0:
321,178,158433,1,0,0:0:0:0:
314,197,158493,1,8,0:0:0:0:
321,178,158612,1,0,0:0:0:0:
314,197,158671,1,8,0:0:0:0:
298,177,158790,1,0,0:0:0:0:
374,188,158909,1,8,0:0:0:0:
298,176,158969,1,0,0:0:0:0:
399,172,159088,1,8,0:0:0:0:
298,176,159148,1,0,0:0:0:0:
382,180,159267,1,8,0:0:0:0:
400,195,159386,1,0,0:0:0:0:
371,207,159445,1,8,0:0:0:0:
400,195,159564,1,0,0:0:0:0:
371,207,159624,1,8,0:0:0:0:
406,200,159743,1,0,0:0:0:0:
373,200,159862,1,8,0:0:0:0:
406,200,159981,1,0,0:0:0:0:
373,199,160219,1,8,0:0:0:0:
345,187,160338,1,0,0:0:0:0:
354,195,160398,1,8,0:0:0:0:
380,199,160517,1,0,0:0:0:0:
354,195,160576,1,8,0:0:0:0:
311,199,160695,1,0,0:0:0:0:
336,198,160814,1,8,0:0:0:0:
311,199,160874,1,0,0:0:0:0:
336,198,160993,1,8,0:0:0:0:
311,199,161052,1,0,0:0:0:0:
336,198,161171,1,8,0:0:0:0:
354,180,161290,1,0,0:0:0:0:
328,195,161350,1,8,0:0:0:0:
354,180,161469,1,0,0:0:0:0:
328,196,161528,1,8,0:0:0:0:
336,198,161648,1,0,0:0:0:0:
336,198,161767,1,0,0:0:0:0:
345,207,161886,1,8,0:0:0:0:
413,181,162124,1,8,0:0:0:0:
366,177,162243,1,0,0:0:0:0:
389,183,162302,1,8,0:0:0:0:
366,177,162421,1,0,0:0:0:0:
389,183,162481,1,8,0:0:0:0:
366,176,162600,1,0,0:0:0:0:
350,187,162719,1,8,0:0:0:0:
369,207,162778,1,0,0:0:0:0:
350,189,162898,1,8,0:0:0:0:
387,209,162957,1,0,0:0:0:0:
427,207,163076,1,8,0:0:0:0:
324,234,163195,1,8,0:0:0:0:
342,193,163314,1,8,0:0:0:0:
379,213,163433,1,8,0:0:0:0:
371,189,163552,1,0,0:0:0:0:
352,200,163790,1,8,0:0:0:0:
345,146,164028,1,4,0:0:0:0:
362,196,164267,1,8,0:0:0:0:
322,203,164386,1,0,0:0:0:0:
373,211,164505,1,8,0:0:0:0:
282,214,164564,1,0,0:0:0:0:
280,202,164624,1,0,0:0:0:0:
344,226,164743,1,8,0:0:0:0:
406,204,164862,1,8,0:0:0:0:
405,178,164981,1,0,0:0:0:0:
333,223,165219,1,8,0:0:0:0:
282,212,165338,1,0,0:0:0:0:
297,209,165457,1,8,0:0:0:0:
333,223,165576,1,0,0:0:0:0:
301,189,165636,1,8,0:0:0:0:
235,245,165695,1,0,0:0:0:0:
235,245,165814,1,0,0:0:0:0:
369,227,165933,1,8,0:0:0:0:
372,212,166171,1,0,0:0:0:0:
344,210,166290,1,8,0:0:0:0:
386,217,166409,1,0,0:0:0:0:
386,217,166469,1,0,0:0:0:0:
344,210,166528,1,8,0:0:0:0:
194,205,166648,1,0,0:0:0:0:
346,220,166767,1,8,0:0:0:0:
330,226,166886,1,0,0:0:0:0:
342,215,167124,1,8,0:0:0:0:
344,200,167243,1,0,0:0:0:0:
342,215,167362,1,8,0:0:0:0:
320,190,167481,1,8,0:0:0:0:
342,215,167540,1,8,0:0:0:0:
344,200,167600,1,0,0:0:0:0:
344,200,167719,1,0,0:0:0:0:
380,228,167838,1,8,0:0:0:0:
360,212,168076,1,0,0:0:0:0:
334,223,168195,1,8,0:0:0:0:
289,218,168433,1,0,0:0:0:0:
325,227,168552,1,8,0:0:0:0:
325,227,168671,1,8,0:0:0:0:
282,210,168790,1,0,0:0:0:0:
338,223,169028,1,8,0:0:0:0:
409,221,169148,1,8,0:0:0:0:
358,212,169386,1,0,0:0:0:0:
378,221,169505,1,8,0:0:0:0:
361,218,169743,5,0,0:0:0:0:
361,218,169862,1,0,0:0:0:0:
392,203,169981,1,8,0:0:0:0:
359,205,170100,1,0,0:0:0:0:
389,203,170219,1,8,0:0:0:0:
389,203,170278,1,8,0:0:0:0:
385,194,170338,1,0,0:0:0:0:
397,199,170457,1,8,0:0:0:0:
451,203,170695,1,0,0:0:0:0:
393,227,170814,5,0,0:0:0:0:
409,220,170933,1,8,0:0:0:0:
415,212,171052,1,0,0:0:0:0:
415,212,171171,1,0,0:0:0:0:
394,203,171290,1,8,0:0:0:0:
400,219,171409,1,0,0:0:0:0:
400,219,171469,1,0,0:0:0:0:
343,231,171528,1,8,0:0:0:0:
338,232,171648,1,0,0:0:0:0:
338,232,171767,1,0,0:0:0:0:
407,224,171886,1,8,0:0:0:0:
338,232,172005,1,0,0:0:0:0:
374,205,172124,1,8,0:0:0:0:
374,205,172243,1,8,0:0:0:0:
374,205,172362,1,8,0:0:0:0:
374,205,172421,1,8,0:0:0:0:
374,205,172481,1,8,0:0:0:0:
372,224,172600,1,0,0:0:0:0:
396,234,172838,1,0,0:0:0:0:
396,234,172898,1,0,0:0:0:0:
342,212,172957,1,8,0:0:0:0:
388,212,173076,1,0,0:0:0:0:
342,216,173195,1,8,0:0:0:0:
331,188,173314,1,8,0:0:0:0:
337,191,173374,1,8,0:0:0:0:
350,186,173433,1,0,0:0:0:0:
387,212,173552,1,0,0:0:0:0:
396,221,173671,1,8,0:0:0:0:
388,212,173790,1,0,0:0:0:0:
388,212,173850,1,0,0:0:0:0:
396,221,173909,1,8,0:0:0:0:
387,212,174028,1,0,0:0:0:0:
351,240,174148,1,0,0:0:0:0:
420,214,174267,1,8,0:0:0:0:
390,177,174386,1,8,0:0:0:0:
347,225,174505,1,0,0:0:0:0:
441,229,174743,1,0,0:0:0:0:
382,218,174802,1,8,0:0:0:0:
381,218,174862,1,8,0:0:0:0:
425,231,174981,1,0,0:0:0:0:
405,229,175100,1,8,0:0:0:0:
395,214,175219,1,0,0:0:0:0:
339,207,175278,1,0,0:0:0:0:
394,230,175338,1,8,0:0:0:0:
397,212,175457,1,0,0:0:0:0:
424,206,175576,1,8,0:0:0:0:
402,197,175695,1,8,0:0:0:0:
402,197,175755,1,8,0:0:0:0:
354,178,175814,1,0,0:0:0:0:
351,191,175933,1,8,0:0:0:0:
327,164,176052,1,0,0:0:0:0:
351,191,176171,1,8,0:0:0:0:
351,171,176290,1,8,0:0:0:0:
376,197,176409,1,0,0:0:0:0:
377,204,176648,1,0,0:0:0:0:
377,204,176707,1,0,0:0:0:0:
379,214,176767,1,8,0:0:0:0:
377,204,176886,1,0,0:0:0:0:
365,207,177005,1,8,0:0:0:0:
377,204,177124,1,0,0:0:0:0:
394,195,177183,1,8,0:0:0:0:
377,204,177243,1,0,0:0:0:0:
365,207,177362,1,8,0:0:0:0:
365,207,177481,1,8,0:0:0:0:
329,198,177600,1,0,0:0:0:0:
341,195,177659,1,8,0:0:0:0:
365,207,177719,1,8,0:0:0:0:
416,233,177838,1,0,0:0:0:0:
356,210,177957,1,8,0:0:0:0:
405,207,178076,1,8,0:0:0:0:
405,207,178136,1,8,0:0:0:0:
405,207,178195,1,8,0:0:0:0:
314,241,178314,1,0,0:0:0:0:
309,245,178433,1,0,0:0:0:0:
376,245,178552,1,8,0:0:0:0:
309,245,178671,1,0,0:0:0:0:
376,245,178790,1,8,0:0:0:0:
343,218,178909,1,0,0:0:0:0:
343,218,178969,1,0,0:0:0:0:
376,245,179028,1,8,0:0:0:0:
343,218,179148,1,0,0:0:0:0:
365,245,179267,1,8,0:0:0:0:
364,245,179505,1,8,0:0:0:0:
364,245,179624,1,8,0:0:0:0:
313,242,179743,1,0,0:0:0:0:
365,245,179862,1,8,0:0:0:0:
365,245,179921,1,8,0:0:0:0:
313,242,179981,1,0,0:0:0:0:
364,245,180100,1,8,0:0:0:0:
367,236,180219,1,0,0:0:0:0:
398,206,180457,1,8,0:0:0:0:
387,221,180576,1,0,0:0:0:0:
372,223,180695,1,8,0:0:0:0:
372,223,180755,1,8,0:0:0:0:
441,195,180814,1,0,0:0:0:0:
372,223,180933,1,8,0:0:0:0:
372,223,181052,1,8,0:0:0:0:
441,195,181171,1,0,0:0:0:0:
389,212,181409,1,0,0:0:0:0:
447,206,181528,1,8,0:0:0:0:
406,222,181588,1,0,0:0:0:0:
405,200,181648,1,8,0:0:0:0:
406,222,181767,1,0,0:0:0:0:
317,244,181886,1,8,0:0:0:0:
382,197,182005,1,0,0:0:0:0:
349,197,182124,1,8,0:0:0:0:
360,212,182362,1,0,0:0:0:0:
334,223,182481,1,8,0:0:0:0:
289,218,182719,1,0,0:0:0:0:
325,227,182838,1,8,0:0:0:0:
325,227,182957,1,8,0:0:0:0:
282,210,183076,1,0,0:0:0:0:
338,223,183314,1,8,0:0:0:0:
409,221,183433,1,8,0:0:0:0:
358,212,183671,1,0,0:0:0:0:
378,221,183790,1,8,0:0:0:0:
350,232,184028,1,0,0:0:0:0:
350,232,184267,1,0,0:0:0:0:
350,232,184505,1,0,0:0:0:0:
344,221,184624,1,0,0:0:0:0:
356,222,184743,1,8,0:0:0:0:
344,211,184862,1,0,0:0:0:0:
344,210,184921,1,0,0:0:0:0:
365,181,184981,1,8,0:0:0:0:
