osu file format v14

[General]
AudioFilename: audio.mp3
AudioLeadIn: 0
PreviewTime: 40140
Countdown: 0
SampleSet: Normal
StackLeniency: 0.7
Mode: 1
LetterboxInBreaks: 0
WidescreenStoryboard: 1

[Editor]
DistanceSpacing: 1
BeatDivisor: 4
GridSize: 32
TimelineZoom: 4.299998

[Metadata]
Title:Kyu-kurarin (7_7 bootleg)
TitleUnicode:きゅうくらりん (7_7 bootleg)
Artist:Iyowa feat. KAFU
ArtistUnicode:いよわ feat. 可不
Creator:woosungko
Version:Muzukashii
Source:
Tags:花譜 かふ CeVIO AI KAMITSUBAKI STUDIO 神椿スタジオ artificial singing synthesizer kaf-u vocaloid female vocalist japanese pop jpop j-pop electronic remix
BeatmapID:3772249
BeatmapSetID:1837174

[Difficulty]
HPDrainRate:5
CircleSize:5
OverallDifficulty:5
ApproachRate:5
SliderMultiplier:1.4
SliderTickRate:1

[Events]
//Background and Video events
0,0,"7.jpg",0,80
//Break Periods
//Storyboard Layer 0 (Background)
//Storyboard Layer 1 (Fail)
//Storyboard Layer 2 (Pass)
//Storyboard Layer 3 (Foreground)
//Storyboard Layer 4 (Overlay)
//Storyboard Sound Samples

[TimingPoints]
221,238.095238095238,4,1,0,60,1,0
221,-124.223602484472,4,1,0,60,0,0
336,-123.31276004327,4,1,0,60,0,0
395,-122.863904302895,4,1,0,60,0,0
455,-122.409290817729,4,1,0,60,0,0
574,-121.513124991941,4,1,0,60,0,0
693,-120.624193560052,4,1,0,60,0,0
931,-118.867761835385,4,1,0,60,0,0
1169,-117.139459361993,4,1,0,60,0,0
1228,-116.715304569567,4,1,0,60,0,0
1288,-116.285692362489,4,1,0,60,0,0
1407,-115.438762096889,4,1,0,60,0,0
1526,-114.598604915764,4,1,0,60,0,0
1645,-113.765157892303,4,1,0,60,0,0
1883,-112.118146163726,4,1,0,60,0,0
2096,-113.97403721468,4,1,0,80,0,0
2125,-110.497237569061,4,1,0,80,0,1
2155,-110.497237569061,4,1,0,80,0,1
16410,-110.497237569061,4,1,0,80,0,1
16528,-112.104417005253,4,1,0,80,0,1
16647,-113.751207356506,4,1,0,80,0,1
16766,-115.42458602525,4,1,0,80,0,1
16885,-117.1250535002,4,1,0,80,0,1
17123,-120.609314958028,4,1,0,80,0,1
17363,-124.223602484472,4,1,0,80,0,0
17393,-124.223602484472,4,1,0,80,0,0
24952,-110.497237569061,4,1,0,80,0,0
25012,-110.497237569061,4,1,0,80,0,0
32596,-110.497237569061,4,1,0,80,0,0
32834,-111.515073749005,4,1,0,80,0,0
33076,-112.542285642876,4,1,0,80,0,0
33310,-113.57895961429,4,1,0,80,0,0
33429,-114.100872085033,4,1,0,80,0,0
33549,-114.625182822391,4,1,0,80,0,0
33786,-115.681043229186,4,1,0,80,0,0
33965,-116.746629606934,4,1,0,80,0,0
34262,-117.822031545613,4,1,0,80,0,0
34500,-118.907339460453,4,1,0,80,0,0
34739,-120.007267942279,4,1,0,80,0,0
34981,-121.112704981749,4,1,0,80,0,0
35215,-122.22832466323,4,1,0,80,0,0
35453,-123.354220783288,4,1,0,80,0,0
35810,-125.062540593903,4,1,0,80,0,0
35933,-125.637221853358,4,1,0,80,0,0
36167,-126.794518748406,4,1,0,80,0,0
36405,-127.962475988242,4,1,0,80,0,0
36643,-129.141191769754,4,1,0,80,0,0
36882,-130.330765194358,4,1,0,80,0,0
37004,-130.929654741396,4,1,0,80,0,0
37119,-131.531296276339,4,1,0,80,0,0
37358,-132.748000137365,4,1,0,80,0,0
37596,-133.970797379428,4,1,0,80,0,0
37838,-135.204858317318,4,1,0,80,0,0
38310,-137.707187254723,4,1,0,80,0,0
38548,-138.97566563943,4,1,0,80,0,0
38787,-140.255828508038,4,1,0,80,0,0
38909,-140.900325219764,4,1,0,80,0,0
39024,-141.547783491205,4,1,0,80,0,0
39143,-142.198216931174,4,1,0,80,0,0
39262,-142.85163921102,4,1,0,80,0,0
39382,-125,4,1,0,80,0,0
40173,-110.497237569061,4,1,0,100,0,0
40215,-116.959064327485,4,1,0,100,0,0
40453,-115.118242197432,4,1,0,100,0,0
40572,-114.209788603483,4,1,0,100,0,0
40810,-112.416396433978,4,1,0,100,0,0
40929,-111.53130082276,4,1,0,100,0,0
41048,-110.653835765672,4,1,0,100,0,0
41168,-109.783925116652,4,1,0,100,0,0
41405,-108.066467060825,4,1,0,100,0,0
41524,-107.218771923077,4,1,0,100,0,0
41643,-106.378335704709,4,1,0,100,0,0
41703,-105.957316290722,4,1,0,100,0,0
41762,-105.54508674041,4,1,0,100,0,0
41881,-104.718954221634,4,1,0,100,0,0
42125,-110.497237569061,4,1,0,100,0,1
42302,-110.935340839326,4,1,0,100,0,1
42481,-111.377824785401,4,1,0,100,0,1
42600,-111.673060026552,4,1,0,100,0,1
42778,-112.116274612092,4,1,0,100,0,1
42957,-112.563924588829,4,1,0,100,0,1
43076,-112.862608737723,4,1,0,100,0,1
43254,-113.311003939839,4,1,0,100,0,1
43433,-113.763890068455,4,1,0,100,0,1
43552,-114.06606998256,4,1,0,100,0,1
43671,-114.369131250389,4,1,0,100,0,1
43790,-114.673076861475,4,1,0,100,0,1
44029,-115.286206018067,4,1,0,100,0,1
44207,-115.745186235565,4,1,0,100,0,1
44385,-116.206175570235,4,1,0,100,0,1
44504,-116.515490719355,4,1,0,100,0,1
44683,-116.982469720952,4,1,0,100,0,1
44862,-117.451508332387,4,1,0,100,0,1
44981,-117.764472259696,4,1,0,100,0,1
45159,-118.234317850237,4,1,0,100,0,1
45338,-118.708885143738,4,1,0,100,0,1
45457,-119.025540325165,4,1,0,100,0,1
45576,-119.343126242808,4,1,0,100,0,1
45695,-119.661646092413,4,1,0,100,0,1
45934,-120.304196846066,4,1,0,100,0,1
46112,-120.785220893562,4,1,0,100,0,1
46290,-121.268367116826,4,1,0,100,0,1
46409,-121.592558427342,4,1,0,100,0,1
46588,-122.082010415485,4,1,0,100,0,1
46766,-122.570885691974,4,1,0,100,0,1
46885,-122.898923622676,4,1,0,100,0,1
47004,-123.22793154232,4,1,0,100,0,1
47123,-123.557912812858,4,1,0,100,0,1
47243,-123.891656118206,4,1,0,100,0,1
47358,-124.223602484472,4,1,0,100,0,1
47561,-117.139459361993,4,1,0,60,0,1
47810,-110.497237569061,4,1,0,80,0,1
47840,-110.497237569061,4,1,0,80,0,0
47869,-110.497237569061,4,1,0,80,0,0
51645,-110.497237569061,4,1,0,80,0,0
52001,-114.27453846677,4,1,0,80,0,0
52240,-116.889848548365,4,1,0,80,0,0
52359,-118.216519610831,4,1,0,80,0,0
52597,-120.919894710439,4,1,0,80,0,0
52954,-125.103748938362,4,1,0,80,0,0
53192,-127.981836715239,4,1,0,80,0,0
53311,-129.448333385546,4,1,0,80,0,0
53550,-132.475789955014,4,1,0,80,0,0
53787,-126.567003830198,4,1,0,80,0,0
53906,-123.722593033349,4,1,0,80,0,0
54025,-120.948662858693,4,1,0,80,0,0
54085,-119.576122236162,4,1,0,80,0,0
54144,-118.243177199355,4,1,0,80,0,0
54263,-115.628945487052,4,1,0,80,0,0
54502,-110.497237569061,4,1,0,80,0,0
54506,-110.497237569061,4,1,0,80,0,1
68787,-110.497237569061,4,1,0,80,0,1
68905,-112.104417005253,4,1,0,80,0,1
69024,-113.751207356506,4,1,0,80,0,1
69143,-115.42458602525,4,1,0,80,0,1
69262,-117.1250535002,4,1,0,80,0,1
69500,-120.609314958028,4,1,0,80,0,1
69739,-124.223602484472,4,1,0,80,0,1
69744,-124.223602484472,4,1,0,80,0,0
69774,-124.223602484472,4,1,0,60,0,0
70215,-125.69043822047,4,1,0,60,0,0
70453,-126.43103479828,4,1,0,60,0,0
70572,-126.803143803532,4,1,0,60,0,0
70691,-127.176466120727,4,1,0,60,0,0
70929,-127.926769325315,4,1,0,60,0,0
71167,-128.681981901589,4,1,0,60,0,0
71644,-130.210512380159,4,1,0,60,0,0
72119,-131.752688269466,4,1,0,60,0,0
72358,-132.536312197892,4,1,0,60,0,0
72477,-132.928415948895,4,1,0,60,0,0
72596,-133.321810217631,4,1,0,60,0,0
72834,-134.112490417849,4,1,0,60,0,0
73072,-134.908393260338,4,1,0,60,0,0
73549,-136.519430465632,4,1,0,60,0,0
74024,-138.145054093308,4,1,0,60,0,0
74262,-138.967690945483,4,1,0,60,0,0
74381,-139.381059351276,4,1,0,60,0,0
74501,-139.799292666437,4,1,0,60,0,0
74739,-140.632943702836,4,1,0,60,0,0
74977,-141.472155761858,4,1,0,60,0,0
75453,-143.167440037881,4,1,0,60,0,0
75929,-144.885504072974,4,1,0,60,0,0
76167,-145.753192508743,4,1,0,60,0,0
76286,-146.189221056186,4,1,0,60,0,0
76406,-146.630396232568,4,1,0,60,0,0
76643,-147.50611422692,4,1,0,60,0,0
76881,-148.391441709758,4,1,0,60,0,0
77358,-150.183852033558,4,1,0,60,0,0
77834,-151.996818226525,4,1,0,60,0,0
78072,-152.912532945144,4,1,0,60,0,0
78191,-153.37272012611,4,1,0,60,0,0
78310,-153.8344689555,4,1,0,60,0,0
78548,-154.762677055175,4,1,0,60,0,0
78786,-155.697208561442,4,1,0,60,0,0
79263,-157.589443732347,4,1,0,60,0,0
79739,-159.503662501722,4,1,0,60,0,0
79977,-160.470627255099,4,1,0,60,0,0
80096,-160.956597260797,4,1,0,60,0,0
80215,-161.444234841611,4,1,0,60,0,0
80453,-162.42454041042,4,1,0,60,0,0
80691,-163.411599686461,4,1,0,60,0,0
81168,-165.410424525692,4,1,0,60,0,0
81643,-167.428508937317,4,1,0,60,0,0
81881,-168.450193307685,4,1,0,60,0,0
82000,-168.963694475794,4,1,0,60,0,0
82120,-169.483315944865,4,1,0,60,0,0
82358,-170.519291654958,4,1,0,60,0,0
82596,-171.562488781794,4,1,0,60,0,0
83072,-173.670792990564,4,1,0,60,0,0
83548,-175.808726598555,4,1,0,60,0,0
83786,-176.888963002827,4,1,0,60,0,0
83905,-177.43192676847,4,1,0,60,0,0
84024,-177.976798421576,4,1,0,60,0,0
84262,-179.176796407275,4,1,0,60,0,0
84500,-158.372177315574,4,1,0,60,0,0
84982,238.095238095238,4,1,0,60,1,8
84982,-124.366872853774,4,1,0,60,0,0
85180,-124.366872853774,4,1,0,80,0,0
85220,238.095238095238,4,1,0,80,1,0
85220,-110.497237569061,4,1,0,80,0,0
85250,-110.497237569061,4,1,0,80,0,0
92835,-110.497237569061,4,1,0,80,0,0
92869,-110.497237569061,4,1,0,80,0,0
100453,-90.497737556561,4,1,0,40,0,0
101406,-165.289256198347,4,1,0,40,0,0
102323,-165.289256198347,4,1,0,100,0,0
102358,-116.959064327485,4,1,0,100,0,0
102596,-115.118242197432,4,1,0,100,0,0
102715,-114.209788603483,4,1,0,100,0,0
102953,-112.416396433978,4,1,0,100,0,0
103072,-111.53130082276,4,1,0,100,0,0
103191,-110.653835765672,4,1,0,100,0,0
103311,-109.783925116652,4,1,0,100,0,0
103548,-108.061378863194,4,1,0,100,0,0
103611,-107.641140658627,4,1,0,100,0,0
103667,-107.215610592902,4,1,0,100,0,0
103786,-106.378335704709,4,1,0,100,0,0
104024,-104.718954221634,4,1,0,100,0,0
104029,238.095238095238,4,1,0,100,1,1
104029,-110.497237569061,4,1,0,100,0,1
104203,-110.935340839326,4,1,0,100,0,1
104382,-111.377824785401,4,1,0,100,0,1
104501,-111.673060026552,4,1,0,100,0,1
104679,-112.116274612092,4,1,0,100,0,1
104858,-112.563924588829,4,1,0,100,0,1
104977,-112.862608737723,4,1,0,100,0,1
105155,-113.311003939839,4,1,0,100,0,1
105334,-113.763890068455,4,1,0,100,0,1
105453,-114.06606998256,4,1,0,100,0,1
105572,-114.369131250389,4,1,0,100,0,1
105691,-114.673076861475,4,1,0,100,0,1
105930,-115.283633133552,4,1,0,100,0,1
106108,-115.745186235565,4,1,0,100,0,1
106286,-116.206175570235,4,1,0,100,0,1
106405,-116.515490719355,4,1,0,100,0,1
106584,-116.982469720952,4,1,0,100,0,1
106763,-117.451508332387,4,1,0,100,0,1
106882,-117.764472259696,4,1,0,100,0,1
107060,-118.234317850237,4,1,0,100,0,1
107239,-118.708885143738,4,1,0,100,0,1
107358,-119.025540325165,4,1,0,100,0,1
107477,-119.343126242808,4,1,0,100,0,1
107596,-119.661646092413,4,1,0,100,0,1
107838,-120.304196846066,4,1,0,100,0,1
108013,-120.785220893562,4,1,0,100,0,1
108191,-121.268367116826,4,1,0,100,0,1
108310,-121.592558427342,4,1,0,100,0,1
108489,-122.082010415485,4,1,0,100,0,1
108667,-122.570885691974,4,1,0,100,0,1
108787,-122.898923622676,4,1,0,100,0,1
108905,-123.22793154232,4,1,0,100,0,1
109024,-123.560689898355,4,1,0,100,0,1
109144,-123.891656118206,4,1,0,100,0,1
109263,-124.223602484472,4,1,0,100,0,1
109500,-117.139459361993,4,1,0,60,0,1
109714,-110.497237569061,4,1,0,80,0,1
109743,-110.497237569061,4,1,0,80,0,0
109773,-110.497237569061,4,1,0,80,0,0
113548,-110.497237569061,4,1,0,80,0,0
113904,-114.27453846677,4,1,0,80,0,0
114143,-116.889848548365,4,1,0,80,0,0
114262,-118.216519610831,4,1,0,80,0,0
114500,-120.919894710439,4,1,0,80,0,0
114857,-125.103748938362,4,1,0,80,0,0
115095,-127.981836715239,4,1,0,80,0,0
115214,-129.448333385546,4,1,0,80,0,0
115453,-132.533313809834,4,1,0,80,0,0
115690,-129.531529624499,4,1,0,80,0,0
115809,-128.058996698883,4,1,0,80,0,0
115928,-126.604996521882,4,1,0,80,0,0
115988,-125.878828184357,4,1,0,80,0,0
116047,-125.169255441643,4,1,0,80,0,0
116166,-123.751504765147,4,1,0,80,0,0
116405,-120.968923983387,4,1,0,80,0,0
116643,-118.243939913819,4,1,0,80,0,0
116881,-115.597367016077,4,1,0,80,0,0
117119,-113.015748185287,4,1,0,80,0,0
117357,-110.497237569061,4,1,0,80,0,0
117599,-111.409121006817,4,1,0,80,0,0
117837,-112.329256565934,4,1,0,80,0,0
117956,-112.792445955979,4,1,0,80,0,0
118075,-113.257730992963,4,1,0,80,0,0
118135,-113.49312666667,4,1,0,80,0,0
118194,-113.725122694448,4,1,0,80,0,0
118314,-114.198586610844,4,1,0,80,0,0
118551,-115.140049026142,4,1,0,80,0,0
118789,-116.094071768103,4,1,0,80,0,0
118908,-116.57433882697,4,1,0,80,0,0
119028,-117.060855205856,4,1,0,80,0,0
119266,-118.032401926849,4,1,0,80,0,0
119325,-118.274617994237,4,1,0,80,0,0
119385,-118.521500798878,4,1,0,80,0,0
119504,-119.01283242407,4,1,0,80,0,0
119742,-120.002241633826,4,1,0,80,0,0
119861,-120.500343263628,4,1,0,80,0,0
119980,-121.000725738342,4,1,0,80,0,0
120218,-122.008382186064,4,1,0,80,0,0
120278,-122.263872543884,4,1,0,80,0,0
120337,-122.515680842579,4,1,0,80,0,0
120456,-123.025309712337,4,1,0,80,0,0
120575,-123.537281341799,4,1,0,80,0,0
120694,-124.051608360515,4,1,0,80,0,0
120932,-125.087379503472,4,1,0,80,0,0
121170,-126.132725865555,4,1,0,80,0,0
121408,-127.187751544965,4,1,0,80,0,0
121528,-127.723401102417,4,1,0,80,0,0
121647,-128.257056823142,4,1,0,80,0,0
121706,-128.522558607713,4,1,0,80,0,0
121766,-128.793185566145,4,1,0,80,0,0
121885,-129.331800831336,4,1,0,80,0,0
122123,-130.416545383631,4,1,0,80,0,0
122242,-130.96270212856,4,1,0,80,0,0
122361,-131.511400312874,4,1,0,80,0,0
122599,-132.616476944755,4,1,0,80,0,0
122837,-133.731888123047,4,1,0,80,0,0
123075,-134.857748235379,4,1,0,80,0,0
123135,-135.143241352128,4,1,0,80,0,0
123194,-135.424632816548,4,1,0,80,0,0
123313,-135.994173239516,4,1,0,80,0,0
123551,-137.141280690204,4,1,0,80,0,0
123611,-137.432167514035,4,1,0,80,0,0
123670,-137.718877512264,4,1,0,80,0,0
123789,-138.299189766553,4,1,0,80,0,0
124028,-139.472955571681,4,1,0,80,0,0
124147,-140.061528747357,4,1,0,80,0,0
124266,-140.652878742805,4,1,0,80,0,0
124385,-141.247021140389,4,1,0,80,0,0
124504,-141.843971631206,4,1,0,80,0,0
124976,-124.223602484472,4,1,0,80,0,0
125218,-123.737101984023,4,1,0,80,0,0
125456,-123.252706322333,4,1,0,80,0,0
125575,-123.011294470661,4,1,0,80,0,0
125694,-122.770404834554,4,1,0,80,0,0
125813,-122.530036091265,4,1,0,80,0,0
125933,-122.28817358062,4,1,0,80,0,0
126170,-121.812042052422,4,1,0,80,0,0
126408,-121.335959757928,4,1,0,80,0,0
126527,-121.098688823061,4,1,0,80,0,0
126647,-120.859942227666,4,1,0,80,0,0
126766,-120.62369778235,4,1,0,80,0,0
126885,-120.38796249753,4,1,0,80,0,0
127123,-119.918014284179,4,1,0,80,0,0
127361,-119.450087376716,4,1,0,80,0,0
127480,-119.216878738983,4,1,0,80,0,0
127599,-118.984171627084,4,1,0,80,0,0
127718,-118.751964782254,4,1,0,80,0,0
127838,-118.518311935709,4,1,0,80,0,0
128075,-118.058333320455,4,1,0,80,0,0
128194,-117.828115033388,4,1,0,80,0,0
128313,-117.598390777293,4,1,0,80,0,0
128551,-117.140419418697,4,1,0,80,0,0
128790,-116.682497519266,4,1,0,80,0,0
129027,-116.230350951599,4,1,0,80,0,0
129266,-115.776338774324,4,1,0,80,0,0
129385,-115.551009691941,4,1,0,80,0,0
129504,-115.32616244114,4,1,0,80,0,0
129623,-115.101795823356,4,1,0,80,0,0
129742,-114.877908643659,4,1,0,80,0,0
129980,-114.431567836941,4,1,0,80,0,0
130218,-113.987130533871,4,1,0,80,0,0
130337,-113.765622747184,4,1,0,80,0,0
130456,-113.54458730472,4,1,0,80,0,0
130575,-113.324023036661,4,1,0,80,0,0
130694,-113.103928776719,4,1,0,80,0,0
130932,-112.665145633634,4,1,0,80,0,0
131170,-112.228228615348,4,1,0,80,0,0
131289,-112.010467024458,4,1,0,80,0,0
131408,-111.793168517438,4,1,0,80,0,0
131643,-111.358139856257,4,1,0,80,0,0
131766,-111.142227621011,4,1,0,80,0,0
131885,-110.926773912997,4,1,0,80,0,0
132004,-110.711777603969,4,1,0,80,0,0
132123,-110.497237569061,4,1,0,80,0,0
132560,-76.6283524904214,4,1,0,60,0,0
132595,-124.223602484472,4,1,0,60,0,0
133071,-126.054158879442,4,1,0,60,0,0
133428,-127.446671381637,4,1,0,60,0,0
133548,-127.918562703045,4,1,0,60,0,0
134024,-129.809573776181,4,1,0,60,0,0
134262,-130.766694656811,4,1,0,60,0,0
134500,-131.731658855015,4,1,0,60,0,0
134976,-133.685421850571,4,1,0,60,0,0
135333,-135.17190422288,4,1,0,60,0,0
135453,-135.67568807216,4,1,0,60,0,0
135928,-137.690470505445,4,1,0,60,0,0
136405,-139.747386515523,4,1,0,60,0,0
136881,-141.834270937185,4,1,0,60,0,0
137238,-143.422316829293,4,1,0,60,0,0
137357,-143.95608178526,4,1,0,60,0,0
137833,-146.113517311003,4,1,0,60,0,0
138071,-147.205817288838,4,1,0,60,0,0
138309,-148.307293217917,4,1,0,60,0,0
138785,-150.538143207307,4,1,0,60,0,0
139143,-152.240848648156,4,1,0,60,0,0
139262,-152.811626026825,4,1,0,60,0,0
139738,-155.118982042737,4,1,0,60,0,0
140214,-157.465728686883,4,1,0,60,0,0
140690,-159.852677578963,4,1,0,60,0,0
141047,-161.669772069257,4,1,0,60,0,0
141167,-162.285805992448,4,1,0,60,0,0
141643,-164.755768068492,4,1,0,60,0,0
141881,-166.006731431439,4,1,0,60,0,0
142119,-167.26849822316,4,1,0,60,0,0
142595,-169.8248965692,4,1,0,60,0,0
142952,-171.771407545783,4,1,0,60,0,0
143072,-172.431399050361,4,1,0,60,0,0
143547,-175.072418906187,4,1,0,60,0,0
144024,-177.771173500591,4,1,0,60,0,0
144500,-180.5118381175,4,1,0,60,0,0
144857,-182.599138196916,4,1,0,60,0,0
144976,-183.301049642864,4,1,0,60,0,0
145452,-186.139864712849,4,1,0,60,0,0
145690,-187.578211756608,4,1,0,60,0,0
145929,-189.035493774756,4,1,0,60,0,0
146404,-191.97067948964,4,1,0,60,0,0
146762,-194.217667483927,4,1,0,60,0,0
146881,-194.971290063461,4,1,0,60,0,0
147357,-198.019801980199,4,1,0,60,0,0
147809,-132.450331125828,4,1,0,80,0,0
147868,-132.450331125827,4,1,0,80,0,0
154500,-132.450331125828,4,1,0,80,0,0
154976,-128.324382698289,4,1,0,80,0,0
155214,-126.315026610838,4,1,0,80,0,0
155453,-124.332222370939,4,1,0,80,0,0
155690,-122.39993816735,4,1,0,80,0,0
155928,-120.49281452248,4,1,0,80,0,0
156370,-110.511124441528,4,1,0,100,0,0
156405,-116.776057945862,4,1,0,100,0,0
156409,-116.76838372343,4,1,0,100,0,0
156643,-114.957590279654,4,1,0,100,0,0
156762,-114.063781383164,4,1,0,100,0,0
157000,-112.298957463389,4,1,0,100,0,0
157119,-111.427792487778,4,1,0,100,0,0
157238,-110.564027034258,4,1,0,100,0,0
157358,-109.707588357883,4,1,0,100,0,0
157595,-108.016404688264,4,1,0,100,0,0
157714,-107.181518498532,4,1,0,100,0,0
157833,-106.353676668104,4,1,0,100,0,0
157893,-105.938926997874,4,1,0,100,0,0
157952,-105.532810670837,4,1,0,100,0,0
158071,-104.718852787808,4,1,0,100,0,0
158310,-132.443026286929,4,1,0,100,0,0
158314,-110.494781673183,4,1,0,100,0,1
158488,-110.935340839325,4,1,0,100,0,1
158667,-111.37534744362,4,1,0,100,0,1
158786,-111.670575487951,4,1,0,100,0,1
158964,-112.116274612092,4,1,0,100,0,1
159143,-112.563924588829,4,1,0,100,0,1
159262,-112.862608737723,4,1,0,100,0,1
159440,-113.311003939839,4,1,0,100,0,1
159619,-113.763890068455,4,1,0,100,0,1
159738,-114.06606998256,4,1,0,100,0,1
159857,-114.369131250389,4,1,0,100,0,1
159976,-114.673076861474,4,1,0,100,0,1
160215,-115.283633133552,4,1,0,100,0,1
160393,-115.745186235566,4,1,0,100,0,1
160571,-116.206175570235,4,1,0,100,0,1
160690,-116.515490719355,4,1,0,100,0,1
160869,-116.982469720952,4,1,0,100,0,1
161048,-117.448882264454,4,1,0,100,0,1
161167,-117.761838490029,4,1,0,100,0,1
161345,-118.234317850237,4,1,0,100,0,1
161524,-118.706228110311,4,1,0,100,0,1
161643,-119.025540325165,4,1,0,100,0,1
161762,-119.343126242809,4,1,0,100,0,1
161881,-119.661646092413,4,1,0,100,0,1
162120,-120.30150043784,4,1,0,100,0,1
162298,-120.782512593821,4,1,0,100,0,1
162476,-121.268367116826,4,1,0,100,0,1
162595,-121.592558427342,4,1,0,100,0,1
162774,-122.07927001344,4,1,0,100,0,1
162952,-122.570885691975,4,1,0,100,0,1
163072,-122.898923622677,4,1,0,100,0,1
163190,-123.22793154232,4,1,0,100,0,1
163309,-123.557912812858,4,1,0,100,0,1
163429,-123.888870810571,4,1,0,100,0,1
163548,-124.220808926146,4,1,0,100,0,1
163786,-117.139459361993,4,1,0,60,0,1
163999,-110.497237569061,4,1,0,80,0,1
164028,-110.497237569061,4,1,0,80,0,0
164059,-110.497237569061,4,1,0,80,0,0
167834,-110.497237569061,4,1,0,80,0,0
168190,-114.27453846677,4,1,0,80,0,0
168429,-116.889848548365,4,1,0,80,0,0
168548,-118.216519610831,4,1,0,80,0,0
168786,-120.919894710439,4,1,0,80,0,0
169143,-125.103748938362,4,1,0,80,0,0
169381,-127.981836715239,4,1,0,80,0,0
169500,-129.448333385546,4,1,0,80,0,0
169739,-132.467876539939,4,1,0,80,0,0
169976,-129.869850151416,4,1,0,80,0,0
170095,-128.592088468385,4,1,0,80,0,0
170214,-127.32825208454,4,1,0,80,0,0
170274,-126.696247758753,4,1,0,80,0,0
170333,-126.078162803711,4,1,0,80,0,0
170452,-124.841645230709,4,1,0,80,0,0
170691,-122.408637307552,4,1,0,80,0,0
170928,-120.027879139452,4,1,0,80,0,0
171047,-118.856683477898,4,1,0,80,0,0
171285,-116.551860515386,4,1,0,80,0,0
171404,-115.417921131354,4,1,0,80,0,0
171523,-114.296092378004,4,1,0,80,0,0
171643,-113.176947709839,4,1,0,80,0,0
171881,-110.992699139552,4,1,0,80,0,0
172119,-108.854541376924,4,1,0,80,0,0
172238,-107.80239450489,4,1,0,80,0,0
172357,-106.761352060164,4,1,0,80,0,0
172416,-106.249280800068,4,1,0,80,0,0
172476,-105.731278903,4,1,0,80,0,0
172595,-99.502487562189,4,1,0,100,0,0
172600,-104.712041884817,4,1,0,100,0,1
182119,-104.98687664042,4,1,0,100,0,1
182475,-108.391029408465,4,1,0,100,0,1
182714,-110.741200523661,4,1,0,100,0,1
182833,-111.931260676251,4,1,0,100,0,1
183071,-114.351871959717,4,1,0,100,0,1
183428,-118.086541163944,4,1,0,100,0,1
183666,-120.647509058159,4,1,0,100,0,1
183785,-121.949883996584,4,1,0,100,0,1
184024,-124.633125849324,4,1,0,100,0,1
184261,-119.389393842988,4,1,0,100,0,1
184499,-114.377599444631,4,1,0,100,0,1
184618,-111.955158706433,4,1,0,100,0,1
184737,-109.586556663798,4,1,0,100,0,1
184856,-107.27311735679,4,1,0,100,0,1
184914,-106.132601409358,4,1,0,100,0,1
184976,-104.98687664042,4,1,0,100,0,1
184981,-104.98687664042,4,1,0,100,0,0

[HitObjects]
296,169,221,5,0,0:0:0:0:
372,189,340,1,8,0:0:0:0:
296,169,399,1,8,0:0:0:0:
343,172,459,1,8,0:0:0:0:
372,201,578,1,8,0:0:0:0:
384,187,697,1,0,0:0:0:0:
365,186,935,1,8,0:0:0:0:
424,203,1173,1,0,0:0:0:0:
424,203,1232,1,0,0:0:0:0:
321,184,1292,1,0,0:0:0:0:
321,184,1411,1,8,0:0:0:0:
321,184,1530,1,8,0:0:0:0:
424,203,1649,1,0,0:0:0:0:
335,189,1887,1,8,0:0:0:0:
357,181,2125,1,4,0:0:0:0:
364,201,2363,1,8,0:0:0:0:
372,203,2482,1,0,0:0:0:0:
315,199,2601,1,8,0:0:0:0:
380,188,2661,1,8,0:0:0:0:
315,199,2720,1,8,0:0:0:0:
417,215,2840,1,0,0:0:0:0:
320,200,3078,1,8,0:0:0:0:
345,136,3316,1,0,0:0:0:0:
289,200,3435,1,8,0:0:0:0:
417,215,3673,1,0,0:0:0:0:
304,155,3792,1,8,0:0:0:0:
413,196,3911,1,8,0:0:0:0:
417,215,4030,1,0,0:0:0:0:
373,207,4268,1,8,0:0:0:0:
378,204,4387,1,0,0:0:0:0:
304,139,4625,1,8,0:0:0:0:
338,165,4744,1,0,0:0:0:0:
368,181,4863,1,0,0:0:0:0:
360,183,4982,1,8,0:0:0:0:
362,175,5220,1,0,0:0:0:0:
292,135,5340,1,8,0:0:0:0:
340,199,5697,1,8,0:0:0:0:
311,178,5935,1,0,0:0:0:0:
370,172,6292,1,0,0:0:0:0:
367,199,6411,1,8,0:0:0:0:
386,201,6649,1,0,0:0:0:0:
328,223,6768,1,0,0:0:0:0:
346,198,6887,1,8,0:0:0:0:
385,190,7125,1,8,0:0:0:0:
385,201,7185,1,8,0:0:0:0:
350,219,7244,1,8,0:0:0:0:
401,216,7363,1,0,0:0:0:0:
401,204,7601,1,0,0:0:0:0:
349,164,7840,1,8,0:0:0:0:
352,230,8078,1,8,0:0:0:0:
371,226,8197,1,0,0:0:0:0:
393,202,8316,1,8,0:0:0:0:
366,186,8554,1,0,0:0:0:0:
414,203,8792,1,0,0:0:0:0:
318,244,8911,1,8,0:0:0:0:
388,207,9030,1,0,0:0:0:0:
318,244,9149,1,8,0:0:0:0:
397,202,9268,1,0,0:0:0:0:
365,199,9744,1,0,0:0:0:0:
364,201,9982,1,8,0:0:0:0:
372,203,10101,1,0,0:0:0:0:
315,199,10220,1,8,0:0:0:0:
380,188,10280,1,8,0:0:0:0:
315,199,10340,1,8,0:0:0:0:
417,215,10459,1,0,0:0:0:0:
320,200,10697,1,8,0:0:0:0:
384,190,10816,1,0,0:0:0:0:
384,190,10875,1,0,0:0:0:0:
345,136,10935,1,0,0:0:0:0:
289,200,11054,1,8,0:0:0:0:
417,215,11292,1,0,0:0:0:0:
304,155,11411,1,8,0:0:0:0:
413,196,11530,1,8,0:0:0:0:
417,215,11649,1,0,0:0:0:0:
373,207,11887,1,8,0:0:0:0:
378,204,12006,1,0,0:0:0:0:
304,139,12244,1,8,0:0:0:0:
338,165,12363,1,0,0:0:0:0:
355,166,12482,1,8,0:0:0:0:
355,166,12542,1,8,0:0:0:0:
360,183,12601,1,8,0:0:0:0:
362,175,12840,1,0,0:0:0:0:
292,135,12959,1,8,0:0:0:0:
340,199,13316,1,8,0:0:0:0:
311,178,13554,1,0,0:0:0:0:
370,172,13911,1,0,0:0:0:0:
367,199,14030,1,8,0:0:0:0:
386,201,14268,1,0,0:0:0:0:
328,223,14387,1,0,0:0:0:0:
346,198,14506,1,8,0:0:0:0:
385,190,14744,1,8,0:0:0:0:
385,201,14804,1,8,0:0:0:0:
350,219,14863,1,8,0:0:0:0:
401,216,14982,1,0,0:0:0:0:
401,204,15220,5,0,0:0:0:0:
349,164,15459,1,8,0:0:0:0:
352,230,15697,1,8,0:0:0:0:
371,226,15816,1,0,0:0:0:0:
393,202,15935,1,8,0:0:0:0:
364,185,16173,1,0,0:0:0:0:
391,232,16411,5,8,0:0:0:0:
391,232,16530,1,8,0:0:0:0:
391,232,16649,1,8,0:0:0:0:
391,232,16768,1,8,0:0:0:0:
391,232,16887,1,8,0:0:0:0:
342,226,17363,1,4,0:0:0:0:
356,211,17601,1,8,0:0:0:0:
355,211,17720,1,0,0:0:0:0:
342,214,17959,1,0,0:0:0:0:
334,232,18078,1,8,0:0:0:0:
342,214,18316,1,0,0:0:0:0:
354,228,18554,1,8,0:0:0:0:
314,164,18673,1,8,0:0:0:0:
392,199,18911,1,0,0:0:0:0:
420,194,19030,1,8,0:0:0:0:
392,200,19268,1,0,0:0:0:0:
328,191,19506,1,8,0:0:0:0:
335,223,19625,1,0,0:0:0:0:
335,223,19863,1,0,0:0:0:0:
308,194,19982,1,8,0:0:0:0:
350,188,20220,1,0,0:0:0:0:
191,234,20459,1,8,0:0:0:0:
368,207,20578,1,8,0:0:0:0:
368,207,20816,1,8,0:0:0:0:
353,249,21173,1,0,0:0:0:0:
407,194,21411,1,8,0:0:0:0:
407,194,21530,1,0,0:0:0:0:
397,194,21768,1,0,0:0:0:0:
369,202,21887,1,8,0:0:0:0:
298,216,22125,1,0,0:0:0:0:
296,222,22363,1,8,0:0:0:0:
298,216,22482,1,8,0:0:0:0:
335,213,22720,1,0,0:0:0:0:
294,222,22840,1,8,0:0:0:0:
335,213,23078,1,0,0:0:0:0:
343,211,23316,1,8,0:0:0:0:
335,213,23435,1,0,0:0:0:0:
332,208,23673,1,0,0:0:0:0:
342,211,23792,1,8,0:0:0:0:
332,208,24030,1,0,0:0:0:0:
332,208,24268,1,8,0:0:0:0:
342,193,24506,1,0,0:0:0:0:
340,201,24982,1,12,0:0:0:0:
395,200,25220,1,8,0:0:0:0:
352,196,25459,1,0,0:0:0:0:
385,200,25578,1,0,0:0:0:0:
353,222,25697,1,8,0:0:0:0:
368,197,25935,1,0,0:0:0:0:
428,194,26173,1,8,0:0:0:0:
318,187,26292,1,0,0:0:0:0:
318,187,26530,1,0,0:0:0:0:
361,191,26649,1,8,0:0:0:0:
412,213,26768,1,0,0:0:0:0:
390,222,26828,1,0,0:0:0:0:
351,219,26887,1,0,0:0:0:0:
373,224,27125,1,8,0:0:0:0:
356,215,27363,1,0,0:0:0:0:
327,198,27482,1,8,0:0:0:0:
302,224,27601,1,8,0:0:0:0:
350,216,27840,1,0,0:0:0:0:
367,191,28078,1,8,0:0:0:0:
379,214,28197,1,0,0:0:0:0:
418,229,28435,1,8,0:0:0:0:
344,218,28792,1,0,0:0:0:0:
386,212,29030,1,8,0:0:0:0:
340,228,29149,1,0,0:0:0:0:
304,210,29268,1,8,0:0:0:0:
364,211,29506,1,8,0:0:0:0:
319,141,29625,1,8,0:0:0:0:
288,112,29744,1,0,0:0:0:0:
383,211,29863,1,0,0:0:0:0:
371,181,29982,1,8,0:0:0:0:
350,182,30220,1,0,0:0:0:0:
324,190,30459,1,8,0:0:0:0:
354,185,30578,1,0,0:0:0:0:
358,185,30637,1,0,0:0:0:0:
354,185,30697,1,0,0:0:0:0:
349,189,30935,1,8,0:0:0:0:
349,189,31054,1,8,0:0:0:0:
318,199,31173,1,0,0:0:0:0:
369,199,31411,1,8,0:0:0:0:
379,189,31649,1,0,0:0:0:0:
320,176,31768,1,8,0:0:0:0:
379,189,31887,1,0,0:0:0:0:
321,175,32006,1,8,0:0:0:0:
379,189,32125,1,0,0:0:0:0:
385,179,32601,1,4,0:0:0:0:
336,142,32840,1,0,0:0:0:0:
369,199,33078,1,8,0:0:0:0:
341,181,33316,1,0,0:0:0:0:
325,187,33435,1,0,0:0:0:0:
349,207,33554,1,8,0:0:0:0:
336,227,33792,1,0,0:0:0:0:
356,221,34030,1,8,0:0:0:0:
307,192,34268,1,8,0:0:0:0:
308,228,34506,1,0,0:0:0:0:
366,174,34744,1,0,0:0:0:0:
340,216,34982,1,8,0:0:0:0:
312,205,35220,1,0,0:0:0:0:
357,209,35459,1,8,0:0:0:0:
252,210,35816,1,0,0:0:0:0:
313,203,35935,1,8,0:0:0:0:
365,188,36173,1,8,0:0:0:0:
320,218,36411,1,0,0:0:0:0:
343,203,36649,1,0,0:0:0:0:
309,194,36887,1,8,0:0:0:0:
366,204,37006,1,0,0:0:0:0:
337,212,37125,1,8,0:0:0:0:
417,196,37363,1,0,0:0:0:0:
409,200,37601,1,0,0:0:0:0:
308,195,37840,1,8,0:0:0:0:
373,209,38316,1,0,0:0:0:0:
373,209,38554,1,0,0:0:0:0:
303,197,38792,1,8,0:0:0:0:
309,209,38911,1,8,0:0:0:0:
380,190,39030,1,0,0:0:0:0:
272,231,39149,1,0,0:0:0:0:
289,196,39268,1,8,0:0:0:0:
256,192,39387,12,8,39863,0:0:0:0:
376,206,40220,5,0,0:0:0:0:
347,189,40459,1,8,0:0:0:0:
376,206,40578,1,0,0:0:0:0:
388,207,40816,1,8,0:0:0:0:
362,214,40935,1,0,0:0:0:0:
388,207,41054,1,8,0:0:0:0:
344,213,41173,1,0,0:0:0:0:
319,209,41411,1,8,0:0:0:0:
341,200,41530,1,0,0:0:0:0:
332,205,41649,1,8,0:0:0:0:
332,205,41709,1,8,0:0:0:0:
388,207,41768,1,8,0:0:0:0:
332,205,41887,1,0,0:0:0:0:
314,197,42125,1,8,0:0:0:0:
321,178,42304,1,0,0:0:0:0:
314,197,42482,1,0,0:0:0:0:
298,177,42601,1,8,0:0:0:0:
374,188,42780,1,8,0:0:0:0:
298,176,42959,1,0,0:0:0:0:
382,180,43078,1,8,0:0:0:0:
400,195,43256,1,0,0:0:0:0:
400,195,43435,1,0,0:0:0:0:
406,200,43554,1,8,0:0:0:0:
406,200,43673,1,8,0:0:0:0:
406,200,43792,1,0,0:0:0:0:
373,199,44030,1,8,0:0:0:0:
345,187,44209,1,0,0:0:0:0:
380,199,44387,1,0,0:0:0:0:
311,199,44506,1,8,0:0:0:0:
336,198,44685,1,8,0:0:0:0:
311,199,44863,1,0,0:0:0:0:
336,198,44982,1,8,0:0:0:0:
354,180,45161,1,0,0:0:0:0:
354,180,45340,1,0,0:0:0:0:
336,198,45459,1,8,0:0:0:0:
413,181,45935,1,8,0:0:0:0:
366,177,46113,1,0,0:0:0:0:
366,177,46292,1,0,0:0:0:0:
366,176,46411,1,8,0:0:0:0:
350,187,46590,1,8,0:0:0:0:
387,209,46768,1,0,0:0:0:0:
427,207,46887,1,8,0:0:0:0:
324,234,47006,1,8,0:0:0:0:
342,193,47125,1,8,0:0:0:0:
379,213,47244,1,8,0:0:0:0:
371,189,47363,1,0,0:0:0:0:
341,186,47840,1,4,0:0:0:0:
362,196,48078,1,8,0:0:0:0:
322,203,48197,1,0,0:0:0:0:
212,182,48256,1,0,0:0:0:0:
282,214,48316,1,0,0:0:0:0:
280,202,48435,1,0,0:0:0:0:
344,226,48554,1,8,0:0:0:0:
405,178,48792,1,0,0:0:0:0:
333,223,49030,1,8,0:0:0:0:
282,212,49149,1,0,0:0:0:0:
333,223,49387,1,0,0:0:0:0:
301,189,49506,1,8,0:0:0:0:
369,227,49744,1,0,0:0:0:0:
372,212,49982,1,8,0:0:0:0:
344,210,50101,1,0,0:0:0:0:
386,217,50220,1,0,0:0:0:0:
386,217,50280,1,0,0:0:0:0:
344,210,50340,1,0,0:0:0:0:
194,205,50459,1,8,0:0:0:0:
330,226,50697,1,0,0:0:0:0:
342,215,50935,1,8,0:0:0:0:
344,200,51054,1,0,0:0:0:0:
344,200,51292,1,0,0:0:0:0:
320,190,51411,1,8,0:0:0:0:
380,228,51649,1,0,0:0:0:0:
334,223,52006,1,8,0:0:0:0:
289,218,52244,1,0,0:0:0:0:
325,227,52363,1,8,0:0:0:0:
282,210,52601,1,0,0:0:0:0:
409,221,52959,1,8,0:0:0:0:
378,221,53197,1,8,0:0:0:0:
358,212,53316,1,0,0:0:0:0:
361,218,53554,1,0,0:0:0:0:
392,203,53792,1,8,0:0:0:0:
359,205,53911,1,0,0:0:0:0:
389,203,54030,1,8,0:0:0:0:
389,203,54090,1,8,0:0:0:0:
385,194,54149,1,8,0:0:0:0:
397,199,54268,1,0,0:0:0:0:
235,126,54506,1,4,0:0:0:0:
364,201,54744,1,8,0:0:0:0:
372,203,54863,1,0,0:0:0:0:
315,199,54982,1,8,0:0:0:0:
380,188,55042,1,8,0:0:0:0:
315,199,55101,1,8,0:0:0:0:
417,215,55220,1,0,0:0:0:0:
320,200,55459,1,8,0:0:0:0:
345,136,55697,1,0,0:0:0:0:
289,200,55816,1,8,0:0:0:0:
417,215,56054,1,0,0:0:0:0:
304,155,56173,1,8,0:0:0:0:
413,196,56292,1,8,0:0:0:0:
417,215,56411,1,0,0:0:0:0:
373,207,56649,1,8,0:0:0:0:
378,204,56768,1,0,0:0:0:0:
304,139,57006,1,8,0:0:0:0:
338,165,57125,1,0,0:0:0:0:
368,181,57244,1,0,0:0:0:0:
360,183,57363,1,8,0:0:0:0:
362,175,57601,1,0,0:0:0:0:
292,135,57720,1,8,0:0:0:0:
340,199,58078,1,8,0:0:0:0:
311,178,58316,1,0,0:0:0:0:
370,172,58673,1,0,0:0:0:0:
367,199,58792,1,8,0:0:0:0:
386,201,59030,1,0,0:0:0:0:
328,223,59149,1,0,0:0:0:0:
346,198,59268,1,8,0:0:0:0:
385,190,59506,1,8,0:0:0:0:
385,201,59566,1,8,0:0:0:0:
350,219,59625,1,8,0:0:0:0:
401,216,59744,1,0,0:0:0:0:
401,204,59982,1,0,0:0:0:0:
349,164,60220,1,8,0:0:0:0:
352,230,60459,1,8,0:0:0:0:
371,226,60578,1,0,0:0:0:0:
393,202,60697,1,8,0:0:0:0:
366,186,60935,1,0,0:0:0:0:
414,203,61173,1,0,0:0:0:0:
318,244,61292,1,8,0:0:0:0:
388,207,61411,1,0,0:0:0:0:
318,244,61530,1,8,0:0:0:0:
397,202,61649,1,0,0:0:0:0:
365,199,62125,1,0,0:0:0:0:
364,201,62363,1,8,0:0:0:0:
372,203,62482,1,0,0:0:0:0:
315,199,62601,1,8,0:0:0:0:
380,188,62661,1,8,0:0:0:0:
315,199,62720,1,8,0:0:0:0:
417,215,62840,1,0,0:0:0:0:
320,200,63078,1,8,0:0:0:0:
384,190,63197,1,0,0:0:0:0:
384,190,63256,1,0,0:0:0:0:
345,136,63316,1,0,0:0:0:0:
289,200,63435,1,8,0:0:0:0:
417,215,63673,1,0,0:0:0:0:
304,155,63792,1,8,0:0:0:0:
413,196,63911,1,8,0:0:0:0:
417,215,64030,1,0,0:0:0:0:
373,207,64268,1,8,0:0:0:0:
378,204,64387,1,0,0:0:0:0:
304,139,64625,1,8,0:0:0:0:
338,165,64744,1,0,0:0:0:0:
355,166,64863,1,8,0:0:0:0:
355,166,64923,1,8,0:0:0:0:
360,183,64982,1,8,0:0:0:0:
362,175,65220,1,0,0:0:0:0:
292,135,65340,1,8,0:0:0:0:
340,199,65697,1,8,0:0:0:0:
311,178,65935,1,0,0:0:0:0:
370,172,66292,1,0,0:0:0:0:
367,199,66411,1,8,0:0:0:0:
386,201,66649,1,0,0:0:0:0:
328,223,66768,1,0,0:0:0:0:
346,198,66887,1,8,0:0:0:0:
385,190,67125,1,8,0:0:0:0:
385,201,67185,1,8,0:0:0:0:
350,219,67244,1,8,0:0:0:0:
401,216,67363,1,0,0:0:0:0:
401,204,67601,5,0,0:0:0:0:
349,164,67840,5,8,0:0:0:0:
352,230,68078,1,8,0:0:0:0:
371,226,68197,1,0,0:0:0:0:
393,202,68316,1,8,0:0:0:0:
364,185,68554,1,0,0:0:0:0:
391,232,68792,5,8,0:0:0:0:
391,232,68911,1,8,0:0:0:0:
391,232,69030,1,8,0:0:0:0:
391,232,69149,1,8,0:0:0:0:
391,232,69268,1,8,0:0:0:0:
342,226,69744,5,4,0:0:0:0:
329,199,70220,1,8,0:0:0:0:
414,187,70459,1,0,0:0:0:0:
414,187,70578,1,0,0:0:0:0:
329,199,70697,1,8,0:0:0:0:
369,174,70935,1,0,0:0:0:0:
372,191,71173,1,8,0:0:0:0:
395,184,71649,1,0,0:0:0:0:
354,192,72125,1,8,0:0:0:0:
359,170,72363,1,0,0:0:0:0:
354,192,72482,1,8,0:0:0:0:
359,170,72601,1,0,0:0:0:0:
359,170,72840,1,0,0:0:0:0:
355,176,73078,1,8,0:0:0:0:
319,169,73554,1,0,0:0:0:0:
423,224,74030,1,8,0:0:0:0:
384,195,74268,1,0,0:0:0:0:
365,207,74387,1,8,0:0:0:0:
365,207,74506,1,8,0:0:0:0:
384,195,74744,1,0,0:0:0:0:
374,193,74982,1,8,0:0:0:0:
311,201,75459,1,0,0:0:0:0:
362,180,75935,1,8,0:0:0:0:
251,206,76173,1,8,0:0:0:0:
251,206,76292,1,0,0:0:0:0:
324,194,76411,1,8,0:0:0:0:
251,206,76649,1,0,0:0:0:0:
352,206,76887,1,8,0:0:0:0:
365,163,77363,1,0,0:0:0:0:
348,181,77840,1,8,0:0:0:0:
334,186,78078,1,0,0:0:0:0:
334,186,78197,1,0,0:0:0:0:
298,194,78316,1,8,0:0:0:0:
334,186,78554,1,0,0:0:0:0:
376,183,78792,1,8,0:0:0:0:
309,175,79268,1,0,0:0:0:0:
345,188,79744,1,8,0:0:0:0:
420,176,79982,1,0,0:0:0:0:
345,188,80101,1,8,0:0:0:0:
420,176,80220,1,0,0:0:0:0:
420,176,80459,1,0,0:0:0:0:
384,183,80697,1,8,0:0:0:0:
369,164,81173,1,0,0:0:0:0:
419,161,81649,1,8,0:0:0:0:
389,185,81887,1,0,0:0:0:0:
333,167,82006,1,8,0:0:0:0:
333,167,82125,1,8,0:0:0:0:
389,185,82363,1,0,0:0:0:0:
404,200,82601,1,8,0:0:0:0:
373,200,83078,1,0,0:0:0:0:
400,192,83554,1,8,0:0:0:0:
409,188,83792,1,8,0:0:0:0:
409,188,83911,1,0,0:0:0:0:
388,195,84030,1,8,0:0:0:0:
409,188,84268,1,0,0:0:0:0:
403,197,84506,1,8,0:0:0:0:
451,184,84982,1,8,0:0:0:0:
420,181,85220,1,4,0:0:0:0:
356,211,85458,1,8,0:0:0:0:
355,211,85577,1,0,0:0:0:0:
342,214,85815,1,0,0:0:0:0:
334,232,85934,1,8,0:0:0:0:
342,214,86172,1,0,0:0:0:0:
354,228,86410,1,8,0:0:0:0:
314,164,86529,1,8,0:0:0:0:
392,199,86767,1,0,0:0:0:0:
420,194,86886,1,8,0:0:0:0:
392,200,87124,1,0,0:0:0:0:
328,191,87362,1,8,0:0:0:0:
335,223,87481,1,0,0:0:0:0:
335,223,87720,1,0,0:0:0:0:
308,194,87839,1,8,0:0:0:0:
350,188,88077,1,0,0:0:0:0:
191,234,88315,1,8,0:0:0:0:
368,207,88434,1,8,0:0:0:0:
368,207,88672,1,8,0:0:0:0:
353,249,89029,1,0,0:0:0:0:
407,194,89267,1,8,0:0:0:0:
407,194,89386,1,0,0:0:0:0:
397,194,89624,1,0,0:0:0:0:
369,202,89743,1,8,0:0:0:0:
298,216,89981,1,0,0:0:0:0:
296,222,90220,1,8,0:0:0:0:
298,216,90339,1,8,0:0:0:0:
335,213,90577,1,0,0:0:0:0:
294,222,90696,1,8,0:0:0:0:
335,213,90934,1,0,0:0:0:0:
343,211,91172,1,8,0:0:0:0:
335,213,91291,1,0,0:0:0:0:
332,208,91529,1,0,0:0:0:0:
342,211,91648,5,8,0:0:0:0:
332,208,91886,1,0,0:0:0:0:
332,208,92124,1,8,0:0:0:0:
342,193,92362,1,0,0:0:0:0:
394,201,92839,5,12,0:0:0:0:
395,200,93077,1,8,0:0:0:0:
352,196,93315,1,0,0:0:0:0:
385,200,93434,1,0,0:0:0:0:
353,222,93553,1,8,0:0:0:0:
368,197,93791,1,0,0:0:0:0:
428,194,94029,1,8,0:0:0:0:
318,187,94148,1,0,0:0:0:0:
318,187,94386,1,0,0:0:0:0:
361,191,94505,1,8,0:0:0:0:
351,219,94743,1,0,0:0:0:0:
373,224,94981,1,8,0:0:0:0:
356,237,95100,1,8,0:0:0:0:
356,215,95220,1,0,0:0:0:0:
446,209,95279,1,0,0:0:0:0:
446,209,95339,1,0,0:0:0:0:
302,224,95458,1,8,0:0:0:0:
350,216,95696,1,0,0:0:0:0:
367,191,95934,1,8,0:0:0:0:
379,214,96053,1,0,0:0:0:0:
418,229,96291,1,8,0:0:0:0:
344,218,96648,1,0,0:0:0:0:
340,228,97005,1,0,0:0:0:0:
304,210,97124,1,8,0:0:0:0:
364,211,97362,1,8,0:0:0:0:
319,141,97481,1,8,0:0:0:0:
288,112,97600,1,0,0:0:0:0:
371,181,97839,1,0,0:0:0:0:
371,181,98077,1,8,0:0:0:0:
324,190,98315,1,8,0:0:0:0:
354,185,98434,1,0,0:0:0:0:
358,185,98493,1,0,0:0:0:0:
354,185,98553,1,0,0:0:0:0:
349,189,98791,1,8,0:0:0:0:
349,189,98910,1,8,0:0:0:0:
318,199,99029,1,0,0:0:0:0:
369,199,99267,1,8,0:0:0:0:
379,189,99505,1,0,0:0:0:0:
320,176,99624,1,8,0:0:0:0:
379,189,99743,1,0,0:0:0:0:
321,175,99862,1,8,0:0:0:0:
379,189,99981,1,0,0:0:0:0:
401,205,100220,1,8,0:0:0:0:
362,201,102362,5,0,0:0:0:0:
382,204,102600,1,8,0:0:0:0:
362,201,102720,1,0,0:0:0:0:
368,206,102958,1,8,0:0:0:0:
362,201,103077,1,0,0:0:0:0:
368,206,103196,1,8,0:0:0:0:
362,201,103315,1,0,0:0:0:0:
348,193,103553,1,8,0:0:0:0:
348,193,103612,1,8,0:0:0:0:
383,204,103672,1,8,0:0:0:0:
362,201,103791,1,0,0:0:0:0:
314,197,104029,1,8,0:0:0:0:
321,178,104207,1,0,0:0:0:0:
314,197,104386,1,0,0:0:0:0:
298,177,104505,1,8,0:0:0:0:
374,188,104683,1,8,0:0:0:0:
298,176,104862,1,0,0:0:0:0:
382,180,104981,1,8,0:0:0:0:
400,195,105159,1,0,0:0:0:0:
400,195,105338,1,0,0:0:0:0:
406,200,105457,1,8,0:0:0:0:
406,200,105576,1,8,0:0:0:0:
406,200,105695,1,0,0:0:0:0:
373,199,105933,1,8,0:0:0:0:
345,187,106112,1,0,0:0:0:0:
380,199,106290,1,0,0:0:0:0:
311,199,106409,1,8,0:0:0:0:
336,198,106588,1,8,0:0:0:0:
311,199,106767,1,0,0:0:0:0:
336,198,106886,1,8,0:0:0:0:
354,180,107064,1,0,0:0:0:0:
354,180,107243,1,0,0:0:0:0:
336,198,107362,1,8,0:0:0:0:
413,181,107838,1,8,0:0:0:0:
366,177,108017,1,0,0:0:0:0:
366,177,108195,5,0,0:0:0:0:
366,176,108314,1,8,0:0:0:0:
350,187,108493,1,8,0:0:0:0:
387,209,108671,1,0,0:0:0:0:
427,207,108790,1,8,0:0:0:0:
324,234,108909,1,8,0:0:0:0:
342,193,109029,1,8,0:0:0:0:
379,213,109148,1,8,0:0:0:0:
371,189,109267,1,0,0:0:0:0:
341,186,109743,1,4,0:0:0:0:
362,196,109981,1,8,0:0:0:0:
322,203,110100,1,0,0:0:0:0:
212,182,110159,1,0,0:0:0:0:
282,214,110219,1,0,0:0:0:0:
280,202,110338,1,0,0:0:0:0:
344,226,110457,1,8,0:0:0:0:
405,178,110695,1,0,0:0:0:0:
333,223,110933,1,8,0:0:0:0:
282,212,111052,1,0,0:0:0:0:
333,223,111290,1,0,0:0:0:0:
301,189,111409,1,8,0:0:0:0:
369,227,111648,1,0,0:0:0:0:
372,212,111886,1,8,0:0:0:0:
344,210,112005,1,0,0:0:0:0:
386,217,112124,1,0,0:0:0:0:
386,217,112183,1,0,0:0:0:0:
344,210,112243,1,0,0:0:0:0:
194,205,112362,1,8,0:0:0:0:
330,226,112600,1,0,0:0:0:0:
342,215,112838,1,8,0:0:0:0:
344,200,112957,1,0,0:0:0:0:
344,200,113195,1,0,0:0:0:0:
320,190,113314,1,8,0:0:0:0:
380,228,113552,1,0,0:0:0:0:
334,223,113909,1,8,0:0:0:0:
289,218,114148,1,0,0:0:0:0:
325,227,114267,1,8,0:0:0:0:
282,210,114505,1,0,0:0:0:0:
409,221,114862,1,8,0:0:0:0:
378,221,115100,1,8,0:0:0:0:
358,212,115219,1,0,0:0:0:0:
361,218,115457,5,0,0:0:0:0:
392,203,115695,1,8,0:0:0:0:
359,205,115814,1,0,0:0:0:0:
389,203,115933,1,8,0:0:0:0:
389,203,115993,1,8,0:0:0:0:
385,194,116052,1,8,0:0:0:0:
397,199,116171,1,0,0:0:0:0:
293,215,116409,1,8,0:0:0:0:
371,218,116648,5,8,0:0:0:0:
371,218,116886,1,8,0:0:0:0:
329,216,117362,1,4,0:0:0:0:
283,201,117600,1,8,0:0:0:0:
378,203,117838,1,0,0:0:0:0:
297,171,117957,1,0,0:0:0:0:
367,199,118076,1,8,0:0:0:0:
442,172,118136,1,8,0:0:0:0:
352,188,118195,1,8,0:0:0:0:
348,234,118314,1,0,0:0:0:0:
395,207,118552,1,8,0:0:0:0:
379,200,118790,1,0,0:0:0:0:
436,197,118909,1,0,0:0:0:0:
359,156,119029,1,8,0:0:0:0:
413,207,119267,1,8,0:0:0:0:
413,207,119326,1,8,0:0:0:0:
412,207,119386,1,8,0:0:0:0:
431,210,119505,1,0,0:0:0:0:
392,190,119743,1,8,0:0:0:0:
351,195,119862,1,0,0:0:0:0:
392,190,119981,1,8,0:0:0:0:
403,203,120219,1,0,0:0:0:0:
421,200,120278,1,0,0:0:0:0:
421,200,120338,1,0,0:0:0:0:
448,193,120457,1,8,0:0:0:0:
430,176,120576,1,0,0:0:0:0:
391,192,120695,1,8,0:0:0:0:
347,201,121171,1,8,0:0:0:0:
396,206,121409,1,0,0:0:0:0:
324,231,121529,1,0,0:0:0:0:
369,206,121648,1,8,0:0:0:0:
369,206,121707,1,8,0:0:0:0:
369,206,121767,1,8,0:0:0:0:
371,226,121886,1,0,0:0:0:0:
313,221,122124,1,8,0:0:0:0:
296,239,122243,1,0,0:0:0:0:
408,229,122362,1,8,0:0:0:0:
387,205,122600,1,0,0:0:0:0:
329,193,122838,1,8,0:0:0:0:
337,203,123076,1,0,0:0:0:0:
338,203,123136,1,0,0:0:0:0:
338,203,123195,1,0,0:0:0:0:
325,207,123314,1,8,0:0:0:0:
361,174,123552,1,8,0:0:0:0:
436,178,123612,1,8,0:0:0:0:
361,174,123671,1,8,0:0:0:0:
388,190,123790,1,0,0:0:0:0:
309,188,124028,1,8,0:0:0:0:
391,207,124148,1,8,0:0:0:0:
417,192,124267,1,0,0:0:0:0:
372,204,124386,1,0,0:0:0:0:
293,216,124505,1,8,0:0:0:0:
382,213,124981,1,8,0:0:0:0:
383,199,125219,1,8,0:0:0:0:
323,204,125457,1,8,0:0:0:0:
325,191,125576,1,0,0:0:0:0:
323,204,125695,1,8,0:0:0:0:
326,191,125814,1,0,0:0:0:0:
323,204,125933,1,8,0:0:0:0:
354,213,126171,1,8,0:0:0:0:
354,213,126409,1,8,0:0:0:0:
340,234,126528,1,8,0:0:0:0:
312,209,126648,1,0,0:0:0:0:
312,209,126767,1,0,0:0:0:0:
266,214,126886,1,8,0:0:0:0:
266,214,127124,1,8,0:0:0:0:
266,214,127362,1,8,0:0:0:0:
310,204,127481,1,0,0:0:0:0:
320,199,127600,1,8,0:0:0:0:
310,204,127719,1,0,0:0:0:0:
320,199,127838,1,8,0:0:0:0:
320,199,128076,1,8,0:0:0:0:
361,212,128195,1,8,0:0:0:0:
286,224,128314,1,0,0:0:0:0:
329,203,128790,1,8,0:0:0:0:
324,212,129028,1,8,0:0:0:0:
324,212,129267,1,8,0:0:0:0:
376,209,129386,1,0,0:0:0:0:
346,226,129505,1,8,0:0:0:0:
334,204,129624,1,0,0:0:0:0:
325,201,129743,1,8,0:0:0:0:
324,201,129981,1,8,0:0:0:0:
378,198,130219,1,8,0:0:0:0:
396,192,130338,1,8,0:0:0:0:
339,191,130457,1,0,0:0:0:0:
339,191,130576,1,0,0:0:0:0:
357,206,130695,1,8,0:0:0:0:
378,198,130933,1,8,0:0:0:0:
376,198,131171,1,8,0:0:0:0:
357,206,131290,1,0,0:0:0:0:
384,204,131409,1,8,0:0:0:0:
356,207,131648,1,8,0:0:0:0:
356,207,131767,1,8,0:0:0:0:
352,206,131886,1,8,0:0:0:0:
357,206,132005,1,8,0:0:0:0:
356,207,132124,1,8,0:0:0:0:
312,200,132600,1,0,0:0:0:0:
361,195,133076,1,8,0:0:0:0:
388,192,133433,1,0,0:0:0:0:
388,192,133552,1,0,0:0:0:0:
388,183,134029,1,8,0:0:0:0:
367,161,134267,1,0,0:0:0:0:
373,161,134505,1,0,0:0:0:0:
402,194,134981,1,8,0:0:0:0:
348,206,135338,1,0,0:0:0:0:
359,204,135457,1,0,0:0:0:0:
347,193,135933,1,8,0:0:0:0:
332,167,136409,1,0,0:0:0:0:
359,152,136886,1,8,0:0:0:0:
334,181,137243,1,0,0:0:0:0:
263,182,137362,1,0,0:0:0:0:
400,200,137838,1,8,0:0:0:0:
355,193,138076,1,0,0:0:0:0:
355,193,138314,1,0,0:0:0:0:
370,163,138790,1,8,0:0:0:0:
389,184,139148,1,0,0:0:0:0:
425,177,139267,1,0,0:0:0:0:
384,177,139743,1,8,0:0:0:0:
386,197,140219,1,0,0:0:0:0:
367,192,140695,1,8,0:0:0:0:
367,184,141052,1,0,0:0:0:0:
367,184,141171,1,0,0:0:0:0:
375,200,141648,1,8,0:0:0:0:
358,201,141886,1,0,0:0:0:0:
389,193,142124,1,0,0:0:0:0:
362,171,142600,1,8,0:0:0:0:
394,186,142957,1,0,0:0:0:0:
394,186,143076,1,0,0:0:0:0:
339,171,143552,1,8,0:0:0:0:
331,171,144028,1,0,0:0:0:0:
361,186,144505,1,8,0:0:0:0:
394,183,144862,1,0,0:0:0:0:
394,183,144981,1,0,0:0:0:0:
405,186,145457,1,8,0:0:0:0:
324,188,145695,1,0,0:0:0:0:
324,188,145933,1,0,0:0:0:0:
362,169,146409,1,8,0:0:0:0:
414,181,146767,1,0,0:0:0:0:
414,181,146886,1,0,0:0:0:0:
419,172,147362,1,8,0:0:0:0:
429,172,147838,1,4,0:0:0:0:
439,175,148076,1,8,0:0:0:0:
402,175,148195,1,0,0:0:0:0:
408,172,148314,1,8,0:0:0:0:
407,188,148433,1,8,0:0:0:0:
407,188,148552,1,0,0:0:0:0:
382,251,148790,1,8,0:0:0:0:
413,228,149028,1,0,0:0:0:0:
413,228,149148,1,0,0:0:0:0:
469,187,149267,1,8,0:0:0:0:
469,187,149505,1,8,0:0:0:0:
408,202,149743,1,0,0:0:0:0:
406,186,149862,1,0,0:0:0:0:
428,198,149981,1,8,0:0:0:0:
428,198,150100,1,0,0:0:0:0:
406,188,150219,1,8,0:0:0:0:
341,160,150457,1,0,0:0:0:0:
405,188,150695,1,8,0:0:0:0:
345,170,150814,1,8,0:0:0:0:
369,170,150933,1,0,0:0:0:0:
413,180,151171,1,8,0:0:0:0:
430,187,151648,1,0,0:0:0:0:
360,202,151886,1,8,0:0:0:0:
376,189,152005,1,0,0:0:0:0:
391,194,152124,1,8,0:0:0:0:
391,194,152243,1,8,0:0:0:0:
402,212,152362,1,0,0:0:0:0:
434,187,152600,1,8,0:0:0:0:
434,187,152719,1,0,0:0:0:0:
372,192,152838,1,0,0:0:0:0:
337,173,152957,1,8,0:0:0:0:
419,179,153195,1,8,0:0:0:0:
355,141,153433,1,0,0:0:0:0:
376,181,153552,1,8,0:0:0:0:
445,172,153790,1,0,0:0:0:0:
382,171,154028,1,8,0:0:0:0:
326,159,154148,1,0,0:0:0:0:
373,180,154267,1,0,0:0:0:0:
374,180,154386,1,0,0:0:0:0:
411,176,154505,1,8,0:0:0:0:
379,166,154981,1,8,0:0:0:0:
400,190,155219,1,0,0:0:0:0:
400,190,155695,1,0,0:0:0:0:
443,195,155933,1,8,0:0:0:0:
389,205,156409,1,0,0:0:0:0:
402,205,156648,1,8,0:0:0:0:
389,205,156767,1,0,0:0:0:0:
402,205,157005,1,8,0:0:0:0:
389,205,157124,1,0,0:0:0:0:
402,205,157243,1,8,0:0:0:0:
389,205,157362,1,0,0:0:0:0:
423,188,157600,1,8,0:0:0:0:
354,192,157719,1,0,0:0:0:0:
373,160,157838,1,8,0:0:0:0:
373,160,157898,1,8,0:0:0:0:
402,205,157957,1,8,0:0:0:0:
354,192,158076,1,0,0:0:0:0:
314,197,158314,1,8,0:0:0:0:
321,178,158493,1,0,0:0:0:0:
314,197,158671,1,0,0:0:0:0:
298,177,158790,1,8,0:0:0:0:
374,188,158969,1,8,0:0:0:0:
298,176,159148,1,0,0:0:0:0:
382,180,159267,1,8,0:0:0:0:
400,195,159445,1,0,0:0:0:0:
400,195,159624,1,0,0:0:0:0:
406,200,159743,1,8,0:0:0:0:
406,200,159862,1,8,0:0:0:0:
406,200,159981,1,0,0:0:0:0:
373,199,160219,1,8,0:0:0:0:
345,187,160398,1,0,0:0:0:0:
380,199,160576,1,0,0:0:0:0:
311,199,160695,1,8,0:0:0:0:
336,198,160874,1,8,0:0:0:0:
311,199,161052,1,0,0:0:0:0:
336,198,161171,1,8,0:0:0:0:
354,180,161350,1,0,0:0:0:0:
354,180,161528,1,0,0:0:0:0:
336,198,161648,1,8,0:0:0:0:
413,181,162124,1,8,0:0:0:0:
366,177,162302,1,0,0:0:0:0:
366,177,162481,5,0,0:0:0:0:
366,176,162600,5,8,0:0:0:0:
350,187,162778,1,8,0:0:0:0:
387,209,162957,1,0,0:0:0:0:
427,207,163076,1,8,0:0:0:0:
324,234,163195,1,8,0:0:0:0:
342,193,163314,1,8,0:0:0:0:
379,213,163433,1,8,0:0:0:0:
371,189,163552,1,0,0:0:0:0:
345,146,164028,1,4,0:0:0:0:
362,196,164267,1,8,0:0:0:0:
322,203,164386,1,0,0:0:0:0:
212,182,164445,1,0,0:0:0:0:
282,214,164505,1,0,0:0:0:0:
280,202,164624,1,0,0:0:0:0:
344,226,164743,1,8,0:0:0:0:
405,178,164981,1,0,0:0:0:0:
333,223,165219,1,8,0:0:0:0:
282,212,165338,1,0,0:0:0:0:
333,223,165576,1,0,0:0:0:0:
301,189,165695,1,8,0:0:0:0:
369,227,165933,1,0,0:0:0:0:
372,212,166171,1,8,0:0:0:0:
344,210,166290,1,0,0:0:0:0:
386,217,166409,1,0,0:0:0:0:
386,217,166469,1,0,0:0:0:0:
344,210,166528,1,0,0:0:0:0:
194,205,166648,1,8,0:0:0:0:
330,226,166886,1,0,0:0:0:0:
342,215,167124,1,8,0:0:0:0:
344,200,167243,1,0,0:0:0:0:
344,200,167481,1,0,0:0:0:0:
320,190,167600,1,8,0:0:0:0:
380,228,167838,1,0,0:0:0:0:
334,223,168195,1,8,0:0:0:0:
289,218,168433,1,0,0:0:0:0:
325,227,168552,1,8,0:0:0:0:
282,210,168790,1,0,0:0:0:0:
409,221,169148,1,8,0:0:0:0:
378,221,169386,1,8,0:0:0:0:
358,212,169505,1,0,0:0:0:0:
361,218,169743,5,0,0:0:0:0:
392,203,169981,1,8,0:0:0:0:
359,205,170100,1,0,0:0:0:0:
389,203,170219,1,8,0:0:0:0:
389,203,170278,1,8,0:0:0:0:
385,194,170338,1,8,0:0:0:0:
397,199,170457,1,0,0:0:0:0:
279,155,170695,1,0,0:0:0:0:
409,220,170933,1,8,0:0:0:0:
415,212,171052,1,0,0:0:0:0:
394,203,171290,1,8,0:0:0:0:
400,219,171409,1,0,0:0:0:0:
343,231,171528,1,8,0:0:0:0:
338,232,171648,1,0,0:0:0:0:
379,177,172124,1,0,0:0:0:0:
379,177,172243,1,0,0:0:0:0:
374,205,172362,1,8,0:0:0:0:
374,205,172421,1,8,0:0:0:0:
374,205,172481,1,8,0:0:0:0:
372,224,172600,1,0,0:0:0:0:
307,174,172838,1,8,0:0:0:0:
342,212,172957,1,8,0:0:0:0:
388,212,173076,1,0,0:0:0:0:
375,191,173136,1,0,0:0:0:0:
375,191,173195,1,0,0:0:0:0:
331,188,173314,1,8,0:0:0:0:
336,209,173552,1,0,0:0:0:0:
355,206,173790,1,8,0:0:0:0:
396,221,173909,1,8,0:0:0:0:
387,212,174028,1,0,0:0:0:0:
368,206,174267,1,8,0:0:0:0:
368,206,174326,1,8,0:0:0:0:
390,177,174386,1,8,0:0:0:0:
347,225,174505,1,0,0:0:0:0:
377,218,174743,1,8,0:0:0:0:
395,235,174981,1,8,0:0:0:0:
405,229,175100,1,8,0:0:0:0:
395,214,175219,1,0,0:0:0:0:
339,207,175278,1,0,0:0:0:0:
349,189,175338,1,0,0:0:0:0:
354,169,175457,1,8,0:0:0:0:
356,182,175695,1,0,0:0:0:0:
354,178,175814,1,0,0:0:0:0:
351,191,175933,1,8,0:0:0:0:
376,197,176409,1,0,0:0:0:0:
340,194,176648,1,8,0:0:0:0:
338,244,176767,1,0,0:0:0:0:
372,201,176886,1,0,0:0:0:0:
372,201,176945,1,0,0:0:0:0:
387,202,177005,1,0,0:0:0:0:
375,186,177124,1,8,0:0:0:0:
365,207,177362,1,8,0:0:0:0:
458,153,177719,1,8,0:0:0:0:
416,233,177838,1,0,0:0:0:0:
405,207,178076,1,8,0:0:0:0:
405,207,178136,1,8,0:0:0:0:
405,207,178195,1,8,0:0:0:0:
314,241,178314,1,0,0:0:0:0:
376,245,178552,1,8,0:0:0:0:
332,217,178671,1,8,0:0:0:0:
371,201,178790,1,0,0:0:0:0:
343,218,178909,1,0,0:0:0:0:
350,229,179028,1,0,0:0:0:0:
343,218,179148,1,0,0:0:0:0:
365,245,179267,1,8,0:0:0:0:
350,228,179505,1,0,0:0:0:0:
350,228,179624,1,0,0:0:0:0:
369,226,179743,1,8,0:0:0:0:
365,245,179862,1,8,0:0:0:0:
337,197,179981,1,8,0:0:0:0:
364,245,180100,1,8,0:0:0:0:
367,236,180219,1,0,0:0:0:0:
398,206,180457,1,8,0:0:0:0:
335,190,180576,1,8,0:0:0:0:
354,233,180695,1,0,0:0:0:0:
441,195,180814,1,0,0:0:0:0:
372,223,180933,1,8,0:0:0:0:
372,223,181052,1,8,0:0:0:0:
441,195,181171,1,0,0:0:0:0:
389,212,181409,1,0,0:0:0:0:
405,200,181528,1,8,0:0:0:0:
384,209,181648,1,0,0:0:0:0:
374,247,181767,1,8,0:0:0:0:
232,281,181886,1,0,0:0:0:0:
349,197,182124,1,8,0:0:0:0:
334,223,182481,1,8,0:0:0:0:
289,218,182719,1,0,0:0:0:0:
325,227,182838,1,8,0:0:0:0:
282,210,183076,1,0,0:0:0:0:
409,221,183433,1,8,0:0:0:0:
378,221,183671,1,8,0:0:0:0:
358,212,183790,1,0,0:0:0:0:
350,232,184028,1,0,0:0:0:0:
350,232,184267,1,0,0:0:0:0:
350,232,184505,1,0,0:0:0:0:
391,204,184624,1,0,0:0:0:0:
391,193,184743,1,0,0:0:0:0:
391,204,184862,1,8,0:0:0:0:
391,204,184921,1,8,0:0:0:0:
365,181,184981,1,8,0:0:0:0:
