osu file format v14

[General]
AudioFilename: audio.mp3
AudioLeadIn: 0
PreviewTime: 40140
Countdown: 0
SampleSet: Normal
StackLeniency: 0.7
Mode: 1
LetterboxInBreaks: 0
WidescreenStoryboard: 1

[Editor]
DistanceSpacing: 1
BeatDivisor: 4
GridSize: 32
TimelineZoom: 0.8999996

[Metadata]
Title:Kyu-kurarin (7_7 bootleg)
TitleUnicode:きゅうくらりん (7_7 bootleg)
Artist:Iyowa feat. KAFU
ArtistUnicode:いよわ feat. 可不
Creator:woosungko
Version:Kantan
Source:
Tags:花譜 かふ CeVIO AI KAMITSUBAKI STUDIO 神椿スタジオ artificial singing synthesizer kaf-u vocaloid female vocalist japanese pop jpop j-pop electronic remix
BeatmapID:3782832
BeatmapSetID:1837174

[Difficulty]
HPDrainRate:7
CircleSize:5
OverallDifficulty:3
ApproachRate:5
SliderMultiplier:1.4
SliderTickRate:1

[Events]
//Background and Video events
0,0,"7.jpg",0,80
//Break Periods
//Storyboard Layer 0 (Background)
//Storyboard Layer 1 (Fail)
//Storyboard Layer 2 (Pass)
//Storyboard Layer 3 (Foreground)
//Storyboard Layer 4 (Overlay)
//Storyboard Sound Samples

[TimingPoints]
221,238.095238095238,4,1,0,60,1,0
221,-111.111111111111,4,1,0,60,0,0
2096,-111.111111111111,4,1,0,80,0,0
2125,-111.111111111111,4,1,0,80,0,1
2155,-111.111111111111,4,1,0,80,0,1
17363,-111.111111111111,4,1,0,80,0,0
17393,-111.111111111111,4,1,0,80,0,0
24952,-111.111111111111,4,1,0,80,0,0
25012,-111.111111111111,4,1,0,80,0,0
32596,-111.111111111111,4,1,0,80,0,0
40173,-111.111111111111,4,1,0,100,0,0
42125,-111.111111111111,4,1,0,100,0,1
47810,-111.111111111111,4,1,0,80,0,1
47840,-111.111111111111,4,1,0,80,0,0
47869,-111.111111111111,4,1,0,80,0,0
51645,-111.111111111111,4,1,0,80,0,0
54502,-111.111111111111,4,1,0,80,0,0
54506,-111.111111111111,4,1,0,80,0,1
69739,-111.111111111111,4,1,0,80,0,1
69744,-111.111111111111,4,1,0,80,0,0
69774,-111.111111111111,4,1,0,60,0,0
84982,238.095238095238,4,1,0,60,1,8
84982,-111.111111111111,4,1,0,60,0,0
85180,-111.111111111111,4,1,0,80,0,0
85220,238.095238095238,4,1,0,80,1,0
85220,-111.111111111111,4,1,0,80,0,0
85250,-111.111111111111,4,1,0,80,0,0
92835,-111.111111111111,4,1,0,80,0,0
92869,-111.111111111111,4,1,0,80,0,0
100453,-111.111111111111,4,1,0,40,0,0
101406,-111.111111111111,4,1,0,40,0,0
102323,-111.111111111111,4,1,0,100,0,0
104024,-111.111111111111,4,1,0,100,0,0
104029,238.095238095238,4,1,0,100,1,1
104029,-111.111111111111,4,1,0,100,0,1
109714,-111.111111111111,4,1,0,80,0,1
109743,-111.111111111111,4,1,0,80,0,0
109773,-111.111111111111,4,1,0,80,0,0
132560,-111.111111111111,4,1,0,60,0,0
132595,-111.111111111111,4,1,0,60,0,0
147809,-111.111111111111,4,1,0,80,0,0
147868,-111.111111111111,4,1,0,80,0,0
156370,-111.111111111111,4,1,0,100,0,0
158310,-111.111111111111,4,1,0,100,0,0
158314,-111.111111111111,4,1,0,100,0,1
163999,-111.111111111111,4,1,0,80,0,1
164028,-111.111111111111,4,1,0,80,0,0
164059,-111.111111111111,4,1,0,80,0,0
172595,-111.111111111111,4,1,0,100,0,0
172600,-111.111111111111,4,1,0,100,0,1
184976,-111.111111111111,4,1,0,100,0,1
184981,-111.111111111111,4,1,0,100,0,0

[HitObjects]
296,169,221,5,0,0:0:0:0:
343,172,459,1,8,0:0:0:0:
384,187,697,1,0,0:0:0:0:
424,203,1173,1,8,0:0:0:0:
321,184,1411,1,0,0:0:0:0:
321,184,1649,1,8,0:0:0:0:
357,181,2125,1,4,0:0:0:0:
372,203,2601,1,8,0:0:0:0:
320,200,3078,1,0,0:0:0:0:
289,200,3435,1,8,0:0:0:0:
417,215,4030,1,0,0:0:0:0:
378,204,4387,1,0,0:0:0:0:
304,139,4982,1,8,0:0:0:0:
311,178,5935,1,0,0:0:0:0:
367,199,6411,1,8,0:0:0:0:
328,223,6887,1,0,0:0:0:0:
401,216,7125,1,0,0:0:0:0:
385,190,7363,1,8,0:0:0:0:
349,164,7840,1,0,0:0:0:0:
366,186,8316,1,8,0:0:0:0:
414,203,8792,1,0,0:0:0:0:
343,163,9744,1,0,0:0:0:0:
364,201,10220,1,8,0:0:0:0:
320,200,10697,1,0,0:0:0:0:
289,200,11054,1,8,0:0:0:0:
417,215,11649,1,0,0:0:0:0:
373,207,12006,1,0,0:0:0:0:
368,181,12601,1,8,0:0:0:0:
311,178,13554,1,0,0:0:0:0:
367,199,14030,1,8,0:0:0:0:
328,223,14506,1,8,0:0:0:0:
401,216,14744,1,0,0:0:0:0:
385,190,14982,1,8,0:0:0:0:
349,164,15459,1,0,0:0:0:0:
366,186,15935,1,8,0:0:0:0:
363,191,16411,1,0,0:0:0:0:
342,226,17363,1,4,0:0:0:0:
277,206,17840,1,8,0:0:0:0:
342,214,18316,1,0,0:0:0:0:
342,214,18673,1,8,0:0:0:0:
368,155,19268,1,8,0:0:0:0:
335,223,19744,1,0,0:0:0:0:
308,194,20220,1,8,0:0:0:0:
350,188,20578,1,0,0:0:0:0:
353,249,21173,1,0,0:0:0:0:
369,202,21649,1,8,0:0:0:0:
296,222,22125,1,0,0:0:0:0:
343,211,23078,1,8,0:0:0:0:
335,213,23554,1,0,0:0:0:0:
332,208,24030,1,8,0:0:0:0:
340,201,24982,1,12,0:0:0:0:
442,178,25459,1,8,0:0:0:0:
368,197,25935,1,0,0:0:0:0:
318,187,26292,1,8,0:0:0:0:
351,219,26887,1,0,0:0:0:0:
356,215,27125,1,0,0:0:0:0:
373,224,27363,1,8,0:0:0:0:
429,153,27840,1,0,0:0:0:0:
344,218,28792,1,0,0:0:0:0:
304,210,29268,1,8,0:0:0:0:
288,112,29744,1,0,0:0:0:0:
371,181,29982,1,8,0:0:0:0:
350,182,30220,1,0,0:0:0:0:
402,180,30697,1,8,0:0:0:0:
318,199,31173,1,0,0:0:0:0:
315,185,31649,1,8,0:0:0:0:
385,179,32601,1,4,0:0:0:0:
369,199,33078,1,8,0:0:0:0:
325,187,33554,1,0,0:0:0:0:
336,227,33792,1,0,0:0:0:0:
356,221,34030,1,8,0:0:0:0:
308,228,34506,1,0,0:0:0:0:
340,216,34982,1,8,0:0:0:0:
342,184,35459,1,0,0:0:0:0:
320,218,36411,1,0,0:0:0:0:
309,194,36887,1,8,0:0:0:0:
417,196,37363,1,0,0:0:0:0:
409,200,37601,1,8,0:0:0:0:
308,195,37840,1,8,0:0:0:0:
373,209,38316,1,0,0:0:0:0:
303,197,38792,1,8,0:0:0:0:
380,190,39268,1,0,0:0:0:0:
376,206,40220,5,0,0:0:0:0:
376,206,40697,1,8,0:0:0:0:
388,207,40935,1,8,0:0:0:0:
344,213,41173,1,0,0:0:0:0:
314,197,42125,1,8,0:0:0:0:
321,178,42363,1,8,0:0:0:0:
314,197,42601,1,0,0:0:0:0:
358,153,42840,1,0,0:0:0:0:
382,180,43078,1,8,0:0:0:0:
400,195,43554,1,0,0:0:0:0:
313,183,44030,1,8,0:0:0:0:
345,187,44268,1,0,0:0:0:0:
380,199,44506,1,0,0:0:0:0:
380,199,44744,1,0,0:0:0:0:
336,198,44982,1,8,0:0:0:0:
394,183,45459,1,8,0:0:0:0:
386,189,45935,1,0,0:0:0:0:
333,187,46649,1,8,0:0:0:0:
384,181,46887,1,0,0:0:0:0:
384,181,47125,1,0,0:0:0:0:
359,192,47363,1,8,0:0:0:0:
341,186,47840,1,4,0:0:0:0:
344,226,48316,1,8,0:0:0:0:
331,195,48792,1,0,0:0:0:0:
282,212,49149,1,0,0:0:0:0:
369,227,49744,1,8,0:0:0:0:
372,212,50220,1,8,0:0:0:0:
330,226,50697,1,0,0:0:0:0:
380,228,51649,1,0,0:0:0:0:
334,223,52006,1,8,0:0:0:0:
409,221,52601,1,8,0:0:0:0:
282,210,52959,1,0,0:0:0:0:
397,199,53554,1,8,0:0:0:0:
357,181,54506,1,4,0:0:0:0:
372,203,54982,1,8,0:0:0:0:
320,200,55459,1,0,0:0:0:0:
289,200,55816,1,8,0:0:0:0:
417,215,56411,1,0,0:0:0:0:
378,204,56768,1,0,0:0:0:0:
304,139,57363,1,8,0:0:0:0:
311,178,58316,1,0,0:0:0:0:
367,199,58792,1,8,0:0:0:0:
328,223,59268,1,0,0:0:0:0:
401,216,59506,1,0,0:0:0:0:
385,190,59744,1,8,0:0:0:0:
349,164,60220,1,0,0:0:0:0:
366,186,60697,1,8,0:0:0:0:
414,203,61173,1,0,0:0:0:0:
343,163,62125,1,0,0:0:0:0:
364,201,62601,1,8,0:0:0:0:
320,200,63078,1,0,0:0:0:0:
289,200,63435,1,8,0:0:0:0:
417,215,64030,1,0,0:0:0:0:
373,207,64387,1,0,0:0:0:0:
368,181,64982,1,8,0:0:0:0:
311,178,65935,1,0,0:0:0:0:
367,199,66411,1,8,0:0:0:0:
328,223,66887,1,8,0:0:0:0:
401,216,67125,1,0,0:0:0:0:
385,190,67363,1,8,0:0:0:0:
349,164,67840,1,0,0:0:0:0:
366,186,68316,1,8,0:0:0:0:
363,191,68792,5,0,0:0:0:0:
342,226,69744,5,4,0:0:0:0:
329,199,70220,1,8,0:0:0:0:
414,187,70459,1,0,0:0:0:0:
372,191,71173,1,8,0:0:0:0:
395,184,71649,1,0,0:0:0:0:
354,192,72125,1,8,0:0:0:0:
354,192,72363,1,8,0:0:0:0:
355,176,73078,1,8,0:0:0:0:
319,169,73554,1,0,0:0:0:0:
423,224,74030,1,8,0:0:0:0:
384,195,74268,1,0,0:0:0:0:
374,193,74982,1,8,0:0:0:0:
311,201,75459,1,0,0:0:0:0:
362,180,75935,1,8,0:0:0:0:
251,206,76173,1,8,0:0:0:0:
352,206,76887,1,8,0:0:0:0:
365,163,77363,1,0,0:0:0:0:
348,181,77840,1,8,0:0:0:0:
334,186,78078,1,0,0:0:0:0:
376,183,78792,1,8,0:0:0:0:
309,175,79268,1,0,0:0:0:0:
345,188,79744,1,8,0:0:0:0:
345,188,79982,1,8,0:0:0:0:
384,183,80697,1,8,0:0:0:0:
369,164,81173,1,0,0:0:0:0:
419,161,81649,1,8,0:0:0:0:
389,185,81887,1,0,0:0:0:0:
404,200,82601,1,8,0:0:0:0:
373,200,83078,1,0,0:0:0:0:
400,192,83554,1,8,0:0:0:0:
409,188,83792,1,8,0:0:0:0:
403,197,84506,1,8,0:0:0:0:
420,181,85220,1,4,0:0:0:0:
277,206,85696,1,8,0:0:0:0:
342,214,86172,1,0,0:0:0:0:
342,214,86529,1,8,0:0:0:0:
368,155,87124,1,8,0:0:0:0:
335,223,87600,1,0,0:0:0:0:
308,194,88077,1,8,0:0:0:0:
350,188,88434,1,0,0:0:0:0:
353,249,89029,1,0,0:0:0:0:
369,202,89505,1,8,0:0:0:0:
296,222,89981,1,0,0:0:0:0:
343,211,90934,1,8,0:0:0:0:
335,213,91410,1,0,0:0:0:0:
332,208,91886,5,8,0:0:0:0:
340,201,92839,5,12,0:0:0:0:
442,178,93315,1,0,0:0:0:0:
368,197,93791,1,8,0:0:0:0:
318,187,94148,1,0,0:0:0:0:
351,219,94743,1,8,0:0:0:0:
430,221,95220,1,8,0:0:0:0:
336,246,95696,1,0,0:0:0:0:
344,218,96648,1,8,0:0:0:0:
331,172,97124,1,0,0:0:0:0:
319,141,97600,1,8,0:0:0:0:
371,181,97839,1,8,0:0:0:0:
350,182,98077,1,0,0:0:0:0:
402,180,98553,1,8,0:0:0:0:
318,199,99029,1,0,0:0:0:0:
315,185,99505,1,8,0:0:0:0:
362,201,102362,5,0,0:0:0:0:
368,206,102839,1,8,0:0:0:0:
368,206,103077,1,8,0:0:0:0:
362,201,103315,1,0,0:0:0:0:
314,197,104029,1,8,0:0:0:0:
321,178,104267,1,8,0:0:0:0:
314,197,104505,1,0,0:0:0:0:
358,153,104743,1,0,0:0:0:0:
382,180,104981,1,8,0:0:0:0:
400,195,105457,1,0,0:0:0:0:
313,183,105933,1,8,0:0:0:0:
345,187,106171,1,0,0:0:0:0:
380,199,106409,1,8,0:0:0:0:
380,199,106648,1,0,0:0:0:0:
336,198,106886,1,8,0:0:0:0:
394,183,107362,1,8,0:0:0:0:
386,189,107838,1,0,0:0:0:0:
333,187,108552,5,8,0:0:0:0:
384,181,108790,1,8,0:0:0:0:
384,181,109029,1,0,0:0:0:0:
359,192,109267,1,8,0:0:0:0:
254,227,109743,1,4,0:0:0:0:
344,226,110219,1,8,0:0:0:0:
331,195,110695,1,0,0:0:0:0:
282,212,111052,1,0,0:0:0:0:
369,227,111648,1,8,0:0:0:0:
372,212,112124,1,8,0:0:0:0:
330,226,112600,1,0,0:0:0:0:
380,228,113552,1,0,0:0:0:0:
334,223,113909,1,8,0:0:0:0:
409,221,114505,1,8,0:0:0:0:
282,210,114862,1,0,0:0:0:0:
397,199,115457,1,8,0:0:0:0:
405,158,116409,1,8,0:0:0:0:
329,216,117362,5,4,0:0:0:0:
374,192,117838,1,0,0:0:0:0:
348,234,118076,1,8,0:0:0:0:
376,182,118314,1,0,0:0:0:0:
400,188,118790,1,8,0:0:0:0:
431,210,119267,1,0,0:0:0:0:
392,190,119743,1,0,0:0:0:0:
321,166,119981,1,0,0:0:0:0:
397,187,120219,1,8,0:0:0:0:
373,204,121171,1,0,0:0:0:0:
369,206,121648,1,8,0:0:0:0:
371,226,121886,1,0,0:0:0:0:
313,221,122124,1,8,0:0:0:0:
387,205,122600,1,0,0:0:0:0:
313,139,123076,1,8,0:0:0:0:
329,158,123552,1,8,0:0:0:0:
361,174,123790,1,8,0:0:0:0:
287,150,124029,1,0,0:0:0:0:
382,213,124981,1,8,0:0:0:0:
397,183,125219,1,0,0:0:0:0:
323,204,125457,1,8,0:0:0:0:
374,191,125933,1,0,0:0:0:0:
352,202,126409,1,8,0:0:0:0:
253,189,126886,1,0,0:0:0:0:
332,211,127124,1,0,0:0:0:0:
266,214,127362,1,8,0:0:0:0:
320,199,127838,1,8,0:0:0:0:
329,203,128790,1,8,0:0:0:0:
320,179,129028,1,8,0:0:0:0:
324,212,129267,1,8,0:0:0:0:
325,199,129743,1,0,0:0:0:0:
395,196,130219,1,8,0:0:0:0:
343,200,130695,1,0,0:0:0:0:
378,198,130933,1,8,0:0:0:0:
376,198,131171,1,8,0:0:0:0:
356,207,131648,1,8,0:0:0:0:
312,200,132600,1,0,0:0:0:0:
361,195,133076,1,8,0:0:0:0:
388,192,133552,1,0,0:0:0:0:
373,161,134505,1,0,0:0:0:0:
359,204,134981,1,0,0:0:0:0:
402,194,135457,1,8,0:0:0:0:
332,167,136409,1,0,0:0:0:0:
359,152,136886,1,8,0:0:0:0:
263,182,137362,1,0,0:0:0:0:
355,193,138314,1,0,0:0:0:0:
370,163,138790,1,8,0:0:0:0:
425,177,139267,1,8,0:0:0:0:
386,197,140219,1,0,0:0:0:0:
367,192,140695,1,8,0:0:0:0:
367,184,141171,1,0,0:0:0:0:
389,193,142124,1,0,0:0:0:0:
394,186,142600,1,0,0:0:0:0:
362,171,143076,1,8,0:0:0:0:
331,171,144029,1,0,0:0:0:0:
361,186,144505,1,8,0:0:0:0:
394,183,144981,1,0,0:0:0:0:
324,188,145933,1,0,0:0:0:0:
419,172,147362,1,8,0:0:0:0:
429,172,147838,1,4,0:0:0:0:
408,172,148314,1,8,0:0:0:0:
382,251,148790,1,0,0:0:0:0:
413,228,149028,1,0,0:0:0:0:
469,187,149267,1,8,0:0:0:0:
408,202,149743,1,0,0:0:0:0:
406,188,150219,1,8,0:0:0:0:
419,177,150695,1,0,0:0:0:0:
430,187,151648,1,0,0:0:0:0:
402,212,152124,1,8,0:0:0:0:
434,187,152600,1,8,0:0:0:0:
401,169,152838,1,0,0:0:0:0:
337,173,153076,1,8,0:0:0:0:
355,141,153552,1,0,0:0:0:0:
382,171,154028,1,8,0:0:0:0:
411,176,154505,1,0,0:0:0:0:
400,190,155219,1,0,0:0:0:0:
443,195,155695,1,0,0:0:0:0:
389,205,156409,1,0,0:0:0:0:
402,205,156886,1,8,0:0:0:0:
402,205,157124,1,8,0:0:0:0:
389,205,157362,1,0,0:0:0:0:
314,197,158314,1,8,0:0:0:0:
321,178,158552,1,8,0:0:0:0:
314,197,158790,1,0,0:0:0:0:
358,153,159028,1,8,0:0:0:0:
382,180,159267,1,8,0:0:0:0:
400,195,159743,1,0,0:0:0:0:
313,183,160219,1,8,0:0:0:0:
345,187,160457,1,0,0:0:0:0:
380,199,160695,1,0,0:0:0:0:
380,199,160933,1,8,0:0:0:0:
336,198,161171,1,8,0:0:0:0:
394,183,161648,1,8,0:0:0:0:
386,189,162124,1,0,0:0:0:0:
333,187,162838,5,8,0:0:0:0:
384,181,163076,1,0,0:0:0:0:
384,181,163314,1,0,0:0:0:0:
359,192,163552,1,8,0:0:0:0:
345,146,164028,5,4,0:0:0:0:
344,226,164505,1,8,0:0:0:0:
331,195,164981,1,0,0:0:0:0:
282,212,165338,1,0,0:0:0:0:
369,227,165933,1,8,0:0:0:0:
372,212,166409,1,8,0:0:0:0:
330,226,166886,1,0,0:0:0:0:
380,228,167838,1,0,0:0:0:0:
334,223,168195,1,8,0:0:0:0:
409,221,168790,1,8,0:0:0:0:
282,210,169148,1,0,0:0:0:0:
397,199,169743,5,8,0:0:0:0:
353,210,170695,1,0,0:0:0:0:
415,212,171052,1,0,0:0:0:0:
353,210,171409,1,0,0:0:0:0:
377,187,171648,1,8,0:0:0:0:
331,210,172362,1,8,0:0:0:0:
372,224,172600,1,0,0:0:0:0:
361,208,173076,1,8,0:0:0:0:
349,159,173314,1,0,0:0:0:0:
388,187,173552,1,8,0:0:0:0:
387,212,174028,1,0,0:0:0:0:
377,195,174505,1,8,0:0:0:0:
359,147,174981,1,0,0:0:0:0:
405,229,175219,1,8,0:0:0:0:
354,178,175457,1,0,0:0:0:0:
367,170,176409,1,8,0:0:0:0:
281,163,176886,1,0,0:0:0:0:
281,163,177124,1,0,0:0:0:0:
365,207,177362,1,8,0:0:0:0:
361,187,178076,1,8,0:0:0:0:
314,241,178314,1,0,0:0:0:0:
392,132,178790,1,8,0:0:0:0:
350,229,179028,1,0,0:0:0:0:
365,245,179267,1,8,0:0:0:0:
428,181,179743,1,0,0:0:0:0:
339,155,180219,1,8,0:0:0:0:
423,195,180695,1,8,0:0:0:0:
372,223,180933,1,8,0:0:0:0:
441,195,181171,1,0,0:0:0:0:
380,228,182124,1,0,0:0:0:0:
334,223,182481,1,8,0:0:0:0:
383,188,183076,1,8,0:0:0:0:
369,183,183433,1,0,0:0:0:0:
361,218,184028,5,8,0:0:0:0:
340,172,184267,1,8,0:0:0:0:
397,199,184505,1,0,0:0:0:0:
338,198,184981,1,8,0:0:0:0:
