osu file format v14

[General]
AudioFilename: audio.mp3
AudioLeadIn: 0
PreviewTime: 40140
Countdown: 0
SampleSet: Normal
StackLeniency: 0.7
Mode: 1
LetterboxInBreaks: 0
WidescreenStoryboard: 0

[Editor]
DistanceSpacing: 1
BeatDivisor: 12
GridSize: 32
TimelineZoom: 5.099997

[Metadata]
Title:Kyu-kurarin (7_7 bootleg)
TitleUnicode:きゅうくらりん (7_7 bootleg)
Artist:Iyowa feat. KAFU
ArtistUnicode:いよわ feat. 可不
Creator:woosungko
Version:Emptiness
Source:
Tags:花譜 かふ CeVIO AI KAMITSUBAKI STUDIO 神椿スタジオ artificial singing synthesizer kaf-u vocaloid female vocalist japanese pop jpop j-pop electronic remix
BeatmapID:3772246
BeatmapSetID:1837174

[Difficulty]
HPDrainRate:6.6
CircleSize:5
OverallDifficulty:7.7
ApproachRate:5
SliderMultiplier:1.4
SliderTickRate:1

[Events]
//Background and Video events
0,0,"7.jpg",0,80
//Break Periods
//Storyboard Layer 0 (Background)
//Storyboard Layer 1 (Fail)
//Storyboard Layer 2 (Pass)
//Storyboard Layer 3 (Foreground)
//Storyboard Layer 4 (Overlay)
//Storyboard Sound Samples

[TimingPoints]
221,238.095238095238,4,1,0,60,1,0
221,-125,4,1,0,60,0,0
276,-124.13910230852,4,1,0,60,0,0
336,-123.269693645387,4,1,0,60,0,0
395,-122.420712887877,4,1,0,60,0,0
455,-121.563338971421,4,1,0,60,0,0
514,-120.726110188308,4,1,0,60,0,0
574,-119.880604428139,4,1,0,60,0,0
633,-119.054964943296,4,1,0,60,0,0
693,-118.221163055044,4,1,0,60,0,0
812,-116.584692417573,4,1,0,60,0,0
931,-114.970874544447,4,1,0,60,0,0
1050,-113.37939586589,4,1,0,60,0,0
1109,-112.598531384591,4,1,0,60,0,0
1169,-111.809947152698,4,1,0,60,0,0
1228,-111.039891749592,4,1,0,60,0,0
1288,-110.26222345616,4,1,0,60,0,0
1347,-109.502827507113,4,1,0,60,0,0
1407,-108.7359240488,4,1,0,60,0,0
1466,-107.987040000844,4,1,0,60,0,0
1526,-107.230752365949,4,1,0,60,0,0
1586,-106.479761394309,4,1,0,60,0,0
1645,-105.74641594812,4,1,0,60,0,0
1883,-102.839099255313,4,1,0,60,0,0
2096,-102.839099255313,4,1,0,80,0,0
2125,-83.3333333333333,4,1,0,80,0,1
2155,-100,4,1,0,80,0,1
8788,-100,4,1,0,80,0,1
8906,-98.8255850521445,4,1,0,80,0,1
9025,-97.655185298902,4,1,0,80,0,1
9144,-96.4986466888206,4,1,0,80,0,1
9263,-95.3558050632108,4,1,0,80,0,1
9323,-94.7847250122587,4,1,0,80,0,1
9382,-94.2264982075282,4,1,0,80,0,1
9442,-93.6621815058684,4,1,0,80,0,1
9501,-93.1105658283492,4,1,0,80,0,1
9561,-92.5529323770645,4,1,0,80,0,1
9620,-92.0078495306185,4,1,0,80,0,1
9660,-91.6401289747361,4,1,0,80,0,1
9700,-91.2738780587584,4,1,0,80,0,1
9740,-90.9090909090909,4,1,0,80,0,1
9764,-100,4,1,0,80,0,1
10930,-100,4,1,0,80,0,1
11049,-99.1912559716283,4,1,0,80,0,1
11089,-98.9208806522245,4,1,0,80,0,1
11128,-98.6579743136597,4,1,0,80,0,1
11168,-98.3890526122909,4,1,0,80,0,1
11228,-97.9870438597771,4,1,0,80,0,1
11287,-97.5933370247175,4,1,0,80,0,1
11327,-97.3273173094586,4,1,0,80,0,1
11367,-97.0620227101867,4,1,0,80,0,1
11406,-96.8040567394414,4,1,0,80,0,1
11466,-96.4085241364246,4,1,0,80,0,1
11525,-96.0211597113397,4,1,0,80,0,1
11565,-95.7594254337345,4,1,0,80,0,1
11605,-95.4984045908794,4,1,0,80,0,1
11644,-95.244594316201,4,1,0,80,0,1
11676,-100,4,1,0,80,0,1
12834,-100,4,1,0,80,0,1
12953,-99.1912559716283,4,1,0,80,0,1
12993,-98.9208806522245,4,1,0,80,0,1
13032,-98.6579743136597,4,1,0,80,0,1
13072,-98.3890526122909,4,1,0,80,0,1
13132,-97.9870438597771,4,1,0,80,0,1
13191,-97.5933370247175,4,1,0,80,0,1
13231,-97.3273173094586,4,1,0,80,0,1
13271,-97.0620227101867,4,1,0,80,0,1
13310,-96.8040567394414,4,1,0,80,0,1
13370,-96.4085241364246,4,1,0,80,0,1
13429,-96.0211597113397,4,1,0,80,0,1
13469,-95.7594254337345,4,1,0,80,0,1
13509,-95.4984045908794,4,1,0,80,0,1
13548,-95.244594316201,4,1,0,80,0,1
13580,-100,4,1,0,80,0,1
14739,-100,4,1,0,80,0,1
14858,-99.1912559716283,4,1,0,80,0,1
14898,-98.9208806522245,4,1,0,80,0,1
14937,-98.6579743136597,4,1,0,80,0,1
14977,-98.3890526122909,4,1,0,80,0,1
15037,-97.9870438597771,4,1,0,80,0,1
15096,-97.5933370247175,4,1,0,80,0,1
15136,-97.3273173094586,4,1,0,80,0,1
15176,-97.0620227101867,4,1,0,80,0,1
15215,-96.8040567394414,4,1,0,80,0,1
15275,-96.4085241364246,4,1,0,80,0,1
15334,-96.0211597113397,4,1,0,80,0,1
15374,-95.7594254337345,4,1,0,80,0,1
15414,-95.4984045908794,4,1,0,80,0,1
15453,-95.244594316201,4,1,0,80,0,1
15485,-100,4,1,0,80,0,1
16406,-86.9565217391304,4,1,0,80,0,1
16465,-88.2875990337486,4,1,0,80,0,1
16524,-89.6390516461557,4,1,0,80,0,1
16584,-91.0346281911886,4,1,0,80,0,1
16643,-92.4281306471956,4,1,0,80,0,1
16703,-93.8671299322578,4,1,0,80,0,1
16762,-95.3039905939415,4,1,0,80,0,1
16822,-96.7877636981681,4,1,0,80,0,1
16881,-98.2693316367064,4,1,0,80,0,1
17000,-101.326937939773,4,1,0,80,0,1
17119,-104.479680295449,4,1,0,80,0,1
17179,-106.106308294911,4,1,0,80,0,1
17239,-107.758261014368,4,1,0,80,0,1
17358,-83.3333333333333,4,1,0,80,0,1
17363,-83.3333333333333,4,1,0,80,0,0
17393,-111.111111111111,4,1,0,80,0,0
24263,-111.127423256729,4,1,0,80,0,0
24385,-109.20299334293,4,1,0,80,0,0
24501,-107.311889411005,4,1,0,80,0,0
24620,-105.424811071379,4,1,0,80,0,0
24740,-103.574416865129,4,1,0,80,0,0
24859,-101.771517068937,4,1,0,80,0,0
24952,-83.3333333333333,4,1,0,80,0,0
25012,-100,4,1,0,80,0,0
30691,-100,4,1,0,80,0,0
30810,-98.8675494838115,4,1,0,80,0,0
30929,-97.7479234093392,4,1,0,80,0,0
31048,-96.6409765461266,4,1,0,80,0,0
31167,-95.5465653083804,4,1,0,80,0,0
31286,-94.4645477363453,4,1,0,80,0,0
31405,-93.3947834778899,4,1,0,80,0,0
31524,-92.3371337703014,4,1,0,80,0,0
31643,-91.291461422286,4,1,0,80,0,0
31762,-90.2576307961733,4,1,0,80,0,0
31881,-89.2355077903225,4,1,0,80,0,0
32000,-88.2249598217276,4,1,0,80,0,0
32119,-87.2258558088193,4,1,0,80,0,0
32239,-86.2298129754085,4,1,0,80,0,0
32358,-85.2533030132601,4,1,0,80,0,0
32417,-84.7732594210691,4,1,0,80,0,0
32477,-84.2878515432187,4,1,0,80,0,0
32536,-83.8132442071654,4,1,0,80,0,0
32596,-76.9230769230769,4,1,0,80,0,0
32834,-101.840284615623,4,1,0,80,0,0
32953,-102.77308816533,4,1,0,80,0,0
33072,-103.714435705911,4,1,0,80,0,0
33131,-104.184346521204,4,1,0,80,0,0
33310,-105.623076510388,4,1,0,80,0,0
33429,-106.590528448211,4,1,0,80,0,0
33489,-107.081674589653,4,1,0,80,0,0
33549,-107.575083826472,4,1,0,80,0,0
33667,-108.552097544955,4,1,0,80,0,0
33786,-109.546377777972,4,1,0,80,0,0
33965,-111.059154545098,4,1,0,80,0,0
34024,-111.562342915192,4,1,0,80,0,0
34143,-112.58419541568,4,1,0,80,0,0
34262,-113.615407548689,4,1,0,80,0,0
34381,-114.656065043538,4,1,0,80,0,0
34441,-115.184375436205,4,1,0,80,0,0
34500,-115.706254414785,4,1,0,80,0,0
34739,-117.844607723517,4,1,0,80,0,0
34858,-118.924002472002,4,1,0,80,0,0
34977,-120.013283909794,4,1,0,80,0,0
35036,-120.557041774398,4,1,0,80,0,0
35215,-122.22186991029,4,1,0,80,0,0
35334,-123.341358082721,4,1,0,80,0,0
35453,-124.471100179176,4,1,0,80,0,0
35691,-126.76172268667,4,1,0,80,0,0
35810,-127.922793527501,4,1,0,80,0,0
35929,-129.094499167772,4,1,0,80,0,0
35989,-129.689338747523,4,1,0,80,0,0
36167,-131.470205375572,4,1,0,80,0,0
36286,-132.674403446286,4,1,0,80,0,0
36405,-133.889631339227,4,1,0,80,0,0
36643,-136.353581626678,4,1,0,80,0,0
36762,-137.6025088605,4,1,0,80,0,0
36822,-138.236551511976,4,1,0,80,0,0
37000,-140.134786661771,4,1,0,80,0,0
37119,-141.418347748908,4,1,0,80,0,0
37179,-142.069972962115,4,1,0,80,0,0
37239,-142.724600723614,4,1,0,80,0,0
37358,-144.031883148128,4,1,0,80,0,0
37596,-146.682479735295,4,1,0,80,0,0
37715,-148.026014254011,4,1,0,80,0,0
37834,-149.381854843679,4,1,0,80,0,0
37893,-150.058676240062,4,1,0,80,0,0
38072,-152.130906136899,4,1,0,80,0,0
38191,-153.5243453815,4,1,0,80,0,0
38310,-154.930547798145,4,1,0,80,0,0
38548,-157.781710834175,4,1,0,80,0,0
38727,-159.960591699695,4,1,0,80,0,0
38786,-160.685343384923,4,1,0,80,0,0
38905,-162.157136784373,4,1,0,80,0,0
38965,-162.904321859804,4,1,0,80,0,0
39024,-163.642411038797,4,1,0,80,0,0
39143,-165.141289625751,4,1,0,80,0,0
39262,-166.653897153779,4,1,0,80,0,0
39382,-100,4,1,0,80,0,0
40173,-100,4,1,0,100,0,0
40215,-90.9090909090909,4,1,0,100,0,0
40334,-90.083275743282,4,1,0,100,0,0
40453,-89.264962255042,4,1,0,100,0,0
40572,-88.4540822993807,4,1,0,100,0,0
40691,-87.6505683503348,4,1,0,100,0,0
40810,-86.8543534953446,4,1,0,100,0,0
40929,-86.0653714296818,4,1,0,100,0,0
41048,-85.2835564509282,4,1,0,100,0,0
41168,-84.5023631678546,4,1,0,100,0,0
41286,-83.7411679232463,4,1,0,100,0,0
41405,-82.9804659320371,4,1,0,100,0,0
41524,-82.2266741324789,4,1,0,100,0,0
41643,-81.47972975262,4,1,0,100,0,0
41703,-81.1056960428694,4,1,0,100,0,0
41762,-80.7395705907271,4,1,0,100,0,0
41822,-80.3689345907868,4,1,0,100,0,0
41881,-80.0061350101052,4,1,0,100,0,0
42120,-117.641295548152,4,1,0,100,0,0
42125,-117.641295548152,4,1,0,100,0,1
42179,-117.987592293764,4,1,0,100,0,1
42239,-118.33490842152,4,1,0,100,0,1
42298,-118.677432896145,4,1,0,100,0,1
42358,-119.026779684601,4,1,0,100,0,1
42417,-119.371306804464,4,1,0,100,0,1
42477,-119.722696126328,4,1,0,100,0,1
42536,-120.069237600339,4,1,0,100,0,1
42596,-120.422681397735,4,1,0,100,0,1
42655,-120.771249003261,4,1,0,100,0,1
42715,-121.126759288136,4,1,0,100,0,1
42774,-121.477364871405,4,1,0,100,0,1
42834,-121.834953725935,4,1,0,100,0,1
42893,-122.187609202435,4,1,0,100,0,1
42953,-122.547288779438,4,1,0,100,0,1
43012,-122.902006134324,4,1,0,100,0,1
43072,-123.263788657673,4,1,0,100,0,1
43131,-123.620579946173,4,1,0,100,0,1
43191,-123.98447771121,4,1,0,100,0,1
43250,-124.343355059037,4,1,0,100,0,1
43310,-124.709380432991,4,1,0,100,0,1
43369,-125.070356036753,4,1,0,100,0,1
43429,-125.438521459161,4,1,0,100,0,1
43489,-125.807770637804,4,1,0,100,0,1
43548,-126.171925569906,4,1,0,100,0,1
43608,-126.543333645691,4,1,0,100,0,1
43667,-126.909617690294,4,1,0,100,0,1
43727,-127.283197285692,4,1,0,100,0,1
43786,-127.651622891123,4,1,0,100,0,1
43846,-128.027386702405,4,1,0,100,0,1
43905,-128.397966389776,4,1,0,100,0,1
43965,-128.775927187443,4,1,0,100,0,1
44025,-129.14867355107,4,1,0,100,0,1
44084,-129.52884418029,4,1,0,100,0,1
44143,-129.903769888126,4,1,0,100,0,1
44203,-130.286163269169,4,1,0,100,0,1
44262,-130.663281063233,4,1,0,100,0,1
44322,-131.047910191911,4,1,0,100,0,1
44381,-131.427232888721,4,1,0,100,0,1
44441,-131.814110836826,4,1,0,100,0,1
44500,-132.195651327834,4,1,0,100,0,1
44560,-132.584791243589,4,1,0,100,0,1
44619,-132.968562495621,4,1,0,100,0,1
44679,-133.35997760412,4,1,0,100,0,1
44739,-133.752544908178,4,1,0,100,0,1
44798,-134.139696263475,4,1,0,100,0,1
44858,-134.534558799262,4,1,0,100,0,1
44917,-134.923973720745,4,1,0,100,0,1
44977,-135.321144907843,4,1,0,100,0,1
45036,-135.712836629951,4,1,0,100,0,1
45096,-136.1123299664,4,1,0,100,0,1
45155,-136.506311800955,4,1,0,100,0,1
45215,-136.908140863716,4,1,0,100,0,1
45274,-137.304426200366,4,1,0,100,0,1
45334,-137.708604645781,4,1,0,100,0,1
45393,-138.107206952462,4,1,0,100,0,1
45453,-138.513748516718,4,1,0,100,0,1
45512,-138.914681340108,4,1,0,100,0,1
45572,-139.323599839701,4,1,0,100,0,1
45631,-139.726876805683,4,1,0,100,0,1
45691,-140.138186137894,4,1,0,100,0,1
45750,-140.543820952017,4,1,0,100,0,1
45810,-140.957535095377,4,1,0,100,0,1
45869,-141.365541543323,4,1,0,100,0,1
45930,-141.781674558095,4,1,0,100,0,1
45989,-142.199032529699,4,1,0,100,0,1
46048,-142.610632534796,4,1,0,100,0,1
46108,-143.03043068226,4,1,0,100,0,1
46167,-143.444437197991,4,1,0,100,0,1
46227,-143.866689788345,4,1,0,100,0,1
46286,-144.283116884906,4,1,0,100,0,1
46346,-144.707838268593,4,1,0,100,0,1
46405,-145.126700098447,4,1,0,100,0,1
46465,-145.553904709816,4,1,0,100,0,1
46524,-145.975215508171,4,1,0,100,0,1
46584,-146.404917865961,4,1,0,100,0,1
46643,-146.828691951253,4,1,0,100,0,1
46703,-147.260906659093,4,1,0,100,0,1
46762,-147.687158433477,4,1,0,100,0,1
46822,-148.121900180377,4,1,0,100,0,1
46882,-148.550644130209,4,1,0,100,0,1
46941,-148.987927691064,4,1,0,100,0,1
47000,-149.419178387402,4,1,0,100,0,1
47060,-149.85901862349,4,1,0,100,0,1
47119,-150.292790722582,4,1,0,100,0,1
47179,-150.735202582071,4,1,0,100,0,1
47239,-151.178916754548,4,1,0,100,0,1
47298,-151.616509344313,4,1,0,100,0,1
47358,-152.068126520681,4,1,0,100,0,1
47561,-123.315905916747,4,1,0,60,0,1
47810,-83.3333333333333,4,1,0,80,0,1
47840,-83.3333333333333,4,1,0,80,0,0
47869,-100,4,1,0,80,0,0
51645,-100,4,1,0,80,0,0
51882,-102.04246767907,4,1,0,80,0,0
52001,-103.083689479937,4,1,0,80,0,0
52240,-105.207089795568,4,1,0,80,0,0
52359,-106.280602794544,4,1,0,80,0,0
52478,-107.365069714602,4,1,0,80,0,0
52537,-107.906842819017,4,1,0,80,0,0
52597,-108.460602327456,4,1,0,80,0,0
52716,-109.567313545316,4,1,0,80,0,0
52835,-110.685317432528,4,1,0,80,0,0
52894,-111.243844784096,4,1,0,80,0,0
52954,-111.814729217327,4,1,0,80,0,0
53192,-114.108243283461,4,1,0,80,0,0
53311,-115.272581948213,4,1,0,80,0,0
53550,-117.667144439242,4,1,0,80,0,0
53668,-115.300868810089,4,1,0,80,0,0
53787,-112.982178769757,4,1,0,80,0,0
53906,-110.710117376361,4,1,0,80,0,0
54025,-108.48374693203,4,1,0,80,0,0
54085,-107.378242121059,4,1,0,80,0,0
54144,-106.302148595911,4,1,0,80,0,0
54204,-105.218875386672,4,1,0,80,0,0
54263,-104.164422004959,4,1,0,80,0,0
54323,-103.102933321953,4,1,0,80,0,0
54382,-102.069684902348,4,1,0,80,0,0
54422,-101.375073644046,4,1,0,80,0,0
54462,-100.685189399457,4,1,0,80,0,0
54502,-100,4,1,0,80,0,0
54506,-100,4,1,0,80,0,1
61168,-100,4,1,0,80,0,1
61286,-98.8255850521445,4,1,0,80,0,1
61405,-97.655185298902,4,1,0,80,0,1
61524,-96.4986466888206,4,1,0,80,0,1
61643,-95.3558050632108,4,1,0,80,0,1
61703,-94.7847250122587,4,1,0,80,0,1
61762,-94.2264982075282,4,1,0,80,0,1
61822,-93.6621815058684,4,1,0,80,0,1
61881,-93.1105658283492,4,1,0,80,0,1
61941,-92.5529323770645,4,1,0,80,0,1
62000,-92.0078495306185,4,1,0,80,0,1
62040,-91.6401289747361,4,1,0,80,0,1
62080,-91.2738780587584,4,1,0,80,0,1
62120,-90.9090909090909,4,1,0,80,0,1
62155,-100,4,1,0,80,0,1
63311,-100,4,1,0,80,0,1
63430,-99.1912559716283,4,1,0,80,0,1
63470,-98.9208806522245,4,1,0,80,0,1
63509,-98.6579743136597,4,1,0,80,0,1
63549,-98.3890526122909,4,1,0,80,0,1
63609,-97.9870438597771,4,1,0,80,0,1
63668,-97.5933370247175,4,1,0,80,0,1
63708,-97.3273173094586,4,1,0,80,0,1
63748,-97.0620227101867,4,1,0,80,0,1
63787,-96.8040567394414,4,1,0,80,0,1
63847,-96.4085241364246,4,1,0,80,0,1
63906,-96.0211597113397,4,1,0,80,0,1
63946,-95.7594254337345,4,1,0,80,0,1
63986,-95.4984045908794,4,1,0,80,0,1
64025,-95.244594316201,4,1,0,80,0,1
64057,-100,4,1,0,80,0,1
65215,-100,4,1,0,80,0,1
65334,-99.1912559716283,4,1,0,80,0,1
65374,-98.9208806522245,4,1,0,80,0,1
65413,-98.6579743136597,4,1,0,80,0,1
65453,-98.3890526122909,4,1,0,80,0,1
65513,-97.9870438597771,4,1,0,80,0,1
65572,-97.5933370247175,4,1,0,80,0,1
65612,-97.3273173094586,4,1,0,80,0,1
65652,-97.0620227101867,4,1,0,80,0,1
65691,-96.8040567394414,4,1,0,80,0,1
65751,-96.4085241364246,4,1,0,80,0,1
65810,-96.0211597113397,4,1,0,80,0,1
65850,-95.7594254337345,4,1,0,80,0,1
65890,-95.4984045908794,4,1,0,80,0,1
65929,-95.244594316201,4,1,0,80,0,1
65961,-100,4,1,0,80,0,1
67120,-100,4,1,0,80,0,1
67239,-99.1912559716283,4,1,0,80,0,1
67279,-98.9208806522245,4,1,0,80,0,1
67318,-98.6579743136597,4,1,0,80,0,1
67358,-98.3890526122909,4,1,0,80,0,1
67418,-97.9870438597771,4,1,0,80,0,1
67477,-97.5933370247175,4,1,0,80,0,1
67517,-97.3273173094586,4,1,0,80,0,1
67557,-97.0620227101867,4,1,0,80,0,1
67596,-96.8040567394414,4,1,0,80,0,1
67656,-96.4085241364246,4,1,0,80,0,1
67715,-96.0211597113397,4,1,0,80,0,1
67755,-95.7594254337345,4,1,0,80,0,1
67795,-95.4984045908794,4,1,0,80,0,1
67834,-95.244594316201,4,1,0,80,0,1
67866,-100,4,1,0,80,0,1
68787,-86.9565217391304,4,1,0,80,0,1
68846,-88.2875990337486,4,1,0,80,0,1
68905,-89.6390516461557,4,1,0,80,0,1
68965,-91.0346281911886,4,1,0,80,0,1
69024,-92.4281306471956,4,1,0,80,0,1
69084,-93.8671299322578,4,1,0,80,0,1
69143,-95.3039905939415,4,1,0,80,0,1
69203,-96.7877636981681,4,1,0,80,0,1
69262,-98.2693316367064,4,1,0,80,0,1
69381,-101.326937939773,4,1,0,80,0,1
69500,-104.479680295449,4,1,0,80,0,1
69560,-106.106308294911,4,1,0,80,0,1
69620,-107.758261014368,4,1,0,80,0,1
69739,-76.9230769230769,4,1,0,80,0,1
69744,-76.9230769230769,4,1,0,80,0,0
69774,-111.111111111111,4,1,0,60,0,0
70215,-112.28316412232,4,1,0,60,0,0
70453,-112.873818774456,4,1,0,60,0,0
70572,-113.170310236485,4,1,0,60,0,0
70691,-113.467580507879,4,1,0,60,0,0
70810,-113.765631634375,4,1,0,60,0,0
70929,-114.064465667087,4,1,0,60,0,0
71167,-114.664490682559,4,1,0,60,0,0
71644,-115.876580861646,4,1,0,60,0,0
72119,-117.096320951263,4,1,0,60,0,0
72358,-117.714889695429,4,1,0,60,0,0
72477,-118.024097447301,4,1,0,60,0,0
72596,-118.334117411069,4,1,0,60,0,0
72715,-118.644951720213,4,1,0,60,0,0
72834,-118.956602513814,4,1,0,60,0,0
73072,-119.582362138833,4,1,0,60,0,0
73549,-120.846437929671,4,1,0,60,0,0
74024,-122.118491729793,4,1,0,60,0,0
74262,-122.760884165167,4,1,0,60,0,0
74381,-123.0833464901,4,1,0,60,0,0
74501,-123.409376323877,4,1,0,60,0,0
74619,-123.730814449995,4,1,0,60,0,0
74739,-124.058559331968,4,1,0,60,0,0
74977,-124.711157304064,4,1,0,60,0,0
75453,-126.02667009111,4,1,0,60,0,0
75929,-127.356059534667,4,1,0,60,0,0
76167,-128.026003685509,4,1,0,60,0,0
76286,-128.362296170539,4,1,0,60,0,0
76406,-128.702309172112,4,1,0,60,0,0
76524,-129.03753353123,4,1,0,60,0,0
76643,-129.376483053703,4,1,0,60,0,0
76881,-130.057055445744,4,1,0,60,0,0
77358,-131.431856647829,4,1,0,60,0,0
77834,-132.818262578005,4,1,0,60,0,0
78072,-133.516940116116,4,1,0,60,0,0
78191,-133.867655926128,4,1,0,60,0,0
78310,-134.219292979387,4,1,0,60,0,0
78429,-134.57185369577,4,1,0,60,0,0
78548,-134.92534050151,4,1,0,60,0,0
78786,-135.635102117877,4,1,0,60,0,0
79263,-137.068867481836,4,1,0,60,0,0
79739,-138.514735291712,4,1,0,60,0,0
79977,-139.243378569882,4,1,0,60,0,0
80096,-139.609136310147,4,1,0,60,0,0
80215,-139.975854805071,4,1,0,60,0,0
80334,-140.343536578316,4,1,0,60,0,0
80453,-140.712184160175,4,1,0,60,0,0
80691,-141.452386904158,4,1,0,60,0,0
81168,-142.947645357359,4,1,0,60,0,0
81643,-144.452340891713,4,1,0,60,0,0
81881,-145.212218366012,4,1,0,60,0,0
82000,-145.593654764597,4,1,0,60,0,0
82120,-145.97931112198,4,1,0,60,0,0
82239,-146.362762482539,4,1,0,60,0,0
82358,-146.747221074499,4,1,0,60,0,0
82596,-147.519170542553,4,1,0,60,0,0
83072,-149.075273134962,4,1,0,60,0,0
83548,-150.647790239934,4,1,0,60,0,0
83786,-151.440258272294,4,1,0,60,0,0
83905,-151.838054183452,4,1,0,60,0,0
84024,-152.236895005578,4,1,0,60,0,0
84143,-152.636783483394,4,1,0,60,0,0
84262,-153.114037772815,4,1,0,60,0,0
84500,-137.660642427296,4,1,0,60,0,0
84982,238.095238095238,4,1,0,60,1,8
84982,-111.225717876248,4,1,0,60,0,0
85180,-111.225717876248,4,1,0,80,0,0
85220,238.095238095238,4,1,0,80,1,0
85220,-83.3333333333333,4,1,0,80,0,0
85250,-111.111111111111,4,1,0,80,0,0
92120,-111.127423256729,4,1,0,80,0,0
92242,-109.20299334293,4,1,0,80,0,0
92358,-107.311889411005,4,1,0,80,0,0
92477,-105.424811071379,4,1,0,80,0,0
92597,-103.574416865129,4,1,0,80,0,0
92716,-101.771517068937,4,1,0,80,0,0
92835,-83.3333333333333,4,1,0,80,0,0
92869,-100,4,1,0,80,0,0
99501,-100,4,1,0,80,0,0
99619,-98.2825753924667,4,1,0,80,0,0
99738,-96.5804663581217,4,1,0,80,0,0
99857,-94.9078353380965,4,1,0,80,0,0
99976,-93.2641718167245,4,1,0,80,0,0
100095,-91.6489741197163,4,1,0,80,0,0
100215,-90.0485283775324,4,1,0,80,0,0
100274,-89.271921735841,4,1,0,80,0,0
100334,-88.489020875121,4,1,0,80,0,0
100393,-87.7258639133518,4,1,0,80,0,0
100453,-66.6666666666667,4,1,0,40,0,0
101406,-142.857142857143,4,1,0,40,0,0
102323,-142.857142857143,4,1,0,100,0,0
102358,-89.264962255042,4,1,0,100,0,0
102477,-88.4540822993807,4,1,0,100,0,0
102596,-87.6505683503348,4,1,0,100,0,0
102715,-86.8543534953446,4,1,0,100,0,0
102834,-86.0653714296818,4,1,0,100,0,0
102953,-85.2835564509282,4,1,0,100,0,0
103073,-84.5023631678546,4,1,0,100,0,0
103191,-83.7411679232463,4,1,0,100,0,0
103310,-82.9804659320371,4,1,0,100,0,0
103429,-82.2266741324789,4,1,0,100,0,0
103548,-81.47972975262,4,1,0,100,0,0
103608,-81.1056960428694,4,1,0,100,0,0
103667,-80.7395705907271,4,1,0,100,0,0
103727,-80.3689345907868,4,1,0,100,0,0
103786,-80.0061350101052,4,1,0,100,0,0
104029,238.095238095238,4,1,0,100,1,1
104029,-117.647058823529,4,1,0,100,0,1
104084,-117.987592293764,4,1,0,100,0,1
104144,-118.33490842152,4,1,0,100,0,1
104203,-118.677432896145,4,1,0,100,0,1
104263,-119.026779684601,4,1,0,100,0,1
104322,-119.371306804464,4,1,0,100,0,1
104382,-119.722696126328,4,1,0,100,0,1
104441,-120.069237600339,4,1,0,100,0,1
104501,-120.422681397735,4,1,0,100,0,1
104560,-120.771249003261,4,1,0,100,0,1
104620,-121.126759288136,4,1,0,100,0,1
104679,-121.477364871405,4,1,0,100,0,1
104739,-121.834953725935,4,1,0,100,0,1
104798,-122.187609202435,4,1,0,100,0,1
104858,-122.547288779438,4,1,0,100,0,1
104917,-122.902006134324,4,1,0,100,0,1
104977,-123.263788657673,4,1,0,100,0,1
105036,-123.620579946173,4,1,0,100,0,1
105096,-123.98447771121,4,1,0,100,0,1
105155,-124.343355059037,4,1,0,100,0,1
105215,-124.709380432991,4,1,0,100,0,1
105274,-125.070356036753,4,1,0,100,0,1
105334,-125.438521459161,4,1,0,100,0,1
105394,-125.807770637804,4,1,0,100,0,1
105453,-126.171925569906,4,1,0,100,0,1
105513,-126.543333645691,4,1,0,100,0,1
105572,-126.909617690294,4,1,0,100,0,1
105632,-127.283197285692,4,1,0,100,0,1
105691,-127.651622891123,4,1,0,100,0,1
105751,-128.027386702405,4,1,0,100,0,1
105810,-128.397966389776,4,1,0,100,0,1
105870,-128.775927187443,4,1,0,100,0,1
105930,-129.14867355107,4,1,0,100,0,1
105989,-129.52884418029,4,1,0,100,0,1
106048,-129.903769888126,4,1,0,100,0,1
106108,-130.286163269169,4,1,0,100,0,1
106167,-130.663281063233,4,1,0,100,0,1
106227,-131.047910191911,4,1,0,100,0,1
106286,-131.427232888721,4,1,0,100,0,1
106346,-131.814110836826,4,1,0,100,0,1
106405,-132.195651327834,4,1,0,100,0,1
106465,-132.584791243589,4,1,0,100,0,1
106524,-132.968562495621,4,1,0,100,0,1
106584,-133.35997760412,4,1,0,100,0,1
106644,-133.752544908178,4,1,0,100,0,1
106703,-134.139696263475,4,1,0,100,0,1
106763,-134.534558799262,4,1,0,100,0,1
106822,-134.923973720745,4,1,0,100,0,1
106882,-135.321144907843,4,1,0,100,0,1
106941,-135.712836629951,4,1,0,100,0,1
107001,-136.1123299664,4,1,0,100,0,1
107060,-136.506311800955,4,1,0,100,0,1
107120,-136.908140863716,4,1,0,100,0,1
107179,-137.304426200366,4,1,0,100,0,1
107239,-137.708604645781,4,1,0,100,0,1
107298,-138.107206952462,4,1,0,100,0,1
107358,-138.513748516718,4,1,0,100,0,1
107417,-138.914681340108,4,1,0,100,0,1
107477,-139.323599839701,4,1,0,100,0,1
107536,-139.726876805683,4,1,0,100,0,1
107596,-140.138186137894,4,1,0,100,0,1
107655,-140.543820952017,4,1,0,100,0,1
107715,-140.957535095377,4,1,0,100,0,1
107774,-141.365541543323,4,1,0,100,0,1
107835,-141.781674558095,4,1,0,100,0,1
107894,-142.199032529699,4,1,0,100,0,1
107953,-142.610632534796,4,1,0,100,0,1
108013,-143.03043068226,4,1,0,100,0,1
108072,-143.444437197991,4,1,0,100,0,1
108132,-143.866689788345,4,1,0,100,0,1
108191,-144.283116884906,4,1,0,100,0,1
108251,-144.707838268593,4,1,0,100,0,1
108310,-145.126700098447,4,1,0,100,0,1
108370,-145.553904709816,4,1,0,100,0,1
108429,-145.975215508171,4,1,0,100,0,1
108489,-146.404917865961,4,1,0,100,0,1
108548,-146.828691951253,4,1,0,100,0,1
108608,-147.260906659093,4,1,0,100,0,1
108667,-147.687158433477,4,1,0,100,0,1
108727,-148.121900180377,4,1,0,100,0,1
108787,-148.550644130209,4,1,0,100,0,1
108846,-148.987927691064,4,1,0,100,0,1
108905,-149.419178387402,4,1,0,100,0,1
108965,-149.85901862349,4,1,0,100,0,1
109024,-150.292790722582,4,1,0,100,0,1
109084,-150.735202582071,4,1,0,100,0,1
109144,-151.178916754548,4,1,0,100,0,1
109203,-151.616509344313,4,1,0,100,0,1
109263,-152.068126520681,4,1,0,100,0,1
109385,-136.939471238063,4,1,0,100,0,1
109424,-132.316423196794,4,1,0,100,0,1
109464,-127.736915549799,4,1,0,100,0,1
109501,-123.315905916747,4,1,0,100,0,1
109623,-111.047695120947,4,1,0,100,0,1
109714,-83.3333333333333,4,1,0,80,0,1
109743,-83.3333333333333,4,1,0,80,0,0
109773,-100,4,1,0,80,0,0
113548,-100,4,1,0,80,0,0
113785,-102.04246767907,4,1,0,80,0,0
113904,-103.083689479937,4,1,0,80,0,0
114143,-105.207089795568,4,1,0,80,0,0
114262,-106.280602794544,4,1,0,80,0,0
114381,-107.365069714602,4,1,0,80,0,0
114440,-107.906842819017,4,1,0,80,0,0
114500,-108.460602327456,4,1,0,80,0,0
114619,-109.567313545316,4,1,0,80,0,0
114738,-110.685317432528,4,1,0,80,0,0
114797,-111.243844784096,4,1,0,80,0,0
114857,-111.814729217327,4,1,0,80,0,0
115095,-114.108243283461,4,1,0,80,0,0
115214,-115.272581948213,4,1,0,80,0,0
115453,-117.667144439242,4,1,0,80,0,0
115571,-115.300868810089,4,1,0,80,0,0
115690,-112.982178769757,4,1,0,80,0,0
115809,-110.710117376361,4,1,0,80,0,0
115928,-108.48374693203,4,1,0,80,0,0
115988,-107.378242121059,4,1,0,80,0,0
116047,-106.302148595911,4,1,0,80,0,0
116107,-105.218875386672,4,1,0,80,0,0
116166,-104.164422004959,4,1,0,80,0,0
116226,-103.102933321953,4,1,0,80,0,0
116285,-102.069684902348,4,1,0,80,0,0
116325,-101.375073644046,4,1,0,80,0,0
116365,-100.685189399457,4,1,0,80,0,0
116405,-100.025538492562,4,1,0,80,0,0
116643,-94.1036028881028,4,1,0,80,0,0
116881,-88.5548807652176,4,1,0,80,0,0
117119,-83.3333333333333,4,1,0,80,0,0
117357,-76.6283524904215,4,1,0,80,0,0
117595,-96.0634955736483,4,1,0,80,0,0
117714,-96.4788744416333,4,1,0,80,0,0
117774,-96.6889897788843,4,1,0,80,0,0
117833,-96.8960494091976,4,1,0,80,0,0
117952,-97.3150282426813,4,1,0,80,0,0
118071,-97.7358187420068,4,1,0,80,0,0
118111,-97.8776691239536,4,1,0,80,0,0
118150,-98.0161714646453,4,1,0,80,0,0
118190,-98.1584287408229,4,1,0,80,0,0
118310,-98.5864405721273,4,1,0,80,0,0
118428,-99.0091387410332,4,1,0,80,0,0
118547,-99.4372545796756,4,1,0,80,0,0
118666,-99.8672215925997,4,1,0,80,0,0
118726,-100.084716200271,4,1,0,80,0,0
118785,-100.299047784289,4,1,0,80,0,0
118904,-100.732741193839,4,1,0,80,0,0
119024,-101.171978104859,4,1,0,80,0,0
119143,-101.609446067961,4,1,0,80,0,0
119262,-102.04880564396,4,1,0,80,0,0
119301,-102.19321037461,4,1,0,80,0,0
119341,-102.341530060377,4,1,0,80,0,0
119381,-102.490065012199,4,1,0,80,0,0
119500,-102.933232387384,4,1,0,80,0,0
119619,-103.378316019744,4,1,0,80,0,0
119738,-103.825324195181,4,1,0,80,0,0
119797,-104.04766629736,4,1,0,80,0,0
119857,-104.274265235426,4,1,0,80,0,0
119916,-104.49756874558,4,1,0,80,0,0
119976,-104.725147498192,4,1,0,80,0,0
120095,-105.177979377332,4,1,0,80,0,0
120214,-105.632769302993,4,1,0,80,0,0
120254,-105.78608104545,4,1,0,80,0,0
120293,-105.935774228466,4,1,0,80,0,0
120333,-106.089525741776,4,1,0,80,0,0
120393,-106.320571518471,4,1,0,80,0,0
120452,-106.548257196888,4,1,0,80,0,0
120571,-107.008972208308,4,1,0,80,0,0
120631,-107.24202039025,4,1,0,80,0,0
120690,-107.471679352939,4,1,0,80,0,0
120750,-107.705735235979,4,1,0,80,0,0
120809,-107.936387244771,4,1,0,80,0,0
120869,-108.171455186213,4,1,0,80,0,0
120928,-108.403104535043,4,1,0,80,0,0
120988,-108.639188911029,4,1,0,80,0,0
121047,-108.871839912398,4,1,0,80,0,0
121167,-109.346566700267,4,1,0,80,0,0
121226,-109.580732552334,4,1,0,80,0,0
121285,-109.815399870956,4,1,0,80,0,0
121404,-110.290242017948,4,1,0,80,0,0
121524,-110.771153632637,4,1,0,80,0,0
121643,-111.25012846201,4,1,0,80,0,0
121682,-111.407553575748,4,1,0,80,0,0
121722,-111.56924664007,4,1,0,80,0,0
121762,-111.731174380106,4,1,0,80,0,0
121881,-112.21430034232,4,1,0,80,0,0
122000,-112.699515342769,4,1,0,80,0,0
122059,-112.940861539857,4,1,0,80,0,0
122119,-113.186828414462,4,1,0,80,0,0
122178,-113.429218193292,4,1,0,80,0,0
122238,-113.676248629465,4,1,0,80,0,0
122297,-113.919686502489,4,1,0,80,0,0
122357,-114.167785099073,4,1,0,80,0,0
122476,-114.661446973979,4,1,0,80,0,0
122595,-115.15724344444,4,1,0,80,0,0
122654,-115.403852870291,4,1,0,80,0,0
122714,-115.655183740455,4,1,0,80,0,0
122833,-116.155277131934,4,1,0,80,0,0
122952,-116.657532928867,4,1,0,80,0,0
123071,-117.161960481504,4,1,0,80,0,0
123111,-117.332005292689,4,1,0,80,0,0
123150,-117.4980366001,4,1,0,80,0,0
123190,-117.668569180522,4,1,0,80,0,0
123309,-118.177368457207,4,1,0,80,0,0
123428,-118.688367783622,4,1,0,80,0,0
123547,-119.20157667279,4,1,0,80,0,0
123587,-119.374581712266,4,1,0,80,0,0
123627,-119.547837845264,4,1,0,80,0,0
123666,-119.717004678867,4,1,0,80,0,0
123726,-119.97772889397,4,1,0,80,0,0
123785,-120.234661397324,4,1,0,80,0,0
123904,-120.754556465118,4,1,0,80,0,0
124024,-121.281096870399,4,1,0,80,0,0
124143,-121.80551672859,4,1,0,80,0,0
124202,-122.066363442591,4,1,0,80,0,0
124262,-122.332204179956,4,1,0,80,0,0
124381,-122.86116902958,4,1,0,80,0,0
124500,-123.392421124937,4,1,0,80,0,0
124857,-125,4,1,0,80,0,0
124976,-100,4,1,0,80,0,0
125035,-99.8387835830685,4,1,0,80,0,0
125095,-99.675101234542,4,1,0,80,0,0
125214,-99.3512580611619,4,1,0,80,0,0
125333,-99.0284670502542,4,1,0,80,0,0
125393,-98.866113188598,4,1,0,80,0,0
125452,-98.7067247833559,4,1,0,80,0,0
125571,-98.3860278531107,4,1,0,80,0,0
125690,-98.0663728632327,4,1,0,80,0,0
125750,-97.9055963228377,4,1,0,80,0,0
125809,-97.7477564284707,4,1,0,80,0,0
125869,-97.5875022490705,4,1,0,80,0,0
125929,-97.4275108010409,4,1,0,80,0,0
126047,-97.1136257382458,4,1,0,80,0,0
126166,-96.7981047671307,4,1,0,80,0,0
126226,-96.6394075098868,4,1,0,80,0,0
126285,-96.4836089197556,4,1,0,80,0,0
126404,-96.1701348655059,4,1,0,80,0,0
126523,-95.8576792845886,4,1,0,80,0,0
126583,-95.7005238234891,4,1,0,80,0,0
126643,-95.5436260135152,4,1,0,80,0,0
126702,-95.3895940030497,4,1,0,80,0,0
126762,-95.2332059521234,4,1,0,80,0,0
126821,-95.0796743897584,4,1,0,80,0,0
126881,-94.9237944416789,4,1,0,80,0,0
127000,-94.6153882054119,4,1,0,80,0,0
127119,-94.3079839771992,4,1,0,80,0,0
127238,-94.001578501529,4,1,0,80,0,0
127297,-93.8500325248097,4,1,0,80,0,0
127357,-93.6961685334664,4,1,0,80,0,0
127476,-93.3917508386197,4,1,0,80,0,0
127595,-93.0883221931054,4,1,0,80,0,0
127654,-92.938248535484,4,1,0,80,0,0
127714,-92.7858793835144,4,1,0,80,0,0
127773,-92.6362933133539,4,1,0,80,0,0
127834,-92.4818900824246,4,1,0,80,0,0
127952,-92.1839384706338,4,1,0,80,0,0
128071,-91.8844339925921,4,1,0,80,0,0
128131,-91.7337925343413,4,1,0,80,0,0
128190,-91.5859026009021,4,1,0,80,0,0
128250,-91.4357505748894,4,1,0,80,0,0
128309,-91.2883411340182,4,1,0,80,0,0
128369,-91.1386769500843,4,1,0,80,0,0
128428,-90.9917464406666,4,1,0,80,0,0
128488,-90.8425685138187,4,1,0,80,0,0
128547,-90.6961153798122,4,1,0,80,0,0
128666,-90.4014448206248,4,1,0,80,0,0
128786,-90.105267512061,4,1,0,80,0,0
128845,-89.9600030283115,4,1,0,80,0,0
128904,-89.8149727347578,4,1,0,80,0,0
129023,-89.5231649971461,4,1,0,80,0,0
129143,-89.2298651487247,4,1,0,80,0,0
129202,-89.0860119572991,4,1,0,80,0,0
129262,-88.9399584184366,4,1,0,80,0,0
129381,-88.6509935915362,4,1,0,80,0,0
129440,-88.5080736360938,4,1,0,80,0,0
129500,-88.3629676077911,4,1,0,80,0,0
129619,-88.0758774169113,4,1,0,80,0,0
129738,-87.7897199785174,4,1,0,80,0,0
129857,-87.5044922621081,4,1,0,80,0,0
129916,-87.3634206550291,4,1,0,80,0,0
129976,-87.2201912470282,4,1,0,80,0,0
130095,-86.9368139224365,4,1,0,80,0,0
130214,-86.654357287274,4,1,0,80,0,0
130273,-86.5146562373404,4,1,0,80,0,0
130333,-86.372818350232,4,1,0,80,0,0
130393,-86.2312130015985,4,1,0,80,0,0
130452,-86.0921941297208,4,1,0,80,0,0
130571,-85.8124816538376,4,1,0,80,0,0
130691,-85.5313389142736,4,1,0,80,0,0
130750,-85.3934483543225,4,1,0,80,0,0
130809,-85.2557800965914,4,1,0,80,0,0
130869,-85.1160060948373,4,1,0,80,0,0
130928,-84.978785119576,4,1,0,80,0,0
131047,-84.7026900958213,4,1,0,80,0,0
131166,-84.4274921013902,4,1,0,80,0,0
131226,-84.2890760501183,4,1,0,80,0,0
131285,-84.1531882218456,4,1,0,80,0,0
131404,-83.8797755522192,4,1,0,80,0,0
131524,-83.6049648319339,4,1,0,80,0,0
131643,-71.4285714285714,4,1,0,80,0,0
132560,-71.4285714285714,4,1,0,60,0,0
132595,-111.111111111111,4,1,0,60,0,0
133071,-112.57333828336,4,1,0,60,0,0
133428,-113.682623072357,4,1,0,60,0,0
133548,-114.05794119557,4,1,0,60,0,0
133785,-114.802838626683,4,1,0,60,0,0
134024,-115.558948783012,4,1,0,60,0,0
134262,-116.316843906744,4,1,0,60,0,0
134500,-117.079709697176,4,1,0,60,0,0
134976,-118.62048389272,4,1,0,60,0,0
135333,-119.789356562325,4,1,0,60,0,0
135453,-120.184835794513,4,1,0,60,0,0
135928,-121.763129096684,4,1,0,60,0,0
136166,-122.561714431395,4,1,0,60,0,0
136405,-123.368925804974,4,1,0,60,0,0
136881,-124.992466364683,4,1,0,60,0,0
137238,-126.224127820156,4,1,0,60,0,0
137357,-126.637372790487,4,1,0,60,0,0
137595,-127.467925926621,4,1,0,60,0,0
137833,-128.303926258135,4,1,0,60,0,0
138071,-129.145409510542,4,1,0,60,0,0
138309,-129.992411643663,4,1,0,60,0,0
138785,-131.703117572087,4,1,0,60,0,0
139143,-133.004558177667,4,1,0,60,0,0
139262,-133.440001588109,4,1,0,60,0,0
139738,-135.196077953792,4,1,0,60,0,0
139976,-136.082763487954,4,1,0,60,0,0
140214,-136.975264362682,4,1,0,60,0,0
140690,-138.777864943976,4,1,0,60,0,0
141047,-140.145366139013,4,1,0,60,0,0
141167,-140.608049831338,4,1,0,60,0,0
141404,-141.526342534286,4,1,0,60,0,0
141643,-142.458458031241,4,1,0,60,0,0
141881,-143.392773995632,4,1,0,60,0,0
142119,-144.33321768549,4,1,0,60,0,0
142595,-146.232649260311,4,1,0,60,0,0
142952,-147.673609046641,4,1,0,60,0,0
143072,-148.161146898051,4,1,0,60,0,0
143547,-150.106831178811,4,1,0,60,0,0
143785,-151.091309114855,4,1,0,60,0,0
144024,-152.086421036488,4,1,0,60,0,0
144500,-154.087885112815,4,1,0,60,0,0
144857,-155.606249494034,4,1,0,60,0,0
144976,-156.115688545552,4,1,0,60,0,0
145214,-157.139575664056,4,1,0,60,0,0
145452,-158.170177961803,4,1,0,60,0,0
145690,-159.2075394804,4,1,0,60,0,0
145929,-160.25610621451,4,1,0,60,0,0
146404,-162.360624121434,4,1,0,60,0,0
146762,-163.96501066045,4,1,0,60,0,0
146881,-164.501815446791,4,1,0,60,0,0
147357,-166.666666666667,4,1,0,60,0,0
147809,-100,4,1,0,80,0,0
147868,-117.647058823529,4,1,0,80,0,0
154500,-117.647058823529,4,1,0,80,0,0
154976,-111.447546886043,4,1,0,80,0,0
155214,-108.47139691286,4,1,0,80,0,0
155453,-105.562717269879,4,1,0,80,0,0
155690,-102.755404292545,4,1,0,80,0,0
155928,-100.011373559931,4,1,0,80,0,0
156370,-100.011373559931,4,1,0,100,0,0
156405,-90.9090909090909,4,1,0,100,0,0
156524,-90.083275743282,4,1,0,100,0,0
156643,-89.264962255042,4,1,0,100,0,0
156762,-88.4540822993807,4,1,0,100,0,0
156881,-87.6505683503348,4,1,0,100,0,0
157000,-86.8543534953446,4,1,0,100,0,0
157119,-86.0653714296818,4,1,0,100,0,0
157238,-85.2835564509282,4,1,0,100,0,0
157358,-84.5023631678546,4,1,0,100,0,0
157476,-83.7411679232463,4,1,0,100,0,0
157595,-82.9804659320371,4,1,0,100,0,0
157714,-82.2266741324789,4,1,0,100,0,0
157833,-81.47972975262,4,1,0,100,0,0
157893,-81.1056960428694,4,1,0,100,0,0
157952,-80.7395705907271,4,1,0,100,0,0
158012,-80.3689345907868,4,1,0,100,0,0
158071,-80.0061350101052,4,1,0,100,0,0
158310,-117.641295548152,4,1,0,100,0,0
158314,-117.641295548152,4,1,0,100,0,1
158369,-117.987592293764,4,1,0,100,0,1
158429,-118.33490842152,4,1,0,100,0,1
158488,-118.677432896145,4,1,0,100,0,1
158548,-119.026779684601,4,1,0,100,0,1
158607,-119.371306804464,4,1,0,100,0,1
158667,-119.722696126328,4,1,0,100,0,1
158726,-120.069237600339,4,1,0,100,0,1
158786,-120.422681397735,4,1,0,100,0,1
158845,-120.771249003261,4,1,0,100,0,1
158905,-121.126759288136,4,1,0,100,0,1
158964,-121.477364871405,4,1,0,100,0,1
159024,-121.834953725935,4,1,0,100,0,1
159083,-122.187609202435,4,1,0,100,0,1
159143,-122.547288779438,4,1,0,100,0,1
159202,-122.902006134324,4,1,0,100,0,1
159262,-123.263788657673,4,1,0,100,0,1
159321,-123.620579946173,4,1,0,100,0,1
159381,-123.98447771121,4,1,0,100,0,1
159440,-124.343355059037,4,1,0,100,0,1
159500,-124.709380432991,4,1,0,100,0,1
159559,-125.070356036753,4,1,0,100,0,1
159619,-125.438521459161,4,1,0,100,0,1
159679,-125.807770637804,4,1,0,100,0,1
159738,-126.171925569906,4,1,0,100,0,1
159798,-126.543333645691,4,1,0,100,0,1
159857,-126.909617690294,4,1,0,100,0,1
159917,-127.283197285692,4,1,0,100,0,1
159976,-127.651622891123,4,1,0,100,0,1
160036,-128.027386702405,4,1,0,100,0,1
160095,-128.397966389776,4,1,0,100,0,1
160155,-128.775927187443,4,1,0,100,0,1
160215,-129.14867355107,4,1,0,100,0,1
160274,-129.52884418029,4,1,0,100,0,1
160333,-129.903769888126,4,1,0,100,0,1
160393,-130.286163269169,4,1,0,100,0,1
160452,-130.663281063233,4,1,0,100,0,1
160512,-131.047910191911,4,1,0,100,0,1
160571,-131.427232888721,4,1,0,100,0,1
160631,-131.814110836826,4,1,0,100,0,1
160690,-132.195651327834,4,1,0,100,0,1
160750,-132.584791243589,4,1,0,100,0,1
160809,-132.968562495621,4,1,0,100,0,1
160869,-133.35997760412,4,1,0,100,0,1
160929,-133.752544908178,4,1,0,100,0,1
160988,-134.139696263475,4,1,0,100,0,1
161048,-134.534558799262,4,1,0,100,0,1
161107,-134.923973720745,4,1,0,100,0,1
161167,-135.321144907843,4,1,0,100,0,1
161226,-135.712836629951,4,1,0,100,0,1
161286,-136.1123299664,4,1,0,100,0,1
161345,-136.506311800955,4,1,0,100,0,1
161405,-136.908140863716,4,1,0,100,0,1
161464,-137.304426200366,4,1,0,100,0,1
161524,-137.708604645781,4,1,0,100,0,1
161583,-138.107206952462,4,1,0,100,0,1
161643,-138.513748516718,4,1,0,100,0,1
161702,-138.914681340108,4,1,0,100,0,1
161762,-139.323599839701,4,1,0,100,0,1
161821,-139.726876805683,4,1,0,100,0,1
161881,-140.138186137894,4,1,0,100,0,1
161940,-140.543820952017,4,1,0,100,0,1
162000,-140.957535095377,4,1,0,100,0,1
162059,-141.365541543323,4,1,0,100,0,1
162120,-141.781674558095,4,1,0,100,0,1
162179,-142.199032529699,4,1,0,100,0,1
162238,-142.610632534796,4,1,0,100,0,1
162298,-143.03043068226,4,1,0,100,0,1
162357,-143.444437197991,4,1,0,100,0,1
162417,-143.866689788345,4,1,0,100,0,1
162476,-144.283116884906,4,1,0,100,0,1
162536,-144.707838268593,4,1,0,100,0,1
162595,-145.126700098447,4,1,0,100,0,1
162655,-145.553904709816,4,1,0,100,0,1
162714,-145.975215508171,4,1,0,100,0,1
162774,-146.404917865961,4,1,0,100,0,1
162833,-146.828691951253,4,1,0,100,0,1
162893,-147.260906659093,4,1,0,100,0,1
162952,-147.687158433477,4,1,0,100,0,1
163012,-148.121900180377,4,1,0,100,0,1
163072,-148.550644130209,4,1,0,100,0,1
163131,-148.987927691064,4,1,0,100,0,1
163190,-149.419178387402,4,1,0,100,0,1
163250,-149.85901862349,4,1,0,100,0,1
163309,-150.292790722582,4,1,0,100,0,1
163369,-150.735202582071,4,1,0,100,0,1
163429,-151.178916754548,4,1,0,100,0,1
163488,-151.616509344313,4,1,0,100,0,1
163548,-152.068126520681,4,1,0,100,0,1
163751,-123.315905916747,4,1,0,80,0,1
163999,-83.3333333333333,4,1,0,80,0,1
164028,-83.3333333333333,4,1,0,80,0,0
164059,-100,4,1,0,80,0,0
167834,-100,4,1,0,80,0,0
168071,-102.04246767907,4,1,0,80,0,0
168190,-103.083689479937,4,1,0,80,0,0
168429,-105.207089795568,4,1,0,80,0,0
168548,-106.280602794544,4,1,0,80,0,0
168667,-107.365069714602,4,1,0,80,0,0
168726,-107.906842819017,4,1,0,80,0,0
168786,-108.460602327456,4,1,0,80,0,0
168905,-109.567313545316,4,1,0,80,0,0
169024,-110.685317432528,4,1,0,80,0,0
169083,-111.243844784096,4,1,0,80,0,0
169143,-111.814729217327,4,1,0,80,0,0
169381,-114.108243283461,4,1,0,80,0,0
169500,-115.272581948213,4,1,0,80,0,0
169739,-117.660901282504,4,1,0,80,0,0
169857,-116.403516994931,4,1,0,80,0,0
169976,-115.159569755939,4,1,0,80,0,0
170095,-113.928915970386,4,1,0,80,0,0
170214,-112.711413577663,4,1,0,80,0,0
170274,-112.102489424968,4,1,0,80,0,0
170333,-111.506922035291,4,1,0,80,0,0
170393,-110.90450515607,4,1,0,80,0,0
170452,-110.315302302698,4,1,0,80,0,0
170512,-109.719323156916,4,1,0,80,0,0
170571,-109.136416825175,4,1,0,80,0,0
170611,-108.742988569495,4,1,0,80,0,0
170651,-108.350978591939,4,1,0,80,0,0
170691,-107.970129517987,4,1,0,80,0,0
170809,-106.816305750675,4,1,0,80,0,0
170928,-105.674812331506,4,1,0,80,0,0
171047,-104.545517492102,4,1,0,80,0,0
171166,-103.428290872232,4,1,0,80,0,0
171285,-102.323003504757,4,1,0,80,0,0
171404,-101.229527800748,4,1,0,80,0,0
171464,-100.682634611432,4,1,0,80,0,0
171523,-100.147737534757,4,1,0,80,0,0
171643,-99.0685629339245,4,1,0,80,0,0
171762,-98.0098658385616,4,1,0,80,0,0
171881,-96.9624825193001,4,1,0,80,0,0
172000,-95.9262920713694,4,1,0,80,0,0
172119,-94.9011748820484,4,1,0,80,0,0
172238,-93.8870126168587,4,1,0,80,0,0
172357,-92.8836882059044,4,1,0,80,0,0
172416,-92.3902246261733,4,1,0,80,0,0
172476,-91.891085830358,4,1,0,80,0,0
172535,-91.4028956536424,4,1,0,80,0,0
172595,-90.9090909090909,4,1,0,100,0,0
172600,-90.9090909090909,4,1,0,100,0,1
182119,-90.702947845805,4,1,0,100,0,1
182356,-92.3801063158251,4,1,0,100,0,1
182475,-93.232654340749,4,1,0,100,0,1
182714,-94.9661948786259,4,1,0,100,0,1
182833,-95.8400193864997,4,1,0,100,0,1
182952,-96.7210012468267,4,1,0,100,0,1
183011,-97.1604576332144,4,1,0,100,0,1
183071,-97.6091827993678,4,1,0,100,0,1
183190,-98.5046063306416,4,1,0,100,0,1
183309,-99.4073140670822,4,1,0,100,0,1
183368,-99.857589089392,4,1,0,100,0,1
183428,-100.317348168082,4,1,0,100,0,1
183666,-102.159563723581,4,1,0,100,0,1
183785,-103.091829097441,4,1,0,100,0,1
184024,-105.002871670205,4,1,0,100,0,1
184261,-101.256046772355,4,1,0,100,0,1
184499,-97.6279274704021,4,1,0,100,0,1
184618,-95.8575396151927,4,1,0,100,0,1
184737,-94.1158145908657,4,1,0,100,0,1
184856,-92.4024126322203,4,1,0,100,0,1
184896,-91.8327799435849,4,1,0,100,0,1
184936,-91.2662959940599,4,1,0,100,0,1
184976,-90.702947845805,4,1,0,100,0,1
184981,-90.702947845805,4,1,0,100,0,0

[HitObjects]
296,169,221,5,0,0:0:0:0:
296,169,280,1,0,0:0:0:0:
372,189,340,1,8,0:0:0:0:
296,169,399,1,0,0:0:0:0:
343,172,459,1,8,0:0:0:0:
389,186,518,1,0,0:0:0:0:
372,201,578,1,8,0:0:0:0:
343,172,637,1,8,0:0:0:0:
384,187,697,1,0,0:0:0:0:
384,187,816,1,0,0:0:0:0:
365,186,935,1,8,0:0:0:0:
365,186,1054,1,8,0:0:0:0:
364,185,1113,1,8,0:0:0:0:
424,203,1173,1,0,0:0:0:0:
424,203,1232,1,0,0:0:0:0:
321,184,1292,1,8,0:0:0:0:
424,203,1351,1,0,0:0:0:0:
321,184,1411,1,8,0:0:0:0:
321,184,1470,1,8,0:0:0:0:
424,203,1530,1,0,0:0:0:0:
424,203,1590,1,0,0:0:0:0:
321,184,1649,1,8,0:0:0:0:
335,189,1887,1,8,0:0:0:0:
357,181,2125,1,4,0:0:0:0:
364,201,2363,1,8,0:0:0:0:
372,203,2482,1,0,0:0:0:0:
315,199,2601,1,8,0:0:0:0:
315,199,2661,1,8,0:0:0:0:
408,241,2720,1,0,0:0:0:0:
408,241,2780,1,0,0:0:0:0:
320,200,2840,1,8,0:0:0:0:
417,215,2959,1,0,0:0:0:0:
370,203,3078,1,8,0:0:0:0:
370,203,3137,1,8,0:0:0:0:
417,215,3197,1,0,0:0:0:0:
389,225,3316,1,8,0:0:0:0:
417,215,3435,1,0,0:0:0:0:
417,215,3494,1,0,0:0:0:0:
383,224,3554,1,8,0:0:0:0:
417,215,3673,1,0,0:0:0:0:
413,196,3792,1,8,0:0:0:0:
417,215,3851,1,0,0:0:0:0:
413,196,3911,1,8,0:0:0:0:
413,196,3970,1,8,0:0:0:0:
417,215,4030,1,0,0:0:0:0:
378,204,4149,1,0,0:0:0:0:
373,207,4268,1,8,0:0:0:0:
370,187,4328,1,8,0:0:0:0:
378,204,4387,1,0,0:0:0:0:
373,207,4506,1,8,0:0:0:0:
367,195,4625,1,0,0:0:0:0:
367,195,4685,1,0,0:0:0:0:
352,187,4744,1,8,0:0:0:0:
368,195,4804,1,0,0:0:0:0:
352,187,4863,1,8,0:0:0:0:
352,187,4923,1,8,0:0:0:0:
399,193,4982,1,0,0:0:0:0:
367,195,5101,1,0,0:0:0:0:
302,201,5220,1,8,0:0:0:0:
367,195,5280,1,0,0:0:0:0:
302,201,5340,1,8,0:0:0:0:
385,201,5459,1,0,0:0:0:0:
302,201,5578,1,8,0:0:0:0:
302,201,5637,1,8,0:0:0:0:
385,201,5697,1,0,0:0:0:0:
302,201,5756,1,8,0:0:0:0:
385,201,5816,1,0,0:0:0:0:
386,201,5875,1,0,0:0:0:0:
302,201,5935,1,8,0:0:0:0:
370,172,6054,1,0,0:0:0:0:
418,191,6173,1,8,0:0:0:0:
370,172,6292,1,0,0:0:0:0:
423,189,6351,1,0,0:0:0:0:
367,199,6411,1,8,0:0:0:0:
410,198,6530,1,0,0:0:0:0:
394,221,6649,1,8,0:0:0:0:
328,223,6768,1,0,0:0:0:0:
328,223,6828,1,0,0:0:0:0:
394,221,6887,1,8,0:0:0:0:
361,195,7006,1,0,0:0:0:0:
385,190,7125,1,8,0:0:0:0:
385,190,7185,1,8,0:0:0:0:
377,210,7244,1,0,0:0:0:0:
377,210,7304,1,0,0:0:0:0:
385,190,7363,1,8,0:0:0:0:
337,187,7482,1,0,0:0:0:0:
374,175,7601,1,8,0:0:0:0:
374,175,7661,1,8,0:0:0:0:
337,187,7720,1,0,0:0:0:0:
352,230,7780,1,8,0:0:0:0:
337,187,7840,1,0,0:0:0:0:
507,218,7959,1,0,0:0:0:0:
352,230,8078,1,8,0:0:0:0:
371,226,8197,1,0,0:0:0:0:
371,226,8256,1,0,0:0:0:0:
393,202,8316,1,8,0:0:0:0:
381,200,8435,1,0,0:0:0:0:
393,202,8554,1,8,0:0:0:0:
380,238,8673,1,8,0:0:0:0:
380,238,8732,1,8,0:0:0:0:
390,207,8792,1,0,0:0:0:0:
318,244,8911,1,8,0:0:0:0:
388,207,9030,1,0,0:0:0:0:
318,244,9149,1,8,0:0:0:0:
397,202,9268,1,0,0:0:0:0:
397,202,9328,1,0,0:0:0:0:
342,202,9387,1,8,0:0:0:0:
343,195,9447,1,8,0:0:0:0:
444,191,9506,1,0,0:0:0:0:
348,184,9566,1,0,0:0:0:0:
365,203,9625,1,8,0:0:0:0:
365,203,9665,1,8,0:0:0:0:
367,203,9705,1,8,0:0:0:0:
365,199,9744,1,0,0:0:0:0:
383,181,9982,1,8,0:0:0:0:
367,198,10101,1,0,0:0:0:0:
358,184,10220,1,8,0:0:0:0:
358,184,10280,1,8,0:0:0:0:
367,198,10340,1,0,0:0:0:0:
367,198,10399,1,0,0:0:0:0:
358,184,10459,1,8,0:0:0:0:
343,192,10578,1,0,0:0:0:0:
358,184,10697,1,8,0:0:0:0:
415,187,10756,1,0,0:0:0:0:
361,213,10816,1,8,0:0:0:0:
355,195,10935,1,0,0:0:0:0:
365,165,11054,1,8,0:0:0:0:
364,165,11094,1,8,0:0:0:0:
363,165,11133,1,8,0:0:0:0:
406,170,11173,1,0,0:0:0:0:
406,189,11232,1,0,0:0:0:0:
288,197,11292,1,8,0:0:0:0:
360,189,11332,1,0,0:0:0:0:
362,189,11371,1,0,0:0:0:0:
288,197,11411,1,8,0:0:0:0:
354,192,11470,1,8,0:0:0:0:
380,186,11530,1,0,0:0:0:0:
380,186,11570,1,0,0:0:0:0:
380,186,11609,1,0,0:0:0:0:
355,195,11649,1,8,0:0:0:0:
359,175,11768,1,0,0:0:0:0:
336,179,11887,1,8,0:0:0:0:
335,179,11947,1,8,0:0:0:0:
408,183,12006,1,0,0:0:0:0:
388,191,12125,1,8,0:0:0:0:
354,192,12244,1,0,0:0:0:0:
351,189,12304,1,0,0:0:0:0:
362,206,12363,1,8,0:0:0:0:
362,206,12423,1,8,0:0:0:0:
351,189,12482,1,0,0:0:0:0:
362,206,12542,1,8,0:0:0:0:
351,189,12601,1,0,0:0:0:0:
371,172,12720,1,8,0:0:0:0:
374,195,12840,1,0,0:0:0:0:
385,197,12959,1,8,0:0:0:0:
416,189,12998,1,0,0:0:0:0:
416,189,13038,1,0,0:0:0:0:
383,197,13078,1,8,0:0:0:0:
416,157,13137,1,8,0:0:0:0:
365,186,13197,1,0,0:0:0:0:
365,186,13236,1,0,0:0:0:0:
437,201,13276,1,0,0:0:0:0:
471,190,13316,1,8,0:0:0:0:
404,196,13375,1,8,0:0:0:0:
422,182,13435,1,0,0:0:0:0:
413,177,13474,1,8,0:0:0:0:
413,177,13514,1,8,0:0:0:0:
422,182,13554,1,0,0:0:0:0:
368,215,13673,1,8,0:0:0:0:
369,204,13792,1,0,0:0:0:0:
429,211,13911,1,8,0:0:0:0:
429,211,13970,1,8,0:0:0:0:
371,204,14030,1,0,0:0:0:0:
361,237,14149,1,8,0:0:0:0:
369,209,14268,1,0,0:0:0:0:
386,218,14387,1,8,0:0:0:0:
390,218,14447,1,8,0:0:0:0:
400,228,14506,1,0,0:0:0:0:
382,204,14566,1,0,0:0:0:0:
402,211,14625,1,8,0:0:0:0:
380,205,14744,1,0,0:0:0:0:
376,197,14863,1,8,0:0:0:0:
376,197,14903,1,8,0:0:0:0:
376,197,14943,1,8,0:0:0:0:
391,197,14982,1,0,0:0:0:0:
426,151,15042,1,0,0:0:0:0:
365,178,15101,1,8,0:0:0:0:
443,194,15141,1,0,0:0:0:0:
443,194,15181,1,0,0:0:0:0:
365,178,15220,1,8,0:0:0:0:
458,191,15280,1,8,0:0:0:0:
409,193,15340,1,0,0:0:0:0:
410,193,15379,1,0,0:0:0:0:
410,193,15419,1,0,0:0:0:0:
457,174,15459,1,8,0:0:0:0:
394,186,15578,1,0,0:0:0:0:
399,186,15697,1,8,0:0:0:0:
419,170,15816,1,0,0:0:0:0:
419,170,15875,1,0,0:0:0:0:
468,195,15935,1,8,0:0:0:0:
410,178,16054,1,0,0:0:0:0:
328,202,16173,1,8,0:0:0:0:
410,178,16292,1,0,0:0:0:0:
391,232,16411,1,8,0:0:0:0:
320,219,16470,1,0,0:0:0:0:
391,232,16530,1,8,0:0:0:0:
320,219,16590,1,0,0:0:0:0:
391,232,16649,1,8,0:0:0:0:
320,219,16709,1,0,0:0:0:0:
391,232,16768,1,8,0:0:0:0:
320,219,16828,1,0,0:0:0:0:
391,232,16887,1,8,0:0:0:0:
320,219,17006,1,0,0:0:0:0:
375,207,17125,1,8,0:0:0:0:
375,207,17185,1,8,0:0:0:0:
375,207,17244,1,8,0:0:0:0:
342,226,17363,1,4,0:0:0:0:
311,211,17601,1,8,0:0:0:0:
352,196,17720,1,0,0:0:0:0:
283,189,17840,1,8,0:0:0:0:
283,189,17899,1,8,0:0:0:0:
385,200,17959,1,0,0:0:0:0:
353,222,18078,1,8,0:0:0:0:
368,197,18197,1,0,0:0:0:0:
366,196,18316,1,8,0:0:0:0:
308,215,18375,1,0,0:0:0:0:
390,194,18435,1,0,0:0:0:0:
428,194,18554,1,8,0:0:0:0:
318,187,18673,1,0,0:0:0:0:
318,187,18732,1,0,0:0:0:0:
428,194,18792,1,8,0:0:0:0:
428,194,18851,1,8,0:0:0:0:
318,187,18911,1,0,0:0:0:0:
361,191,19030,1,8,0:0:0:0:
412,213,19149,1,0,0:0:0:0:
351,219,19209,1,0,0:0:0:0:
390,222,19268,1,8,0:0:0:0:
310,206,19387,1,0,0:0:0:0:
373,224,19506,1,8,0:0:0:0:
350,216,19625,1,0,0:0:0:0:
373,224,19744,1,8,0:0:0:0:
388,220,19804,1,8,0:0:0:0:
356,215,19863,1,0,0:0:0:0:
302,224,19982,1,8,0:0:0:0:
350,216,20101,1,0,0:0:0:0:
327,198,20220,1,8,0:0:0:0:
402,197,20280,1,0,0:0:0:0:
402,197,20340,1,0,0:0:0:0:
367,191,20459,1,8,0:0:0:0:
379,214,20578,1,0,0:0:0:0:
379,214,20637,1,0,0:0:0:0:
361,172,20697,1,8,0:0:0:0:
379,214,20756,1,0,0:0:0:0:
361,172,20816,1,8,0:0:0:0:
379,214,20875,1,0,0:0:0:0:
361,172,20935,1,8,0:0:0:0:
393,170,20994,1,8,0:0:0:0:
393,211,21054,1,0,0:0:0:0:
376,187,21173,1,8,0:0:0:0:
344,218,21292,1,0,0:0:0:0:
368,189,21351,1,0,0:0:0:0:
386,212,21411,1,8,0:0:0:0:
340,228,21530,1,0,0:0:0:0:
304,210,21649,1,8,0:0:0:0:
336,210,21709,1,8,0:0:0:0:
357,229,21768,1,0,0:0:0:0:
364,211,21887,1,8,0:0:0:0:
376,202,22006,1,0,0:0:0:0:
364,211,22125,1,8,0:0:0:0:
301,153,22185,1,0,0:0:0:0:
376,202,22244,1,0,0:0:0:0:
371,181,22363,1,8,0:0:0:0:
304,185,22482,1,0,0:0:0:0:
304,185,22542,1,0,0:0:0:0:
371,181,22601,1,8,0:0:0:0:
371,181,22661,1,8,0:0:0:0:
304,185,22720,1,0,0:0:0:0:
368,169,22840,1,8,0:0:0:0:
354,185,22959,1,0,0:0:0:0:
354,185,23018,1,0,0:0:0:0:
368,169,23078,1,8,0:0:0:0:
318,199,23197,1,0,0:0:0:0:
349,189,23316,1,8,0:0:0:0:
371,181,23435,1,0,0:0:0:0:
416,195,23554,1,8,0:0:0:0:
353,164,23613,1,8,0:0:0:0:
379,189,23673,1,0,0:0:0:0:
369,199,23792,1,8,0:0:0:0:
330,199,23911,1,0,0:0:0:0:
371,189,24030,1,8,0:0:0:0:
451,186,24090,1,0,0:0:0:0:
451,186,24149,1,0,0:0:0:0:
322,206,24268,1,8,0:0:0:0:
335,198,24387,1,8,0:0:0:0:
397,193,24506,1,0,0:0:0:0:
407,194,24625,1,0,0:0:0:0:
339,207,24744,1,0,0:0:0:0:
339,207,24863,1,0,0:0:0:0:
394,201,24982,1,12,0:0:0:0:
395,200,25220,1,8,0:0:0:0:
352,196,25340,1,0,0:0:0:0:
283,189,25459,1,8,0:0:0:0:
283,189,25518,1,8,0:0:0:0:
385,200,25578,1,0,0:0:0:0:
353,222,25697,1,8,0:0:0:0:
368,197,25816,1,0,0:0:0:0:
366,196,25935,1,8,0:0:0:0:
308,215,25994,1,0,0:0:0:0:
390,194,26054,1,0,0:0:0:0:
428,194,26173,1,8,0:0:0:0:
318,187,26292,1,0,0:0:0:0:
318,187,26351,1,0,0:0:0:0:
428,194,26411,1,8,0:0:0:0:
428,194,26470,1,8,0:0:0:0:
318,187,26530,1,0,0:0:0:0:
361,191,26649,1,8,0:0:0:0:
412,213,26768,1,0,0:0:0:0:
351,219,26828,1,0,0:0:0:0:
390,222,26887,1,8,0:0:0:0:
374,211,27006,1,8,0:0:0:0:
399,188,27125,1,0,0:0:0:0:
403,196,27244,1,8,0:0:0:0:
235,199,27304,1,0,0:0:0:0:
373,224,27363,1,8,0:0:0:0:
388,220,27423,1,8,0:0:0:0:
356,215,27482,1,0,0:0:0:0:
302,224,27601,1,8,0:0:0:0:
350,216,27720,1,0,0:0:0:0:
327,198,27840,1,8,0:0:0:0:
402,197,27899,1,0,0:0:0:0:
402,197,27959,1,0,0:0:0:0:
367,191,28078,1,8,0:0:0:0:
379,214,28197,1,0,0:0:0:0:
379,214,28256,1,0,0:0:0:0:
361,172,28316,1,8,0:0:0:0:
379,214,28375,1,0,0:0:0:0:
361,172,28435,1,8,0:0:0:0:
379,214,28494,1,0,0:0:0:0:
361,172,28554,1,8,0:0:0:0:
393,170,28613,1,8,0:0:0:0:
393,211,28673,1,0,0:0:0:0:
376,187,28792,1,8,0:0:0:0:
344,218,28911,1,0,0:0:0:0:
386,212,29030,1,8,0:0:0:0:
340,228,29149,1,0,0:0:0:0:
379,203,29209,1,0,0:0:0:0:
304,210,29268,1,8,0:0:0:0:
336,210,29328,1,8,0:0:0:0:
357,229,29387,1,0,0:0:0:0:
364,211,29506,1,8,0:0:0:0:
376,202,29625,1,0,0:0:0:0:
364,211,29744,1,8,0:0:0:0:
301,153,29804,1,0,0:0:0:0:
376,202,29863,1,0,0:0:0:0:
371,181,29982,1,8,0:0:0:0:
304,185,30101,1,0,0:0:0:0:
258,214,30161,1,8,0:0:0:0:
371,181,30220,1,8,0:0:0:0:
371,181,30280,1,8,0:0:0:0:
304,185,30340,1,0,0:0:0:0:
368,169,30459,1,8,0:0:0:0:
354,185,30578,1,0,0:0:0:0:
354,185,30637,1,0,0:0:0:0:
368,169,30697,1,8,0:0:0:0:
318,199,30816,1,0,0:0:0:0:
349,189,30935,1,8,0:0:0:0:
349,189,31054,1,8,0:0:0:0:
318,199,31173,1,0,0:0:0:0:
379,189,31292,1,0,0:0:0:0:
369,199,31411,1,8,0:0:0:0:
369,199,31530,1,8,0:0:0:0:
379,189,31649,1,0,0:0:0:0:
320,176,31768,1,8,0:0:0:0:
379,189,31887,1,0,0:0:0:0:
321,175,32006,1,8,0:0:0:0:
379,189,32125,1,0,0:0:0:0:
395,180,32244,1,0,0:0:0:0:
401,205,32363,1,8,0:0:0:0:
401,205,32423,1,8,0:0:0:0:
401,205,32482,1,8,0:0:0:0:
401,205,32542,1,8,0:0:0:0:
385,179,32601,1,4,0:0:0:0:
406,210,32840,1,0,0:0:0:0:
402,166,32959,1,8,0:0:0:0:
350,184,33078,1,8,0:0:0:0:
401,205,33137,1,0,0:0:0:0:
413,193,33316,1,0,0:0:0:0:
419,188,33435,1,8,0:0:0:0:
359,178,33494,1,8,0:0:0:0:
406,210,33554,1,0,0:0:0:0:
419,200,33673,1,0,0:0:0:0:
409,180,33792,1,8,0:0:0:0:
369,188,33970,1,0,0:0:0:0:
406,182,34030,1,8,0:0:0:0:
363,189,34149,1,0,0:0:0:0:
376,192,34268,1,8,0:0:0:0:
334,174,34387,1,0,0:0:0:0:
412,197,34447,1,8,0:0:0:0:
334,174,34506,1,0,0:0:0:0:
392,191,34744,1,8,0:0:0:0:
325,201,34863,1,0,0:0:0:0:
314,225,34982,1,8,0:0:0:0:
344,177,35042,1,0,0:0:0:0:
344,203,35220,1,0,0:0:0:0:
345,171,35340,1,0,0:0:0:0:
359,195,35459,1,8,0:0:0:0:
345,184,35697,1,8,0:0:0:0:
345,184,35816,1,8,0:0:0:0:
362,200,35935,1,0,0:0:0:0:
345,184,35994,1,8,0:0:0:0:
359,195,36173,1,0,0:0:0:0:
299,200,36292,1,8,0:0:0:0:
371,189,36411,1,0,0:0:0:0:
363,176,36649,1,8,0:0:0:0:
363,176,36768,1,8,0:0:0:0:
391,185,36828,1,0,0:0:0:0:
390,182,37006,1,0,0:0:0:0:
361,169,37125,1,8,0:0:0:0:
359,167,37185,1,8,0:0:0:0:
361,169,37244,1,8,0:0:0:0:
392,196,37363,1,0,0:0:0:0:
397,212,37601,1,0,0:0:0:0:
391,197,37720,1,8,0:0:0:0:
392,196,37840,1,0,0:0:0:0:
386,181,37899,1,8,0:0:0:0:
334,182,38078,1,0,0:0:0:0:
334,182,38197,1,0,0:0:0:0:
406,207,38316,1,8,0:0:0:0:
295,188,38554,1,0,0:0:0:0:
369,212,38732,1,8,0:0:0:0:
425,208,38792,1,0,0:0:0:0:
424,214,38911,1,0,0:0:0:0:
412,219,38970,1,0,0:0:0:0:
475,216,39030,1,8,0:0:0:0:
436,193,39149,1,8,0:0:0:0:
418,210,39268,1,0,0:0:0:0:
256,192,39387,12,8,39982,0:0:0:0:
376,206,40220,5,0,0:0:0:0:
376,206,40340,1,0,0:0:0:0:
347,189,40459,1,8,0:0:0:0:
376,206,40578,1,0,0:0:0:0:
376,206,40697,1,0,0:0:0:0:
388,207,40816,1,8,0:0:0:0:
362,214,40935,1,0,0:0:0:0:
388,207,41054,1,8,0:0:0:0:
344,213,41173,1,0,0:0:0:0:
344,212,41292,1,0,0:0:0:0:
319,209,41411,1,8,0:0:0:0:
341,200,41530,1,0,0:0:0:0:
332,205,41649,1,0,0:0:0:0:
332,205,41709,1,0,0:0:0:0:
388,207,41768,1,8,0:0:0:0:
388,207,41828,1,8,0:0:0:0:
332,205,41887,1,0,0:0:0:0:
314,197,42125,1,8,0:0:0:0:
321,178,42185,1,0,0:0:0:0:
321,178,42244,1,0,0:0:0:0:
314,197,42304,1,8,0:0:0:0:
321,178,42363,1,0,0:0:0:0:
321,178,42423,1,0,0:0:0:0:
314,197,42482,1,8,0:0:0:0:
321,178,42542,1,0,0:0:0:0:
323,194,42601,1,8,0:0:0:0:
323,194,42661,1,0,0:0:0:0:
321,178,42720,1,0,0:0:0:0:
323,194,42780,1,8,0:0:0:0:
323,194,42840,1,0,0:0:0:0:
321,178,42899,1,0,0:0:0:0:
323,194,42959,1,8,0:0:0:0:
321,178,43018,1,0,0:0:0:0:
323,194,43078,1,8,0:0:0:0:
321,178,43137,1,0,0:0:0:0:
321,178,43197,1,0,0:0:0:0:
327,187,43256,1,8,0:0:0:0:
321,178,43316,1,0,0:0:0:0:
321,178,43375,1,0,0:0:0:0:
327,187,43435,1,8,0:0:0:0:
309,181,43494,1,0,0:0:0:0:
349,199,43554,1,8,0:0:0:0:
349,199,43613,1,0,0:0:0:0:
354,178,43673,1,8,0:0:0:0:
349,199,43732,1,8,0:0:0:0:
354,178,43792,1,0,0:0:0:0:
349,199,43851,1,0,0:0:0:0:
339,180,43911,1,0,0:0:0:0:
366,178,43970,1,0,0:0:0:0:
349,199,44030,1,8,0:0:0:0:
312,197,44090,1,0,0:0:0:0:
312,197,44149,1,0,0:0:0:0:
312,197,44209,1,8,0:0:0:0:
349,199,44268,1,0,0:0:0:0:
312,197,44328,1,0,0:0:0:0:
312,197,44387,1,8,0:0:0:0:
312,221,44447,1,0,0:0:0:0:
311,221,44506,1,8,0:0:0:0:
311,221,44566,1,0,0:0:0:0:
259,212,44625,1,0,0:0:0:0:
311,221,44685,1,8,0:0:0:0:
311,221,44744,1,0,0:0:0:0:
259,212,44804,1,0,0:0:0:0:
259,212,44863,1,8,0:0:0:0:
311,221,44923,1,0,0:0:0:0:
286,214,44982,1,8,0:0:0:0:
291,181,45042,1,0,0:0:0:0:
286,214,45101,1,0,0:0:0:0:
286,214,45161,1,8,0:0:0:0:
291,181,45220,1,0,0:0:0:0:
286,214,45280,1,0,0:0:0:0:
231,207,45340,1,8,0:0:0:0:
291,181,45399,1,0,0:0:0:0:
279,209,45459,1,8,0:0:0:0:
279,209,45518,1,0,0:0:0:0:
279,209,45578,1,8,0:0:0:0:
351,200,45637,1,8,0:0:0:0:
351,200,45697,1,0,0:0:0:0:
279,209,45756,1,0,0:0:0:0:
351,200,45816,1,0,0:0:0:0:
351,200,45875,1,0,0:0:0:0:
349,183,45935,1,8,0:0:0:0:
320,202,45994,1,0,0:0:0:0:
320,202,46054,1,0,0:0:0:0:
349,183,46113,1,8,0:0:0:0:
320,202,46173,1,0,0:0:0:0:
320,202,46232,1,0,0:0:0:0:
327,204,46292,1,8,0:0:0:0:
320,202,46351,1,0,0:0:0:0:
326,204,46411,1,8,0:0:0:0:
326,204,46470,1,0,0:0:0:0:
344,199,46530,1,0,0:0:0:0:
326,204,46590,1,8,0:0:0:0:
326,204,46649,1,0,0:0:0:0:
344,199,46709,1,0,0:0:0:0:
326,204,46768,1,8,0:0:0:0:
344,223,46828,1,0,0:0:0:0:
296,192,46887,1,8,0:0:0:0:
296,192,46947,1,0,0:0:0:0:
326,207,47006,1,8,0:0:0:0:
296,192,47066,1,8,0:0:0:0:
326,207,47125,1,0,0:0:0:0:
326,204,47185,1,0,0:0:0:0:
347,195,47244,1,0,0:0:0:0:
347,195,47304,1,0,0:0:0:0:
312,198,47363,1,8,0:0:0:0:
329,230,47601,1,8,0:0:0:0:
341,186,47840,1,4,0:0:0:0:
362,196,48078,1,8,0:0:0:0:
322,203,48197,1,0,0:0:0:0:
373,211,48316,1,8,0:0:0:0:
282,214,48375,1,0,0:0:0:0:
280,202,48435,1,0,0:0:0:0:
321,193,48494,1,0,0:0:0:0:
344,226,48554,1,8,0:0:0:0:
406,204,48673,1,8,0:0:0:0:
405,178,48792,1,0,0:0:0:0:
405,178,48851,1,0,0:0:0:0:
366,222,48911,1,0,0:0:0:0:
333,223,49030,1,8,0:0:0:0:
282,212,49149,1,0,0:0:0:0:
282,212,49209,1,0,0:0:0:0:
297,209,49268,1,8,0:0:0:0:
333,223,49387,1,8,0:0:0:0:
235,245,49506,1,0,0:0:0:0:
235,245,49625,1,0,0:0:0:0:
369,227,49744,1,8,0:0:0:0:
372,212,49804,1,0,0:0:0:0:
369,227,49863,1,8,0:0:0:0:
372,212,49982,1,0,0:0:0:0:
344,210,50101,1,8,0:0:0:0:
386,217,50220,1,0,0:0:0:0:
386,217,50280,1,0,0:0:0:0:
344,210,50340,1,8,0:0:0:0:
344,210,50399,1,8,0:0:0:0:
194,205,50459,1,0,0:0:0:0:
330,226,50578,1,0,0:0:0:0:
346,220,50697,1,8,0:0:0:0:
346,220,50756,1,8,0:0:0:0:
360,216,50816,1,0,0:0:0:0:
342,215,50935,1,8,0:0:0:0:
344,200,51054,1,0,0:0:0:0:
351,217,51113,1,0,0:0:0:0:
342,215,51173,1,8,0:0:0:0:
344,200,51232,1,0,0:0:0:0:
320,190,51292,1,8,0:0:0:0:
344,200,51351,1,0,0:0:0:0:
342,215,51411,1,8,0:0:0:0:
318,229,51470,1,8,0:0:0:0:
344,200,51530,1,0,0:0:0:0:
380,228,51649,1,8,0:0:0:0:
360,212,51887,1,0,0:0:0:0:
334,223,52006,1,8,0:0:0:0:
289,218,52244,1,0,0:0:0:0:
325,227,52363,1,8,0:0:0:0:
325,227,52482,1,8,0:0:0:0:
325,227,52542,1,8,0:0:0:0:
282,210,52601,1,0,0:0:0:0:
350,218,52720,1,0,0:0:0:0:
338,223,52840,1,8,0:0:0:0:
350,218,52899,1,0,0:0:0:0:
409,221,52959,1,8,0:0:0:0:
358,212,53197,1,0,0:0:0:0:
378,221,53316,1,8,0:0:0:0:
361,218,53554,1,0,0:0:0:0:
361,218,53673,1,0,0:0:0:0:
392,203,53792,1,8,0:0:0:0:
359,205,53911,1,0,0:0:0:0:
389,203,54030,1,8,0:0:0:0:
389,203,54090,1,8,0:0:0:0:
385,194,54149,1,0,0:0:0:0:
347,258,54209,1,0,0:0:0:0:
397,199,54268,1,8,0:0:0:0:
397,199,54328,1,8,0:0:0:0:
368,207,54387,1,0,0:0:0:0:
369,206,54427,1,0,0:0:0:0:
368,207,54467,1,0,0:0:0:0:
397,209,54506,1,8,0:0:0:0:
346,191,54625,1,0,0:0:0:0:
312,214,54744,1,8,0:0:0:0:
346,191,54863,1,0,0:0:0:0:
335,210,54982,1,8,0:0:0:0:
335,210,55042,1,8,0:0:0:0:
444,169,55101,1,0,0:0:0:0:
444,169,55161,1,0,0:0:0:0:
335,210,55220,1,8,0:0:0:0:
408,189,55340,1,0,0:0:0:0:
370,203,55459,1,8,0:0:0:0:
370,203,55518,1,8,0:0:0:0:
417,215,55578,1,0,0:0:0:0:
389,225,55697,1,8,0:0:0:0:
417,215,55816,1,0,0:0:0:0:
417,215,55875,1,0,0:0:0:0:
383,224,55935,1,8,0:0:0:0:
417,215,56054,1,0,0:0:0:0:
413,196,56173,1,8,0:0:0:0:
417,215,56232,1,0,0:0:0:0:
413,196,56292,1,8,0:0:0:0:
413,196,56351,1,8,0:0:0:0:
417,215,56411,1,0,0:0:0:0:
378,204,56530,1,0,0:0:0:0:
373,207,56649,1,8,0:0:0:0:
370,187,56709,1,8,0:0:0:0:
378,204,56768,1,0,0:0:0:0:
373,207,56887,1,8,0:0:0:0:
367,195,57006,1,0,0:0:0:0:
367,195,57066,1,0,0:0:0:0:
352,187,57125,1,8,0:0:0:0:
368,195,57185,1,0,0:0:0:0:
352,187,57244,1,8,0:0:0:0:
352,187,57304,1,8,0:0:0:0:
399,193,57363,1,0,0:0:0:0:
367,195,57482,1,0,0:0:0:0:
302,201,57601,1,8,0:0:0:0:
367,195,57661,1,0,0:0:0:0:
302,201,57720,1,8,0:0:0:0:
385,201,57840,1,0,0:0:0:0:
302,201,57959,1,8,0:0:0:0:
302,201,58018,1,8,0:0:0:0:
385,201,58078,1,0,0:0:0:0:
302,201,58137,1,8,0:0:0:0:
385,201,58197,1,0,0:0:0:0:
386,201,58256,1,0,0:0:0:0:
302,201,58316,1,8,0:0:0:0:
370,172,58435,1,0,0:0:0:0:
418,191,58554,1,8,0:0:0:0:
370,172,58673,1,0,0:0:0:0:
423,189,58732,1,0,0:0:0:0:
367,199,58792,1,8,0:0:0:0:
410,198,58911,1,0,0:0:0:0:
394,221,59030,1,8,0:0:0:0:
328,223,59149,1,0,0:0:0:0:
328,223,59209,1,0,0:0:0:0:
394,221,59268,1,8,0:0:0:0:
361,195,59387,1,0,0:0:0:0:
385,190,59506,1,8,0:0:0:0:
385,190,59566,1,8,0:0:0:0:
377,210,59625,1,0,0:0:0:0:
377,210,59685,1,0,0:0:0:0:
385,190,59744,1,8,0:0:0:0:
337,187,59863,1,0,0:0:0:0:
374,175,59982,1,8,0:0:0:0:
374,175,60042,1,8,0:0:0:0:
337,187,60101,1,0,0:0:0:0:
352,230,60161,1,8,0:0:0:0:
337,187,60220,1,0,0:0:0:0:
507,218,60340,1,0,0:0:0:0:
352,230,60459,1,8,0:0:0:0:
371,226,60578,1,0,0:0:0:0:
371,226,60637,1,0,0:0:0:0:
393,202,60697,1,8,0:0:0:0:
381,200,60816,1,0,0:0:0:0:
393,202,60935,1,8,0:0:0:0:
380,238,61054,1,8,0:0:0:0:
380,238,61113,1,8,0:0:0:0:
390,207,61173,1,0,0:0:0:0:
318,244,61292,1,8,0:0:0:0:
388,207,61411,1,0,0:0:0:0:
318,244,61530,1,8,0:0:0:0:
397,202,61649,1,0,0:0:0:0:
397,202,61709,1,0,0:0:0:0:
342,202,61768,1,8,0:0:0:0:
343,195,61828,1,8,0:0:0:0:
444,191,61887,1,0,0:0:0:0:
348,184,61947,1,0,0:0:0:0:
365,203,62006,1,8,0:0:0:0:
365,203,62046,1,8,0:0:0:0:
367,203,62086,1,8,0:0:0:0:
365,199,62125,1,0,0:0:0:0:
383,181,62363,1,8,0:0:0:0:
367,198,62482,1,0,0:0:0:0:
358,184,62601,1,8,0:0:0:0:
358,184,62661,1,8,0:0:0:0:
367,198,62720,1,0,0:0:0:0:
367,198,62780,1,0,0:0:0:0:
358,184,62840,1,8,0:0:0:0:
343,192,62959,1,0,0:0:0:0:
358,184,63078,1,8,0:0:0:0:
415,187,63137,1,0,0:0:0:0:
361,213,63197,1,8,0:0:0:0:
355,195,63316,1,0,0:0:0:0:
365,165,63435,1,8,0:0:0:0:
364,165,63474,1,8,0:0:0:0:
363,165,63514,1,8,0:0:0:0:
406,170,63554,1,0,0:0:0:0:
406,189,63613,1,0,0:0:0:0:
288,197,63673,1,8,0:0:0:0:
360,189,63713,1,0,0:0:0:0:
362,189,63752,1,0,0:0:0:0:
288,197,63792,1,8,0:0:0:0:
354,192,63851,1,8,0:0:0:0:
380,186,63911,1,0,0:0:0:0:
380,186,63951,1,0,0:0:0:0:
380,186,63990,1,0,0:0:0:0:
355,195,64030,1,8,0:0:0:0:
359,175,64149,1,0,0:0:0:0:
336,179,64268,1,8,0:0:0:0:
335,179,64328,1,8,0:0:0:0:
408,183,64387,1,0,0:0:0:0:
388,191,64506,1,8,0:0:0:0:
354,192,64625,1,0,0:0:0:0:
351,189,64685,1,0,0:0:0:0:
362,206,64744,1,8,0:0:0:0:
362,206,64804,1,8,0:0:0:0:
351,189,64863,1,0,0:0:0:0:
362,206,64923,1,8,0:0:0:0:
351,189,64982,1,0,0:0:0:0:
371,172,65101,1,8,0:0:0:0:
374,195,65220,1,0,0:0:0:0:
385,197,65340,1,8,0:0:0:0:
416,189,65379,1,0,0:0:0:0:
416,189,65419,1,0,0:0:0:0:
383,197,65459,1,8,0:0:0:0:
416,157,65518,1,8,0:0:0:0:
365,186,65578,1,0,0:0:0:0:
365,186,65617,1,0,0:0:0:0:
437,201,65657,1,0,0:0:0:0:
471,190,65697,1,8,0:0:0:0:
404,196,65756,1,8,0:0:0:0:
422,182,65816,1,0,0:0:0:0:
413,177,65855,1,8,0:0:0:0:
413,177,65895,1,8,0:0:0:0:
422,182,65935,1,0,0:0:0:0:
368,215,66054,1,8,0:0:0:0:
369,204,66173,1,0,0:0:0:0:
429,211,66292,1,8,0:0:0:0:
429,211,66351,1,8,0:0:0:0:
371,204,66411,1,0,0:0:0:0:
361,237,66530,1,8,0:0:0:0:
369,209,66649,1,0,0:0:0:0:
386,218,66768,1,8,0:0:0:0:
390,218,66828,1,8,0:0:0:0:
400,228,66887,1,0,0:0:0:0:
382,204,66947,1,0,0:0:0:0:
402,211,67006,1,8,0:0:0:0:
380,205,67125,1,0,0:0:0:0:
376,197,67244,1,8,0:0:0:0:
376,197,67284,1,8,0:0:0:0:
376,197,67324,1,8,0:0:0:0:
391,197,67363,1,0,0:0:0:0:
426,151,67423,1,0,0:0:0:0:
365,178,67482,1,8,0:0:0:0:
443,194,67522,1,0,0:0:0:0:
443,194,67562,1,0,0:0:0:0:
365,178,67601,1,8,0:0:0:0:
458,191,67661,1,8,0:0:0:0:
409,193,67720,1,0,0:0:0:0:
410,193,67760,1,0,0:0:0:0:
410,193,67800,1,0,0:0:0:0:
457,174,67840,1,8,0:0:0:0:
394,186,67959,1,0,0:0:0:0:
399,186,68078,1,8,0:0:0:0:
419,170,68197,1,0,0:0:0:0:
419,170,68256,1,0,0:0:0:0:
468,195,68316,1,8,0:0:0:0:
410,178,68435,1,0,0:0:0:0:
328,202,68554,1,8,0:0:0:0:
410,178,68673,1,0,0:0:0:0:
391,232,68792,1,8,0:0:0:0:
320,219,68851,1,0,0:0:0:0:
391,232,68911,1,8,0:0:0:0:
320,219,68970,1,0,0:0:0:0:
391,232,69030,1,8,0:0:0:0:
320,219,69090,1,0,0:0:0:0:
391,232,69149,1,8,0:0:0:0:
320,219,69209,1,0,0:0:0:0:
391,232,69268,1,8,0:0:0:0:
320,219,69387,1,0,0:0:0:0:
375,207,69506,1,8,0:0:0:0:
375,207,69566,1,8,0:0:0:0:
375,207,69625,1,8,0:0:0:0:
342,226,69744,1,4,0:0:0:0:
329,199,70220,1,8,0:0:0:0:
414,187,70459,1,0,0:0:0:0:
414,187,70578,1,0,0:0:0:0:
329,199,70697,1,8,0:0:0:0:
329,199,70816,1,8,0:0:0:0:
369,174,70935,1,0,0:0:0:0:
372,191,71173,1,8,0:0:0:0:
395,184,71649,1,0,0:0:0:0:
354,192,72125,1,8,0:0:0:0:
359,170,72363,1,0,0:0:0:0:
354,192,72482,1,8,0:0:0:0:
359,170,72601,1,0,0:0:0:0:
354,192,72720,1,8,0:0:0:0:
359,170,72840,1,0,0:0:0:0:
355,176,73078,1,8,0:0:0:0:
319,169,73554,1,0,0:0:0:0:
423,224,74030,1,8,0:0:0:0:
384,195,74268,1,0,0:0:0:0:
365,207,74387,1,8,0:0:0:0:
365,207,74506,1,8,0:0:0:0:
365,207,74625,1,8,0:0:0:0:
384,195,74744,1,0,0:0:0:0:
374,193,74982,1,8,0:0:0:0:
311,201,75459,1,0,0:0:0:0:
362,180,75935,1,8,0:0:0:0:
251,206,76173,1,0,0:0:0:0:
251,206,76292,1,0,0:0:0:0:
324,194,76411,1,8,0:0:0:0:
251,206,76530,1,0,0:0:0:0:
251,206,76649,1,0,0:0:0:0:
352,206,76887,1,8,0:0:0:0:
365,163,77363,1,0,0:0:0:0:
348,181,77840,1,8,0:0:0:0:
334,186,78078,1,0,0:0:0:0:
334,186,78197,1,0,0:0:0:0:
298,194,78316,1,8,0:0:0:0:
298,194,78435,1,8,0:0:0:0:
334,186,78554,1,0,0:0:0:0:
376,183,78792,1,8,0:0:0:0:
309,175,79268,1,0,0:0:0:0:
345,188,79744,1,8,0:0:0:0:
420,176,79982,1,0,0:0:0:0:
345,188,80101,1,8,0:0:0:0:
420,176,80220,1,0,0:0:0:0:
345,188,80340,1,8,0:0:0:0:
420,176,80459,1,0,0:0:0:0:
384,183,80697,1,8,0:0:0:0:
369,164,81173,1,0,0:0:0:0:
419,161,81649,1,8,0:0:0:0:
389,185,81887,1,0,0:0:0:0:
333,167,82006,1,8,0:0:0:0:
333,167,82125,1,8,0:0:0:0:
333,167,82244,1,8,0:0:0:0:
389,185,82363,1,0,0:0:0:0:
404,200,82601,1,8,0:0:0:0:
373,200,83078,1,0,0:0:0:0:
400,192,83554,1,8,0:0:0:0:
409,188,83792,1,0,0:0:0:0:
409,188,83911,1,0,0:0:0:0:
388,195,84030,1,8,0:0:0:0:
409,188,84149,1,0,0:0:0:0:
409,188,84268,1,0,0:0:0:0:
403,197,84506,1,8,0:0:0:0:
451,184,84982,1,8,0:0:0:0:
420,181,85220,1,4,0:0:0:0:
311,211,85458,1,8,0:0:0:0:
352,196,85577,1,0,0:0:0:0:
283,189,85696,1,8,0:0:0:0:
283,189,85755,1,8,0:0:0:0:
385,200,85815,1,0,0:0:0:0:
353,222,85934,1,8,0:0:0:0:
368,197,86053,1,0,0:0:0:0:
366,196,86172,1,8,0:0:0:0:
308,215,86231,1,0,0:0:0:0:
390,194,86291,1,0,0:0:0:0:
428,194,86410,1,8,0:0:0:0:
318,187,86529,1,0,0:0:0:0:
318,187,86589,1,0,0:0:0:0:
428,194,86648,1,8,0:0:0:0:
428,194,86708,1,8,0:0:0:0:
318,187,86767,1,0,0:0:0:0:
361,191,86886,1,8,0:0:0:0:
412,213,87005,1,0,0:0:0:0:
351,219,87065,1,0,0:0:0:0:
390,222,87124,1,8,0:0:0:0:
310,206,87243,1,0,0:0:0:0:
373,224,87362,1,8,0:0:0:0:
350,216,87481,1,0,0:0:0:0:
373,224,87600,1,8,0:0:0:0:
388,220,87660,1,8,0:0:0:0:
356,215,87720,1,0,0:0:0:0:
302,224,87839,1,8,0:0:0:0:
350,216,87958,1,0,0:0:0:0:
327,198,88077,1,8,0:0:0:0:
402,197,88136,1,0,0:0:0:0:
402,197,88196,1,0,0:0:0:0:
367,191,88315,1,8,0:0:0:0:
379,214,88434,1,0,0:0:0:0:
379,214,88493,1,0,0:0:0:0:
361,172,88553,1,8,0:0:0:0:
379,214,88612,1,0,0:0:0:0:
361,172,88672,1,8,0:0:0:0:
379,214,88731,1,0,0:0:0:0:
361,172,88791,1,8,0:0:0:0:
393,170,88850,1,8,0:0:0:0:
393,211,88910,1,0,0:0:0:0:
376,187,89029,1,8,0:0:0:0:
344,218,89148,1,0,0:0:0:0:
368,189,89208,1,0,0:0:0:0:
386,212,89267,1,8,0:0:0:0:
340,228,89386,1,0,0:0:0:0:
304,210,89505,1,8,0:0:0:0:
336,210,89565,1,8,0:0:0:0:
357,229,89624,1,0,0:0:0:0:
364,211,89743,1,8,0:0:0:0:
376,202,89862,1,0,0:0:0:0:
364,211,89981,1,8,0:0:0:0:
301,153,90041,1,0,0:0:0:0:
376,202,90100,1,0,0:0:0:0:
371,181,90220,1,8,0:0:0:0:
304,185,90339,1,0,0:0:0:0:
304,185,90398,1,0,0:0:0:0:
371,181,90458,1,8,0:0:0:0:
371,181,90517,1,8,0:0:0:0:
304,185,90577,1,0,0:0:0:0:
368,169,90696,1,8,0:0:0:0:
354,185,90815,1,0,0:0:0:0:
354,185,90874,1,0,0:0:0:0:
368,169,90934,1,8,0:0:0:0:
318,199,91053,1,0,0:0:0:0:
349,189,91172,1,8,0:0:0:0:
371,181,91291,1,0,0:0:0:0:
416,195,91410,1,8,0:0:0:0:
353,164,91470,1,8,0:0:0:0:
379,189,91529,1,0,0:0:0:0:
369,199,91648,1,8,0:0:0:0:
330,199,91767,1,0,0:0:0:0:
371,189,91886,1,8,0:0:0:0:
451,186,91946,1,0,0:0:0:0:
451,186,92005,1,0,0:0:0:0:
322,206,92124,1,8,0:0:0:0:
335,198,92243,1,8,0:0:0:0:
397,193,92362,1,0,0:0:0:0:
407,194,92481,1,0,0:0:0:0:
339,207,92600,1,0,0:0:0:0:
339,207,92720,1,0,0:0:0:0:
394,201,92839,1,12,0:0:0:0:
355,207,93077,1,8,0:0:0:0:
306,194,93196,1,0,0:0:0:0:
358,195,93315,1,8,0:0:0:0:
358,195,93374,1,8,0:0:0:0:
329,207,93434,1,0,0:0:0:0:
345,198,93553,1,8,0:0:0:0:
300,210,93672,1,0,0:0:0:0:
345,198,93791,1,8,0:0:0:0:
379,193,93850,1,0,0:0:0:0:
345,198,93910,1,8,0:0:0:0:
345,198,93970,1,8,0:0:0:0:
277,203,94029,1,0,0:0:0:0:
345,188,94148,1,8,0:0:0:0:
306,194,94267,1,0,0:0:0:0:
325,183,94386,1,8,0:0:0:0:
306,194,94446,1,0,0:0:0:0:
325,183,94505,1,8,0:0:0:0:
426,193,94624,1,0,0:0:0:0:
325,183,94743,1,8,0:0:0:0:
379,193,94862,1,0,0:0:0:0:
379,193,94922,1,0,0:0:0:0:
377,203,94981,1,8,0:0:0:0:
377,203,95100,1,8,0:0:0:0:
325,188,95220,1,0,0:0:0:0:
325,188,95279,1,0,0:0:0:0:
377,203,95339,1,8,0:0:0:0:
377,203,95398,1,8,0:0:0:0:
317,188,95458,1,0,0:0:0:0:
377,203,95577,1,8,0:0:0:0:
325,188,95696,1,0,0:0:0:0:
325,188,95815,1,0,0:0:0:0:
366,209,95874,1,0,0:0:0:0:
357,177,95934,1,8,0:0:0:0:
366,209,95993,1,0,0:0:0:0:
359,167,96053,1,8,0:0:0:0:
366,209,96112,1,0,0:0:0:0:
350,203,96172,1,8,0:0:0:0:
350,203,96231,1,8,0:0:0:0:
272,194,96291,1,0,0:0:0:0:
357,177,96410,1,8,0:0:0:0:
371,183,96529,1,8,0:0:0:0:
371,183,96589,1,8,0:0:0:0:
304,169,96648,1,0,0:0:0:0:
304,169,96767,1,0,0:0:0:0:
274,153,96886,1,8,0:0:0:0:
274,153,97005,1,0,0:0:0:0:
274,153,97065,1,0,0:0:0:0:
337,194,97124,1,8,0:0:0:0:
333,157,97243,1,0,0:0:0:0:
320,203,97362,1,8,0:0:0:0:
349,231,97481,1,8,0:0:0:0:
372,192,97600,1,0,0:0:0:0:
372,192,97660,1,0,0:0:0:0:
362,215,97720,1,8,0:0:0:0:
362,215,97779,1,8,0:0:0:0:
372,192,97839,1,0,0:0:0:0:
387,197,97958,1,8,0:0:0:0:
383,204,98077,1,0,0:0:0:0:
383,196,98136,1,8,0:0:0:0:
383,204,98196,1,0,0:0:0:0:
363,209,98315,1,8,0:0:0:0:
383,204,98434,1,0,0:0:0:0:
365,219,98553,1,8,0:0:0:0:
339,211,98672,1,0,0:0:0:0:
339,211,98731,1,0,0:0:0:0:
357,205,98791,1,8,0:0:0:0:
357,205,98910,1,8,0:0:0:0:
368,203,99029,1,0,0:0:0:0:
368,203,99089,1,0,0:0:0:0:
394,194,99148,1,8,0:0:0:0:
368,203,99208,1,0,0:0:0:0:
394,194,99267,1,8,0:0:0:0:
373,211,99386,1,8,0:0:0:0:
358,205,99505,1,0,0:0:0:0:
406,201,99624,1,8,0:0:0:0:
358,205,99743,1,0,0:0:0:0:
406,201,99862,1,8,0:0:0:0:
358,205,99981,1,0,0:0:0:0:
363,206,100100,1,0,0:0:0:0:
423,197,100220,1,8,0:0:0:0:
423,197,100279,1,8,0:0:0:0:
423,197,100339,1,8,0:0:0:0:
423,197,100398,1,8,0:0:0:0:
362,201,102362,1,0,0:0:0:0:
362,201,102481,1,0,0:0:0:0:
382,204,102600,1,8,0:0:0:0:
362,201,102720,1,0,0:0:0:0:
362,201,102839,1,0,0:0:0:0:
368,206,102958,1,8,0:0:0:0:
362,201,103077,1,0,0:0:0:0:
368,206,103196,1,8,0:0:0:0:
362,201,103315,1,0,0:0:0:0:
362,201,103434,1,0,0:0:0:0:
392,205,103553,1,0,0:0:0:0:
392,205,103612,1,0,0:0:0:0:
383,204,103672,1,8,0:0:0:0:
383,204,103731,1,8,0:0:0:0:
362,201,103791,1,0,0:0:0:0:
294,209,104029,1,8,0:0:0:0:
304,181,104088,1,0,0:0:0:0:
304,181,104148,1,0,0:0:0:0:
294,209,104207,1,8,0:0:0:0:
320,181,104267,1,0,0:0:0:0:
320,181,104326,1,0,0:0:0:0:
294,209,104386,1,8,0:0:0:0:
320,181,104445,1,0,0:0:0:0:
294,209,104505,1,8,0:0:0:0:
320,180,104564,1,0,0:0:0:0:
320,180,104624,1,0,0:0:0:0:
294,209,104683,1,8,0:0:0:0:
320,180,104743,1,0,0:0:0:0:
320,180,104802,1,0,0:0:0:0:
294,209,104862,1,8,0:0:0:0:
320,180,104921,1,0,0:0:0:0:
294,209,104981,1,8,0:0:0:0:
315,189,105040,1,0,0:0:0:0:
315,189,105100,1,0,0:0:0:0:
294,209,105159,1,8,0:0:0:0:
315,189,105219,1,0,0:0:0:0:
315,189,105279,1,0,0:0:0:0:
294,209,105338,1,8,0:0:0:0:
315,189,105398,1,0,0:0:0:0:
294,209,105457,1,8,0:0:0:0:
317,171,105517,1,0,0:0:0:0:
343,182,105576,1,8,0:0:0:0:
343,182,105636,1,8,0:0:0:0:
317,171,105695,1,0,0:0:0:0:
317,171,105755,1,0,0:0:0:0:
317,171,105814,1,0,0:0:0:0:
317,171,105874,1,0,0:0:0:0:
294,209,105933,1,8,0:0:0:0:
304,181,105993,1,0,0:0:0:0:
304,181,106052,1,0,0:0:0:0:
294,209,106112,1,8,0:0:0:0:
320,181,106171,1,0,0:0:0:0:
320,181,106231,1,0,0:0:0:0:
294,209,106290,1,8,0:0:0:0:
320,181,106350,1,0,0:0:0:0:
294,209,106409,1,8,0:0:0:0:
320,180,106469,1,0,0:0:0:0:
320,180,106529,1,0,0:0:0:0:
294,209,106588,1,8,0:0:0:0:
320,180,106648,1,0,0:0:0:0:
320,180,106707,1,0,0:0:0:0:
294,209,106767,1,8,0:0:0:0:
320,180,106826,1,0,0:0:0:0:
294,209,106886,1,8,0:0:0:0:
315,189,106945,1,0,0:0:0:0:
315,189,107005,1,0,0:0:0:0:
294,209,107064,1,8,0:0:0:0:
315,189,107124,1,0,0:0:0:0:
315,189,107183,1,0,0:0:0:0:
294,209,107243,1,8,0:0:0:0:
315,189,107302,1,0,0:0:0:0:
294,209,107362,1,8,0:0:0:0:
317,171,107421,1,0,0:0:0:0:
343,182,107481,1,8,0:0:0:0:
343,182,107540,1,8,0:0:0:0:
317,171,107600,1,0,0:0:0:0:
317,171,107659,1,0,0:0:0:0:
317,171,107719,1,0,0:0:0:0:
317,171,107779,1,0,0:0:0:0:
294,209,107838,1,8,0:0:0:0:
304,181,107898,1,0,0:0:0:0:
304,181,107957,1,0,0:0:0:0:
294,209,108017,1,8,0:0:0:0:
320,181,108076,1,0,0:0:0:0:
320,181,108136,1,0,0:0:0:0:
294,209,108195,1,8,0:0:0:0:
320,181,108255,1,0,0:0:0:0:
294,209,108314,1,8,0:0:0:0:
320,180,108374,1,0,0:0:0:0:
320,180,108433,1,0,0:0:0:0:
294,209,108493,1,8,0:0:0:0:
320,180,108552,1,0,0:0:0:0:
320,180,108612,1,0,0:0:0:0:
294,209,108671,1,8,0:0:0:0:
320,180,108731,1,0,0:0:0:0:
294,209,108790,1,8,0:0:0:0:
315,189,108850,1,0,0:0:0:0:
391,203,108909,1,8,0:0:0:0:
391,203,108969,1,8,0:0:0:0:
350,192,109029,1,0,0:0:0:0:
350,192,109088,1,0,0:0:0:0:
350,192,109148,1,0,0:0:0:0:
350,192,109207,1,0,0:0:0:0:
391,203,109267,1,8,0:0:0:0:
370,180,109386,1,0,0:0:0:0:
370,180,109425,1,0,0:0:0:0:
370,180,109465,1,0,0:0:0:0:
398,204,109505,1,8,0:0:0:0:
368,210,109624,1,8,0:0:0:0:
341,186,109743,1,4,0:0:0:0:
362,196,109981,1,8,0:0:0:0:
322,203,110100,1,0,0:0:0:0:
373,211,110219,1,8,0:0:0:0:
282,214,110279,1,0,0:0:0:0:
280,202,110338,1,0,0:0:0:0:
321,193,110398,1,0,0:0:0:0:
344,226,110457,1,8,0:0:0:0:
406,204,110576,1,8,0:0:0:0:
405,178,110695,1,0,0:0:0:0:
405,178,110755,1,0,0:0:0:0:
366,222,110814,1,0,0:0:0:0:
333,223,110933,1,8,0:0:0:0:
282,212,111052,1,0,0:0:0:0:
282,212,111112,1,0,0:0:0:0:
297,209,111171,1,8,0:0:0:0:
333,223,111290,1,8,0:0:0:0:
235,245,111409,1,0,0:0:0:0:
235,245,111529,1,0,0:0:0:0:
369,227,111648,1,8,0:0:0:0:
372,212,111707,1,0,0:0:0:0:
369,227,111767,1,8,0:0:0:0:
372,212,111886,1,0,0:0:0:0:
344,210,112005,1,8,0:0:0:0:
386,217,112124,1,0,0:0:0:0:
386,217,112183,1,0,0:0:0:0:
344,210,112243,1,8,0:0:0:0:
344,210,112302,1,8,0:0:0:0:
194,205,112362,1,0,0:0:0:0:
330,226,112481,1,0,0:0:0:0:
346,220,112600,1,8,0:0:0:0:
346,220,112659,1,8,0:0:0:0:
360,216,112719,1,0,0:0:0:0:
342,215,112838,1,8,0:0:0:0:
344,200,112957,1,0,0:0:0:0:
351,217,113017,1,0,0:0:0:0:
342,215,113076,1,8,0:0:0:0:
344,200,113136,1,0,0:0:0:0:
320,190,113195,1,8,0:0:0:0:
344,200,113255,1,0,0:0:0:0:
342,215,113314,1,8,0:0:0:0:
318,229,113374,1,8,0:0:0:0:
344,200,113433,1,0,0:0:0:0:
380,228,113552,1,8,0:0:0:0:
360,212,113790,1,0,0:0:0:0:
334,223,113909,1,8,0:0:0:0:
289,218,114148,1,0,0:0:0:0:
325,227,114267,1,8,0:0:0:0:
325,227,114386,1,8,0:0:0:0:
325,227,114445,1,8,0:0:0:0:
282,210,114505,1,0,0:0:0:0:
350,218,114624,1,0,0:0:0:0:
338,223,114743,1,8,0:0:0:0:
350,218,114802,1,0,0:0:0:0:
409,221,114862,1,8,0:0:0:0:
358,212,115100,1,0,0:0:0:0:
378,221,115219,1,8,0:0:0:0:
361,218,115457,1,0,0:0:0:0:
361,218,115576,1,0,0:0:0:0:
392,203,115695,1,8,0:0:0:0:
359,205,115814,1,0,0:0:0:0:
389,203,115933,1,8,0:0:0:0:
389,203,115993,1,8,0:0:0:0:
385,194,116052,1,0,0:0:0:0:
347,258,116112,1,0,0:0:0:0:
397,199,116171,1,8,0:0:0:0:
397,199,116231,1,8,0:0:0:0:
368,207,116290,1,0,0:0:0:0:
369,206,116330,1,0,0:0:0:0:
368,207,116370,1,0,0:0:0:0:
397,209,116409,1,8,0:0:0:0:
371,218,116648,1,8,0:0:0:0:
371,218,116886,1,8,0:0:0:0:
366,188,117124,1,12,0:0:0:0:
329,216,117362,1,4,0:0:0:0:
283,201,117600,1,8,0:0:0:0:
366,188,117719,1,0,0:0:0:0:
378,203,117779,1,0,0:0:0:0:
418,192,117838,1,8,0:0:0:0:
297,171,117957,1,0,0:0:0:0:
367,199,118076,1,8,0:0:0:0:
442,172,118116,1,8,0:0:0:0:
442,172,118155,1,8,0:0:0:0:
391,179,118195,1,0,0:0:0:0:
383,214,118314,1,8,0:0:0:0:
395,194,118433,1,0,0:0:0:0:
395,207,118552,1,8,0:0:0:0:
395,207,118671,1,8,0:0:0:0:
395,207,118731,1,8,0:0:0:0:
379,200,118790,1,0,0:0:0:0:
397,214,118909,1,8,0:0:0:0:
396,185,119029,1,0,0:0:0:0:
420,208,119148,1,0,0:0:0:0:
413,207,119267,1,8,0:0:0:0:
413,207,119306,1,8,0:0:0:0:
413,207,119346,1,8,0:0:0:0:
412,207,119386,1,8,0:0:0:0:
431,210,119505,1,0,0:0:0:0:
434,210,119624,1,0,0:0:0:0:
392,190,119743,1,8,0:0:0:0:
392,190,119802,1,8,0:0:0:0:
412,193,119862,1,0,0:0:0:0:
412,193,119921,1,0,0:0:0:0:
392,190,119981,1,8,0:0:0:0:
412,193,120100,1,0,0:0:0:0:
403,203,120219,1,8,0:0:0:0:
421,200,120259,1,8,0:0:0:0:
403,203,120298,1,8,0:0:0:0:
421,200,120338,1,0,0:0:0:0:
391,183,120398,1,0,0:0:0:0:
448,193,120457,1,8,0:0:0:0:
432,207,120576,1,0,0:0:0:0:
388,235,120636,1,0,0:0:0:0:
391,192,120695,1,8,0:0:0:0:
432,207,120755,1,0,0:0:0:0:
338,209,120814,1,8,0:0:0:0:
432,207,120874,1,0,0:0:0:0:
338,209,120933,1,8,0:0:0:0:
338,209,120993,1,8,0:0:0:0:
432,207,121052,1,0,0:0:0:0:
347,201,121171,1,8,0:0:0:0:
388,220,121231,1,0,0:0:0:0:
359,219,121290,1,8,0:0:0:0:
396,206,121409,1,0,0:0:0:0:
364,221,121529,1,0,0:0:0:0:
369,206,121648,1,8,0:0:0:0:
369,206,121687,1,8,0:0:0:0:
369,206,121727,1,8,0:0:0:0:
369,206,121767,1,8,0:0:0:0:
371,226,121886,1,0,0:0:0:0:
408,229,122005,1,8,0:0:0:0:
408,229,122064,1,8,0:0:0:0:
296,239,122124,1,0,0:0:0:0:
408,229,122183,1,8,0:0:0:0:
296,239,122243,1,0,0:0:0:0:
296,239,122302,1,0,0:0:0:0:
408,229,122362,1,8,0:0:0:0:
296,239,122481,1,0,0:0:0:0:
329,193,122600,1,8,0:0:0:0:
329,193,122659,1,8,0:0:0:0:
296,239,122719,1,0,0:0:0:0:
329,193,122838,1,8,0:0:0:0:
329,193,122957,1,8,0:0:0:0:
337,203,123076,1,0,0:0:0:0:
338,203,123116,1,0,0:0:0:0:
338,203,123155,1,0,0:0:0:0:
338,203,123195,1,0,0:0:0:0:
325,207,123314,1,8,0:0:0:0:
354,197,123433,1,0,0:0:0:0:
361,174,123552,1,8,0:0:0:0:
388,190,123592,1,0,0:0:0:0:
388,190,123632,1,0,0:0:0:0:
361,174,123671,1,8,0:0:0:0:
309,188,123731,1,8,0:0:0:0:
388,190,123790,1,0,0:0:0:0:
385,200,123909,1,0,0:0:0:0:
309,188,124028,1,8,0:0:0:0:
372,204,124148,1,0,0:0:0:0:
372,204,124207,1,0,0:0:0:0:
293,216,124267,1,8,0:0:0:0:
372,204,124386,1,0,0:0:0:0:
293,216,124505,1,8,0:0:0:0:
399,212,124862,1,0,0:0:0:0:
382,213,124981,1,8,0:0:0:0:
383,199,125040,1,8,0:0:0:0:
394,214,125100,1,0,0:0:0:0:
383,199,125219,1,8,0:0:0:0:
320,208,125338,1,0,0:0:0:0:
320,208,125398,1,0,0:0:0:0:
323,204,125457,1,8,0:0:0:0:
325,191,125576,1,0,0:0:0:0:
323,204,125695,1,8,0:0:0:0:
323,204,125755,1,8,0:0:0:0:
326,191,125814,1,0,0:0:0:0:
326,191,125874,1,0,0:0:0:0:
323,204,125933,1,8,0:0:0:0:
325,191,126052,1,0,0:0:0:0:
354,213,126171,1,8,0:0:0:0:
337,204,126231,1,0,0:0:0:0:
337,204,126290,1,0,0:0:0:0:
354,213,126409,1,8,0:0:0:0:
314,198,126528,1,0,0:0:0:0:
305,182,126588,1,0,0:0:0:0:
354,213,126648,1,8,0:0:0:0:
364,198,126707,1,8,0:0:0:0:
313,198,126767,1,0,0:0:0:0:
313,198,126826,1,0,0:0:0:0:
266,214,126886,1,8,0:0:0:0:
285,201,127005,1,0,0:0:0:0:
266,214,127124,1,8,0:0:0:0:
285,201,127243,1,0,0:0:0:0:
285,201,127302,1,0,0:0:0:0:
266,214,127362,1,8,0:0:0:0:
310,204,127481,1,0,0:0:0:0:
320,199,127600,1,8,0:0:0:0:
320,199,127659,1,8,0:0:0:0:
310,204,127719,1,0,0:0:0:0:
310,204,127778,1,0,0:0:0:0:
320,199,127838,1,8,0:0:0:0:
339,217,127957,1,0,0:0:0:0:
320,199,128076,1,8,0:0:0:0:
314,200,128136,1,0,0:0:0:0:
339,200,128195,1,8,0:0:0:0:
314,200,128255,1,0,0:0:0:0:
339,200,128314,1,8,0:0:0:0:
339,200,128374,1,8,0:0:0:0:
314,200,128433,1,0,0:0:0:0:
314,200,128493,1,0,0:0:0:0:
342,200,128552,1,8,0:0:0:0:
343,218,128671,1,0,0:0:0:0:
329,203,128790,1,8,0:0:0:0:
324,212,128850,1,8,0:0:0:0:
376,209,128909,1,0,0:0:0:0:
324,212,129028,1,8,0:0:0:0:
376,209,129148,1,0,0:0:0:0:
376,209,129207,1,0,0:0:0:0:
324,212,129267,1,8,0:0:0:0:
376,209,129386,1,0,0:0:0:0:
376,209,129445,1,0,0:0:0:0:
346,226,129505,1,8,0:0:0:0:
334,204,129624,1,0,0:0:0:0:
325,201,129743,1,8,0:0:0:0:
314,187,129862,1,0,0:0:0:0:
324,201,129921,1,8,0:0:0:0:
324,201,129981,1,8,0:0:0:0:
346,195,130100,1,0,0:0:0:0:
378,198,130219,1,8,0:0:0:0:
378,198,130278,1,8,0:0:0:0:
401,200,130338,1,0,0:0:0:0:
401,200,130398,1,0,0:0:0:0:
378,198,130457,1,8,0:0:0:0:
401,200,130576,1,0,0:0:0:0:
357,206,130695,1,8,0:0:0:0:
401,200,130755,1,0,0:0:0:0:
401,200,130814,1,0,0:0:0:0:
401,200,130874,1,0,0:0:0:0:
378,198,130933,1,8,0:0:0:0:
356,207,131052,1,0,0:0:0:0:
376,198,131171,1,8,0:0:0:0:
378,198,131231,1,8,0:0:0:0:
357,206,131290,1,0,0:0:0:0:
384,204,131409,1,8,0:0:0:0:
356,207,131529,1,0,0:0:0:0:
356,207,131648,1,12,0:0:0:0:
356,207,131767,1,12,0:0:0:0:
352,206,131886,1,12,0:0:0:0:
357,206,132005,1,12,0:0:0:0:
356,207,132124,1,12,0:0:0:0:
312,200,132600,1,0,0:0:0:0:
361,195,133076,1,8,0:0:0:0:
388,192,133433,1,0,0:0:0:0:
388,192,133552,1,0,0:0:0:0:
414,189,133790,1,0,0:0:0:0:
388,183,134029,1,8,0:0:0:0:
367,161,134267,1,0,0:0:0:0:
373,161,134505,1,0,0:0:0:0:
402,194,134981,1,8,0:0:0:0:
348,206,135338,1,0,0:0:0:0:
359,204,135457,1,0,0:0:0:0:
347,193,135933,1,8,0:0:0:0:
332,167,136171,1,0,0:0:0:0:
332,167,136409,1,0,0:0:0:0:
359,152,136886,1,8,0:0:0:0:
334,181,137243,1,0,0:0:0:0:
263,182,137362,1,0,0:0:0:0:
416,210,137600,1,0,0:0:0:0:
400,200,137838,1,8,0:0:0:0:
355,193,138076,1,0,0:0:0:0:
355,193,138314,1,0,0:0:0:0:
370,163,138790,1,8,0:0:0:0:
389,184,139148,1,0,0:0:0:0:
425,177,139267,1,0,0:0:0:0:
384,177,139743,1,8,0:0:0:0:
386,197,139981,1,0,0:0:0:0:
386,197,140219,1,0,0:0:0:0:
367,192,140695,1,8,0:0:0:0:
367,184,141052,1,0,0:0:0:0:
367,184,141171,1,0,0:0:0:0:
348,223,141409,1,0,0:0:0:0:
375,200,141648,1,8,0:0:0:0:
389,193,141886,1,0,0:0:0:0:
389,193,142124,1,0,0:0:0:0:
362,171,142600,1,8,0:0:0:0:
394,186,142957,1,0,0:0:0:0:
394,186,143076,1,0,0:0:0:0:
339,171,143552,1,8,0:0:0:0:
331,171,143790,1,0,0:0:0:0:
331,171,144028,1,0,0:0:0:0:
361,186,144505,1,8,0:0:0:0:
394,183,144862,1,0,0:0:0:0:
394,183,144981,1,0,0:0:0:0:
338,137,145219,1,0,0:0:0:0:
405,186,145457,1,8,0:0:0:0:
324,188,145695,1,0,0:0:0:0:
324,188,145933,1,0,0:0:0:0:
362,169,146409,1,8,0:0:0:0:
414,181,146767,1,0,0:0:0:0:
414,181,146886,1,0,0:0:0:0:
419,172,147362,1,8,0:0:0:0:
429,172,147838,1,4,0:0:0:0:
439,175,148076,1,8,0:0:0:0:
402,175,148195,1,0,0:0:0:0:
408,172,148314,1,8,0:0:0:0:
407,188,148394,1,0,0:0:0:0:
407,188,148473,1,0,0:0:0:0:
408,172,148552,1,8,0:0:0:0:
393,187,148671,1,0,0:0:0:0:
382,251,148790,1,8,0:0:0:0:
469,187,148850,1,8,0:0:0:0:
469,187,148909,1,8,0:0:0:0:
413,228,149028,1,0,0:0:0:0:
413,228,149148,1,0,0:0:0:0:
469,187,149267,1,8,0:0:0:0:
469,187,149326,1,8,0:0:0:0:
423,187,149386,1,0,0:0:0:0:
423,187,149445,1,0,0:0:0:0:
469,187,149505,1,8,0:0:0:0:
423,187,149624,1,0,0:0:0:0:
408,202,149743,1,8,0:0:0:0:
406,186,149862,1,8,0:0:0:0:
428,198,149981,1,0,0:0:0:0:
408,202,150040,1,8,0:0:0:0:
428,198,150100,1,0,0:0:0:0:
406,188,150219,1,8,0:0:0:0:
397,176,150398,1,0,0:0:0:0:
403,204,150457,1,8,0:0:0:0:
415,203,150576,1,8,0:0:0:0:
411,187,150695,1,0,0:0:0:0:
411,187,150814,1,0,0:0:0:0:
412,182,150933,1,8,0:0:0:0:
411,187,151052,1,0,0:0:0:0:
413,180,151171,1,8,0:0:0:0:
377,209,151290,1,0,0:0:0:0:
377,209,151350,1,0,0:0:0:0:
407,191,151409,1,8,0:0:0:0:
413,180,151528,1,8,0:0:0:0:
430,187,151648,1,0,0:0:0:0:
360,202,151707,1,8,0:0:0:0:
430,187,151767,1,0,0:0:0:0:
379,188,151826,1,0,0:0:0:0:
360,202,151886,1,8,0:0:0:0:
376,189,152005,1,0,0:0:0:0:
391,194,152124,1,8,0:0:0:0:
391,194,152243,1,8,0:0:0:0:
402,212,152362,1,0,0:0:0:0:
434,187,152600,1,8,0:0:0:0:
434,187,152719,1,8,0:0:0:0:
372,192,152838,1,0,0:0:0:0:
337,173,152917,1,0,0:0:0:0:
337,173,152997,1,0,0:0:0:0:
419,179,153076,1,8,0:0:0:0:
402,173,153195,1,0,0:0:0:0:
399,196,153314,1,8,0:0:0:0:
399,196,153433,1,8,0:0:0:0:
445,172,153552,1,0,0:0:0:0:
466,187,153612,1,8,0:0:0:0:
445,172,153671,1,0,0:0:0:0:
466,187,153790,1,8,0:0:0:0:
463,187,153870,1,0,0:0:0:0:
463,187,153949,1,0,0:0:0:0:
382,171,154028,1,8,0:0:0:0:
396,184,154148,1,8,0:0:0:0:
373,180,154267,1,0,0:0:0:0:
374,180,154386,1,0,0:0:0:0:
411,176,154505,1,8,0:0:0:0:
379,166,154981,1,8,0:0:0:0:
400,190,155219,1,0,0:0:0:0:
400,190,155695,1,0,0:0:0:0:
443,195,155933,1,8,0:0:0:0:
389,205,156409,1,0,0:0:0:0:
389,205,156528,1,0,0:0:0:0:
402,205,156648,1,8,0:0:0:0:
389,205,156767,1,0,0:0:0:0:
389,205,156886,1,0,0:0:0:0:
402,205,157005,1,8,0:0:0:0:
389,205,157124,1,0,0:0:0:0:
402,205,157243,1,8,0:0:0:0:
389,205,157362,1,0,0:0:0:0:
389,205,157481,1,0,0:0:0:0:
423,188,157600,1,8,0:0:0:0:
354,192,157719,1,0,0:0:0:0:
354,192,157838,1,0,0:0:0:0:
354,192,157898,1,0,0:0:0:0:
402,205,157957,1,8,0:0:0:0:
402,205,158017,1,8,0:0:0:0:
354,192,158076,1,0,0:0:0:0:
294,209,158314,1,8,0:0:0:0:
304,181,158374,1,0,0:0:0:0:
304,181,158433,1,0,0:0:0:0:
294,209,158493,1,8,0:0:0:0:
320,181,158552,1,0,0:0:0:0:
320,181,158612,1,0,0:0:0:0:
294,209,158671,1,8,0:0:0:0:
320,181,158731,1,0,0:0:0:0:
294,209,158790,1,8,0:0:0:0:
320,180,158850,1,0,0:0:0:0:
320,180,158909,1,0,0:0:0:0:
294,209,158969,1,8,0:0:0:0:
320,180,159028,1,0,0:0:0:0:
320,180,159088,1,0,0:0:0:0:
294,209,159148,1,8,0:0:0:0:
320,180,159207,1,0,0:0:0:0:
294,209,159267,1,8,0:0:0:0:
315,189,159326,1,0,0:0:0:0:
315,189,159386,1,0,0:0:0:0:
294,209,159445,1,8,0:0:0:0:
315,189,159505,1,0,0:0:0:0:
315,189,159564,1,0,0:0:0:0:
294,209,159624,1,8,0:0:0:0:
315,189,159683,1,0,0:0:0:0:
294,209,159743,1,8,0:0:0:0:
317,171,159802,1,0,0:0:0:0:
343,182,159862,1,8,0:0:0:0:
343,182,159921,1,8,0:0:0:0:
317,171,159981,1,0,0:0:0:0:
317,171,160040,1,0,0:0:0:0:
317,171,160100,1,0,0:0:0:0:
317,171,160159,1,0,0:0:0:0:
294,209,160219,1,8,0:0:0:0:
304,181,160278,1,0,0:0:0:0:
304,181,160338,1,0,0:0:0:0:
294,209,160398,1,8,0:0:0:0:
320,181,160457,1,0,0:0:0:0:
320,181,160517,1,0,0:0:0:0:
294,209,160576,1,8,0:0:0:0:
320,181,160636,1,0,0:0:0:0:
294,209,160695,1,8,0:0:0:0:
320,180,160755,1,0,0:0:0:0:
320,180,160814,1,0,0:0:0:0:
294,209,160874,1,8,0:0:0:0:
320,180,160933,1,0,0:0:0:0:
320,180,160993,1,0,0:0:0:0:
294,209,161052,1,8,0:0:0:0:
320,180,161112,1,0,0:0:0:0:
294,209,161171,1,8,0:0:0:0:
315,189,161231,1,0,0:0:0:0:
315,189,161290,1,0,0:0:0:0:
294,209,161350,1,8,0:0:0:0:
315,189,161409,1,0,0:0:0:0:
315,189,161469,1,0,0:0:0:0:
294,209,161528,1,8,0:0:0:0:
315,189,161588,1,0,0:0:0:0:
294,209,161648,1,8,0:0:0:0:
317,171,161707,1,0,0:0:0:0:
343,182,161767,1,8,0:0:0:0:
343,182,161826,1,8,0:0:0:0:
317,171,161886,1,0,0:0:0:0:
317,171,161945,1,0,0:0:0:0:
317,171,162005,1,0,0:0:0:0:
317,171,162064,1,0,0:0:0:0:
294,209,162124,1,8,0:0:0:0:
304,181,162183,1,0,0:0:0:0:
304,181,162243,1,0,0:0:0:0:
294,209,162302,1,8,0:0:0:0:
320,181,162362,1,0,0:0:0:0:
320,181,162421,1,0,0:0:0:0:
294,209,162481,1,8,0:0:0:0:
320,181,162540,1,0,0:0:0:0:
294,209,162600,1,8,0:0:0:0:
320,180,162659,1,0,0:0:0:0:
320,180,162719,1,0,0:0:0:0:
294,209,162778,1,8,0:0:0:0:
320,180,162838,1,0,0:0:0:0:
320,180,162898,1,0,0:0:0:0:
294,209,162957,1,8,0:0:0:0:
320,180,163017,1,0,0:0:0:0:
294,209,163076,1,8,0:0:0:0:
315,189,163136,1,0,0:0:0:0:
391,203,163195,1,8,0:0:0:0:
391,203,163255,1,8,0:0:0:0:
350,192,163314,1,0,0:0:0:0:
350,192,163374,1,0,0:0:0:0:
350,192,163433,1,0,0:0:0:0:
350,192,163493,1,0,0:0:0:0:
391,203,163552,1,8,0:0:0:0:
352,200,163790,1,8,0:0:0:0:
345,146,164028,1,4,0:0:0:0:
362,196,164267,1,8,0:0:0:0:
322,203,164386,1,0,0:0:0:0:
373,211,164505,1,8,0:0:0:0:
282,214,164564,1,0,0:0:0:0:
280,202,164624,1,0,0:0:0:0:
321,193,164683,1,0,0:0:0:0:
344,226,164743,1,8,0:0:0:0:
406,204,164862,1,8,0:0:0:0:
405,178,164981,1,0,0:0:0:0:
405,178,165040,1,0,0:0:0:0:
366,222,165100,1,0,0:0:0:0:
333,223,165219,1,8,0:0:0:0:
282,212,165338,1,0,0:0:0:0:
282,212,165398,1,0,0:0:0:0:
297,209,165457,1,8,0:0:0:0:
333,223,165576,1,8,0:0:0:0:
235,245,165695,1,0,0:0:0:0:
235,245,165814,1,0,0:0:0:0:
369,227,165933,1,8,0:0:0:0:
372,212,165993,1,0,0:0:0:0:
369,227,166052,1,8,0:0:0:0:
372,212,166171,1,0,0:0:0:0:
344,210,166290,1,8,0:0:0:0:
386,217,166409,1,0,0:0:0:0:
386,217,166469,1,0,0:0:0:0:
344,210,166528,1,8,0:0:0:0:
344,210,166588,1,8,0:0:0:0:
194,205,166648,1,0,0:0:0:0:
330,226,166767,1,0,0:0:0:0:
346,220,166886,1,8,0:0:0:0:
346,220,166945,1,8,0:0:0:0:
360,216,167005,1,0,0:0:0:0:
342,215,167124,1,8,0:0:0:0:
344,200,167243,1,0,0:0:0:0:
351,217,167302,1,0,0:0:0:0:
342,215,167362,1,8,0:0:0:0:
344,200,167421,1,0,0:0:0:0:
320,190,167481,1,8,0:0:0:0:
344,200,167540,1,0,0:0:0:0:
342,215,167600,1,8,0:0:0:0:
318,229,167659,1,8,0:0:0:0:
344,200,167719,1,0,0:0:0:0:
380,228,167838,1,8,0:0:0:0:
360,212,168076,1,0,0:0:0:0:
334,223,168195,1,8,0:0:0:0:
289,218,168433,1,0,0:0:0:0:
325,227,168552,1,8,0:0:0:0:
325,227,168671,1,8,0:0:0:0:
325,227,168731,1,8,0:0:0:0:
282,210,168790,1,0,0:0:0:0:
350,218,168909,1,0,0:0:0:0:
338,223,169028,1,8,0:0:0:0:
350,218,169088,1,0,0:0:0:0:
409,221,169148,1,8,0:0:0:0:
358,212,169386,1,0,0:0:0:0:
378,221,169505,1,8,0:0:0:0:
361,218,169743,1,0,0:0:0:0:
361,218,169862,1,0,0:0:0:0:
392,203,169981,1,8,0:0:0:0:
359,205,170100,1,0,0:0:0:0:
389,203,170219,1,8,0:0:0:0:
389,203,170278,1,8,0:0:0:0:
385,194,170338,1,0,0:0:0:0:
347,258,170398,1,0,0:0:0:0:
397,199,170457,1,8,0:0:0:0:
397,199,170517,1,8,0:0:0:0:
368,207,170576,1,0,0:0:0:0:
369,206,170616,1,0,0:0:0:0:
368,207,170655,1,0,0:0:0:0:
397,209,170695,1,8,0:0:0:0:
393,227,170814,1,0,0:0:0:0:
409,220,170933,1,8,0:0:0:0:
415,212,171052,1,0,0:0:0:0:
415,212,171171,1,0,0:0:0:0:
394,203,171290,1,8,0:0:0:0:
400,219,171409,1,0,0:0:0:0:
400,219,171469,1,0,0:0:0:0:
343,231,171528,1,8,0:0:0:0:
338,232,171648,1,0,0:0:0:0:
338,232,171767,1,0,0:0:0:0:
407,224,171886,1,8,0:0:0:0:
338,232,172005,1,0,0:0:0:0:
374,205,172124,1,8,0:0:0:0:
374,205,172243,1,8,0:0:0:0:
374,205,172362,1,8,0:0:0:0:
374,205,172421,1,8,0:0:0:0:
374,205,172481,1,8,0:0:0:0:
374,205,172540,1,8,0:0:0:0:
372,224,172600,1,0,0:0:0:0:
341,212,172719,1,8,0:0:0:0:
396,234,172838,1,0,0:0:0:0:
396,234,172898,1,0,0:0:0:0:
342,212,172957,1,8,0:0:0:0:
388,212,173076,1,0,0:0:0:0:
342,216,173195,1,8,0:0:0:0:
387,212,173314,1,0,0:0:0:0:
387,212,173374,1,0,0:0:0:0:
396,221,173433,1,8,0:0:0:0:
396,221,173493,1,8,0:0:0:0:
387,212,173552,1,0,0:0:0:0:
396,221,173671,1,8,0:0:0:0:
388,212,173790,1,0,0:0:0:0:
388,212,173850,1,0,0:0:0:0:
396,221,173909,1,8,0:0:0:0:
302,189,173969,1,8,0:0:0:0:
387,212,174028,1,0,0:0:0:0:
387,212,174088,1,0,0:0:0:0:
420,215,174148,1,8,0:0:0:0:
410,210,174207,1,0,0:0:0:0:
420,214,174267,1,8,0:0:0:0:
420,214,174326,1,8,0:0:0:0:
410,210,174386,1,0,0:0:0:0:
390,177,174445,1,8,0:0:0:0:
347,225,174505,1,0,0:0:0:0:
381,218,174624,1,8,0:0:0:0:
441,229,174743,1,0,0:0:0:0:
382,218,174802,1,8,0:0:0:0:
381,218,174862,1,8,0:0:0:0:
425,231,174981,1,0,0:0:0:0:
405,229,175100,1,8,0:0:0:0:
370,204,175159,1,8,0:0:0:0:
395,214,175219,1,0,0:0:0:0:
418,193,175278,1,0,0:0:0:0:
394,230,175338,1,8,0:0:0:0:
394,230,175398,1,8,0:0:0:0:
397,212,175457,1,0,0:0:0:0:
424,206,175576,1,8,0:0:0:0:
372,217,175695,1,0,0:0:0:0:
374,212,175755,1,0,0:0:0:0:
409,224,175814,1,8,0:0:0:0:
385,176,175874,1,8,0:0:0:0:
374,212,175933,1,0,0:0:0:0:
374,212,175993,1,0,0:0:0:0:
351,191,176052,1,8,0:0:0:0:
374,212,176112,1,0,0:0:0:0:
351,191,176171,1,8,0:0:0:0:
376,197,176231,1,0,0:0:0:0:
351,191,176290,1,8,0:0:0:0:
351,191,176350,1,8,0:0:0:0:
376,197,176409,1,0,0:0:0:0:
365,194,176528,1,8,0:0:0:0:
377,204,176648,1,0,0:0:0:0:
377,204,176707,1,0,0:0:0:0:
379,214,176767,1,8,0:0:0:0:
377,204,176886,1,0,0:0:0:0:
365,176,176945,1,0,0:0:0:0:
365,207,177005,1,8,0:0:0:0:
343,181,177064,1,0,0:0:0:0:
341,221,177124,1,8,0:0:0:0:
365,207,177183,1,8,0:0:0:0:
377,204,177243,1,0,0:0:0:0:
377,204,177302,1,0,0:0:0:0:
365,207,177362,1,8,0:0:0:0:
365,207,177481,1,8,0:0:0:0:
329,198,177600,1,0,0:0:0:0:
341,195,177659,1,8,0:0:0:0:
365,207,177719,1,8,0:0:0:0:
416,233,177838,1,0,0:0:0:0:
356,210,177957,1,8,0:0:0:0:
405,207,178076,1,8,0:0:0:0:
405,207,178136,1,8,0:0:0:0:
405,207,178195,1,8,0:0:0:0:
405,207,178255,1,8,0:0:0:0:
314,241,178314,1,0,0:0:0:0:
309,245,178433,1,0,0:0:0:0:
376,245,178552,1,8,0:0:0:0:
309,245,178671,1,0,0:0:0:0:
376,245,178790,1,8,0:0:0:0:
376,245,178850,1,8,0:0:0:0:
343,218,178909,1,0,0:0:0:0:
343,218,178969,1,0,0:0:0:0:
376,245,179028,1,8,0:0:0:0:
343,218,179148,1,0,0:0:0:0:
365,245,179267,1,8,0:0:0:0:
364,245,179505,1,8,0:0:0:0:
364,245,179624,1,8,0:0:0:0:
313,242,179743,1,0,0:0:0:0:
365,245,179862,1,8,0:0:0:0:
365,245,179921,1,8,0:0:0:0:
313,242,179981,1,0,0:0:0:0:
364,245,180100,1,8,0:0:0:0:
367,236,180219,1,0,0:0:0:0:
398,206,180457,1,8,0:0:0:0:
387,221,180576,1,0,0:0:0:0:
372,223,180695,1,8,0:0:0:0:
372,223,180755,1,8,0:0:0:0:
441,195,180814,1,0,0:0:0:0:
441,195,180874,1,0,0:0:0:0:
372,223,180933,1,8,0:0:0:0:
372,223,181052,1,8,0:0:0:0:
441,195,181171,1,0,0:0:0:0:
389,212,181409,1,0,0:0:0:0:
447,206,181528,1,8,0:0:0:0:
447,206,181588,1,8,0:0:0:0:
400,212,181648,1,0,0:0:0:0:
447,206,181767,1,8,0:0:0:0:
447,206,181826,1,8,0:0:0:0:
311,204,181886,1,0,0:0:0:0:
382,197,182005,1,0,0:0:0:0:
349,197,182124,1,8,0:0:0:0:
360,212,182362,1,0,0:0:0:0:
334,223,182481,1,8,0:0:0:0:
289,218,182719,1,0,0:0:0:0:
325,227,182838,1,8,0:0:0:0:
325,227,182957,1,8,0:0:0:0:
325,227,183017,1,8,0:0:0:0:
282,210,183076,1,0,0:0:0:0:
350,218,183195,1,0,0:0:0:0:
338,223,183314,1,8,0:0:0:0:
350,218,183374,1,0,0:0:0:0:
409,221,183433,1,8,0:0:0:0:
358,212,183671,1,0,0:0:0:0:
378,221,183790,1,8,0:0:0:0:
350,232,184028,1,0,0:0:0:0:
350,232,184267,1,0,0:0:0:0:
350,232,184505,1,0,0:0:0:0:
344,221,184624,1,0,0:0:0:0:
356,222,184743,1,8,0:0:0:0:
344,211,184862,1,0,0:0:0:0:
344,210,184902,1,0,0:0:0:0:
344,210,184941,1,0,0:0:0:0:
365,181,184981,1,8,0:0:0:0:
