osu file format v14

[General]
AudioFilename: audio.mp3
AudioLeadIn: 0
PreviewTime: 118874
Countdown: 0
SampleSet: Soft
StackLeniency: 0.4
Mode: 0
LetterboxInBreaks: 0
WidescreenStoryboard: 1

[Editor]
Bookmarks: 4362,21817,39271,47999,64362,81817,99272,118908,136089,153544,170998,180817,197180
DistanceSpacing: 1.1
BeatDivisor: 4
GridSize: 8
TimelineZoom: 4.659998

[Metadata]
Title:Kyu-kurarin
TitleUnicode:きゅうくらりん
Artist:Iyowa feat. KAFU
ArtistUnicode:いよわ feat. 可不
Creator:0ugi
Version:0pp's Tecxpert
Source:
Tags:himada tsukinyuni kyuuchie [[pause]] SHOGUNMOON00999 seros 0ppinosu kaf 花譜 かふ CeVIO AI KAMITSUBAKI STUDIO 神椿スタジオ artificial singing synthesizer kaf-u vocaloid female vocalist japanese pop jpop j-pop
BeatmapID:3405314
BeatmapSetID:1591460

[Difficulty]
HPDrainRate:5.5
CircleSize:3.8
OverallDifficulty:9.2
ApproachRate:9.3
SliderMultiplier:1.11
SliderTickRate:1

[Events]
//Background and Video events
0,0,"6.jpg",0,0
//Break Periods
//Storyboard Layer 0 (Background)
//Storyboard Layer 1 (Fail)
//Storyboard Layer 2 (Pass)
//Storyboard Layer 3 (Foreground)
Sprite,Foreground,Centre,"sb\c\_000.png",0,0 M,0,4363,,600,220 F,0,4363,8727,1 S,0,4363,8727,0.4
Sprite,Foreground,Centre,"sb\c\_001.png",0,0 M,0,8727,,600,220 F,0,8727,13090,1 S,0,8727,13090,0.4
Sprite,Foreground,Centre,"sb\c\_002.png",0,0 M,0,13090,,600,220 F,0,13090,17454,1 S,0,13090,17454,0.4
Sprite,Foreground,Centre,"sb\c\_008.png",0,0 M,0,4363,,600,260 F,0,4363,8727,1 S,0,4363,8727,0.4 M,0,8727,,600,260 F,0,8727,13090,1 S,0,8727,13090,0.4
Sprite,Foreground,Centre,"sb\c\_009.png",0,0 M,0,13090,,600,260 F,0,13090,17454,1 S,0,13090,17454,0.4
Sprite,Foreground,Centre,"sb\c\_00a.png",0,0 M,0,17454,,600,240 F,0,17454,21817,1 S,0,17454,21817,0.4
//Storyboard Layer 4 (Overlay)
//Storyboard Sound Samples

[TimingPoints]
2181,272.727272727273,4,2,2,70,1,0
2181,-111.111111111111,4,2,2,70,0,0
3271,-32.258064516129,4,2,2,70,0,0
4362,-40,4,2,2,70,0,0
5181,-333.333333333333,4,2,2,70,0,0
5453,-40,4,2,2,70,0,0
6271,-333.333333333333,4,2,2,70,0,0
6544,-40,4,2,2,70,0,0
7362,-333.333333333333,4,2,2,70,0,0
7635,-40,4,2,2,70,0,0
8453,-333.333333333333,4,2,2,70,0,0
8726,-40,4,2,2,70,0,0
9544,-333.333333333333,4,2,2,70,0,0
9817,-40,4,2,2,70,0,0
10635,-333.333333333333,4,2,2,70,0,0
10908,-40,4,2,2,70,0,0
11726,-333.333333333333,4,2,2,70,0,0
11999,-40,4,2,2,70,0,0
12544,-111.111111111111,4,2,2,70,0,0
13090,-40,4,2,2,70,0,0
13908,-333.333333333333,4,2,2,70,0,0
14181,-40,4,2,2,70,0,0
14999,-333.333333333333,4,2,2,70,0,0
15271,-40,4,2,2,70,0,0
16090,-333.333333333333,4,2,2,70,0,0
16362,-40,4,2,2,70,0,0
17181,-333.333333333333,4,2,2,70,0,0
17453,-40,4,2,2,70,0,0
18271,-333.333333333333,4,2,2,70,0,0
18544,-40,4,2,2,70,0,0
19362,-333.333333333333,4,2,2,70,0,0
19635,-40,4,2,2,70,0,0
20453,-333.333333333333,4,2,2,70,0,0
20726,-40,4,2,2,70,0,0
21271,-111.111111111111,4,2,2,70,0,0
22090,-47.6190476190476,4,2,2,70,0,0
39271,-100,4,2,2,65,0,0
47999,-28.5714285714287,4,2,2,70,0,1
48544,-83.333333333334,4,2,2,70,0,0
49090,-28.5714285714286,4,2,2,70,0,0
50181,-32.258064516129,4,2,2,75,0,1
50453,-28.5714285714286,4,2,2,75,0,1
52090,-333.333333333333,4,2,2,75,0,1
52362,-28.5714285714286,4,2,2,75,0,1
54271,-333.333333333333,4,2,2,75,0,1
54544,-28.5714285714286,4,2,2,75,0,1
55635,-28.5714285714286,4,2,2,75,0,0
56181,-83.333333333334,4,2,2,75,0,0
56726,-28.5714285714286,4,2,2,75,0,1
58635,-333.333333333333,4,2,2,75,0,1
58908,-28.5714285714286,4,2,2,75,0,1
60817,-333.333333333333,4,2,2,75,0,0
61090,-28.5714285714286,4,2,2,75,0,1
61908,-333.333333333333,4,2,2,75,0,0
62590,-28.5714285714286,4,2,2,75,0,1
62999,-333.333333333333,4,2,2,75,0,0
63271,-333.333333333333,4,2,2,50,0,0
64362,-333.333333333333,4,2,2,70,0,0
64635,-40,4,2,2,70,0,0
65181,-333.333333333333,4,2,2,70,0,0
65453,-40,4,2,2,70,0,0
66271,-333.333333333333,4,2,2,70,0,0
66544,-40,4,2,2,70,0,0
67362,-333.333333333333,4,2,2,70,0,0
67635,-40,4,2,2,70,0,0
68453,-333.333333333333,4,2,2,70,0,0
68726,-40,4,2,2,70,0,0
69544,-333.333333333333,4,2,2,70,0,0
69817,-40,4,2,2,70,0,0
70635,-333.333333333333,4,2,2,70,0,0
70908,-40,4,2,2,70,0,0
71726,-333.333333333333,4,2,2,70,0,0
71999,-40,4,2,2,70,0,0
72544,-111.111111111111,4,2,2,70,0,0
73362,-40,4,2,2,70,0,0
73908,-333.333333333333,4,2,2,70,0,0
74181,-40,4,2,2,70,0,0
74999,-333.333333333333,4,2,2,70,0,0
75271,-40,4,2,2,70,0,0
76090,-333.333333333333,4,2,2,70,0,0
76362,-40,4,2,2,70,0,0
77181,-333.333333333333,4,2,2,70,0,0
77453,-40,4,2,2,70,0,0
78271,-333.333333333333,4,2,2,70,0,0
78544,-40,4,2,2,70,0,0
79362,-333.333333333333,4,2,2,70,0,0
79635,-40,4,2,2,70,0,0
80453,-333.333333333333,4,2,2,70,0,0
80726,-40,4,2,2,70,0,0
81271,-111.111111111111,4,2,2,70,0,0
81817,264.31718061674,4,2,2,55,1,0
81817,-1000,4,2,2,55,0,0
82345,267.260579064588,4,2,2,55,1,0
82612,-1000,4,2,2,55,0,0
83681,275.229357798165,4,2,2,55,1,0
83956,267.260579064588,4,2,2,55,1,0
83956,-1000,4,2,2,55,0,0
88232,265.486725663717,4,2,2,55,1,0
88232,-1000,4,2,2,55,0,0
88762,267.260579064588,4,2,2,55,1,0
88762,-1000,4,2,2,55,0,0
91701,263.157894736842,4,2,2,55,1,0
91964,267.260579064588,4,2,2,55,1,0
92231,277.777777777778,4,2,2,55,1,0
92508,267.260579064588,4,2,2,55,1,0
92508,-1000,4,2,2,55,0,0
95180,272.727272727273,4,2,2,55,1,0
95452,265.486725663717,4,2,2,55,1,0
95452,-1000,4,2,2,55,0,0
95982,267.260579064588,4,2,2,55,1,0
96783,270.27027027027,4,2,2,55,1,0
96783,-1000,4,2,2,55,0,0
97593,267.260579064588,4,2,2,55,1,0
97593,-1000,4,2,2,55,0,0
98127,-111.111111111111,4,2,2,55,0,0
98261,-66.6666666666667,4,2,2,55,0,0
98394,-42.0168067226891,4,2,2,55,0,0
98996,275.862068965517,4,2,2,60,1,0
99272,272.727272727273,4,2,2,70,1,0
99272,-47.6190476190476,4,2,2,70,0,0
118908,-28.5714285714287,4,2,2,70,0,1
119453,-83.333333333334,4,2,2,70,0,0
119999,-28.5714285714286,4,2,2,70,0,0
120544,-100,4,2,2,70,0,0
120817,272.727272727273,4,2,2,75,1,1
120817,-28.5714285714286,4,2,2,75,0,1
122726,-333.333333333333,4,2,2,75,0,1
122998,-28.5714285714286,4,2,2,75,0,1
124907,-333.333333333333,4,2,2,75,0,1
125180,-28.5714285714286,4,2,2,75,0,1
126271,-28.5714285714286,4,2,2,75,0,0
126817,-83.333333333334,4,2,2,75,0,0
127362,-28.5714285714286,4,2,2,75,0,1
129271,-333.333333333333,4,2,2,75,0,1
129544,-28.5714285714286,4,2,2,75,0,1
131453,-333.333333333333,4,2,2,75,0,0
131726,-28.5714285714286,4,2,2,75,0,1
132544,-333.333333333333,4,2,2,75,0,0
132817,-28.5714285714286,4,2,2,75,0,1
133635,-333.333333333333,4,2,2,75,0,0
133907,-28.5714285714286,4,2,2,75,0,1
135817,-28.5714285714286,4,2,2,75,0,0
136089,-52.6315789473684,4,2,2,65,0,0
144271,-333.333333333333,4,2,2,65,0,0
144817,-52.6315789473684,4,2,2,65,0,0
153544,-32.258064516129,4,2,2,50,0,0
154021,-32.258064516129,4,2,2,5,0,0
154089,-83.3333333333333,4,2,2,50,0,0
154566,-83.3333333333333,4,2,2,5,0,0
154635,-47.6190476190476,4,2,2,50,0,0
154703,-47.6190476190476,4,2,2,5,0,0
154907,-47.6190476190476,4,2,2,50,0,0
154975,-47.6190476190476,4,2,2,5,0,0
155180,259.74025974026,4,2,2,50,1,0
155180,-47.6190476190476,4,2,2,50,0,0
155244,-47.6190476190476,4,2,2,5,0,0
155439,-47.6190476190476,4,2,2,50,0,0
155503,-47.6190476190476,4,2,2,5,0,0
155699,266.666666666667,4,2,2,50,1,0
155699,-111.111111111111,4,2,2,50,0,0
156165,-111.111111111111,4,2,2,5,0,0
156232,285.714285714286,4,2,2,50,1,0
156803,283.018867924528,4,2,2,50,1,0
156803,-55.5555555555556,4,2,2,50,0,0
157369,258.620689655172,4,2,2,50,1,0
157886,285.714285714286,4,2,2,50,1,0
157886,-111.111111111111,4,2,2,50,0,0
158386,-111.111111111111,4,2,2,5,0,0
158457,272.727272727273,4,2,2,50,1,0
158457,-55.5555555555556,4,2,2,50,0,0
158934,-55.5555555555556,4,2,2,5,0,0
159002,260.869565217391,4,2,2,50,1,0
159002,-35.7142857142857,4,2,2,50,0,0
159784,-35.7142857142857,4,2,2,5,0,0
160045,281.69014084507,4,2,2,50,1,0
160045,-83.3333333333333,4,2,2,50,0,0
160537,-83.3333333333333,4,2,2,5,0,0
160608,260.869565217391,4,2,2,50,1,0
161129,284.36018957346,4,2,2,50,1,0
161129,-47.6190476190476,4,2,2,50,0,0
161200,-47.6190476190476,4,2,2,5,0,0
161413,-47.6190476190476,4,2,2,50,0,0
161484,-47.6190476190476,4,2,2,5,0,0
161697,-47.6190476190476,4,2,2,50,0,0
161768,-47.6190476190476,4,2,2,5,0,0
161982,-47.6190476190476,4,2,2,50,0,0
162053,-47.6190476190476,4,2,2,5,0,0
162266,273.972602739726,4,2,2,55,1,0
162266,-47.6190476190476,4,2,2,55,0,0
162608,-47.6190476190476,4,2,2,5,0,0
162676,-47.6190476190476,4,2,2,55,0,0
163018,-47.6190476190476,4,2,2,5,0,0
163087,-47.6190476190476,4,2,2,55,0,0
163292,-47.6190476190476,4,2,2,5,0,0
163361,270.27027027027,4,2,2,55,1,0
163361,-47.6190476190476,4,2,2,55,0,0
163833,-47.6190476190476,4,2,2,5,0,0
163901,244.897959183673,4,2,2,55,1,0
164145,269.058295964126,4,2,2,55,1,0
164414,300,4,2,2,55,1,0
164414,-47.6190476190476,4,2,2,55,0,0
164789,-47.6190476190476,4,2,2,5,0,0
164864,272.727272727273,4,2,2,55,1,0
164864,-47.6190476190476,4,2,2,55,0,0
165204,-47.6190476190476,4,2,2,5,0,0
165273,-47.6190476190476,4,2,2,55,0,0
165477,-47.6190476190476,4,2,2,5,0,0
165545,-41.6666666666667,4,2,2,55,0,0
166023,285.714285714286,4,2,2,55,1,0
166594,275.229357798165,4,2,2,55,1,0
166594,-66.6666666666667,4,2,2,55,0,0
166938,-66.6666666666667,4,2,2,5,0,0
167006,-166.666666666667,4,2,2,55,0,0
167350,-166.666666666667,4,2,2,5,0,0
167419,-166.666666666667,4,2,2,55,0,0
167694,-62.5,4,2,2,55,0,0
168038,-55.5555555555556,4,2,2,5,0,0
168107,-111.111111111111,4,2,2,55,0,0
168451,-111.111111111111,4,2,2,5,0,0
168520,-133.333333333333,4,2,2,55,0,0
168726,-133.333333333333,4,2,2,5,0,0
168795,-133.333333333333,4,2,2,55,0,0
170997,272.727272727273,4,2,2,65,1,0
180815,-24.390243902439,4,2,2,70,0,1
181360,-83.333333333334,4,2,2,70,0,0
181906,-28.5714285714286,4,2,2,70,0,0
182997,-28.5714285714286,4,2,2,75,0,1
184906,-333.333333333333,4,2,2,75,0,1
185178,-28.5714285714286,4,2,2,75,0,1
187087,-333.333333333333,4,2,2,75,0,1
187360,-28.5714285714286,4,2,2,75,0,1
188451,-28.5714285714286,4,2,2,75,0,0
188997,-83.333333333334,4,2,2,75,0,0
189542,-28.5714285714286,4,2,2,75,0,1
191451,-333.333333333333,4,2,2,75,0,1
191724,-28.5714285714286,4,2,2,75,0,1
193633,-333.333333333333,4,2,2,75,0,0
193906,-28.5714285714286,4,2,2,75,0,1
194724,-333.333333333333,4,2,2,75,0,0
194997,-333.333333333333,4,2,2,75,0,1
195406,-28.5714285714286,4,2,2,75,0,1
195815,-333.333333333333,4,2,2,75,0,0
196906,-83.3333333333333,4,2,2,75,0,0
197178,-83.3333333333333,4,2,2,75,0,1
197451,-28.5714285714286,4,2,2,75,0,1
197997,-28.5714285714286,4,2,2,75,0,0
198269,-28.5714285714286,4,2,2,75,0,1
199087,-28.5714285714286,4,2,2,75,0,0
199360,-28.5714285714286,4,2,2,75,0,1
200178,-28.5714285714286,4,2,2,75,0,0
200451,-28.5714285714286,4,2,2,75,0,1
201269,-28.5714285714286,4,2,2,75,0,0
201542,-28.5714285714286,4,2,2,75,0,1
202360,-28.5714285714286,4,2,2,75,0,0
202633,-28.5714285714286,4,2,2,75,0,1
203451,-28.5714285714286,4,2,2,75,0,0
203724,-28.5714285714286,4,2,2,75,0,1
204542,-28.5714285714286,4,2,2,75,0,0
204815,-28.5714285714286,4,2,2,75,0,1
205633,-28.5714285714286,4,2,2,75,0,0
205906,-28.5714285714286,4,2,2,75,0,1
207815,-333.333333333333,4,2,2,75,0,0
208087,-28.5714285714286,4,2,2,75,0,1
209997,-333.333333333333,4,2,2,75,0,0
210269,-28.5714285714286,4,2,2,75,0,1
211087,-333.333333333333,4,2,2,75,0,0
211769,-28.5714285714286,4,2,2,75,0,1
212178,-35.7142857142857,4,2,2,75,0,0
212451,-35.7142857142857,4,2,2,50,0,1
212519,-35.7142857142857,4,2,2,50,0,0
212997,-55.5555555555556,4,2,2,50,0,0

[Colours]
Combo1 : 247,198,231
Combo2 : 171,250,234

[HitObjects]
165,384,2181,6,0,L|175:338,1,24.975,0|0,3:0|3:0,2:0:0:0:
249,364,2317,2,0,L|259:318,1,24.975,0|0,3:0|3:0,2:0:0:0:
333,344,2453,2,0,L|343:298,1,24.975,0|0,3:0|3:0,2:0:0:0:
417,324,2590,2,0,L|427:278,1,24.975,0|0,3:0|3:0,2:0:0:0:
500,300,2726,5,0,1:0:0:0:
430,165,2862,1,0,3:0:0:0:
312,244,2999,1,0,1:2:0:0:
486,220,3135,5,0,3:0:0:0:
496,212,3203,1,0,3:0:0:0:
497,200,3271,2,0,P|479:162|411:164,1,86.0250000000001,0|0,1:0|3:0,2:0:0:0:
419,50,3408,2,0,P|381:68|383:136,1,86.0250000000001,0|0,1:0|3:0,2:0:0:0:
241,98,3544,2,0,P|259:136|327:134,1,86.0250000000001,0|0,1:0|3:0,2:0:0:0:
411,259,3681,6,0,P|371:238|322:226,1,86.0250000000001,0|0,1:0|2:0,2:0:0:0:
162,201,3817,1,2,2:0:0:0:
162,201,4090,1,8,2:3:0:0:
228,250,4362,6,0,B|188:285|193:346|193:346|172:287|120:270,1,208.125,4|0,3:2|2:0,2:0:0:0:
48,287,4635,6,0,P|59:320|105:344,1,69.375,8|0,2:0|2:0,2:0:0:0:
302,330,4771,2,0,P|395:345|435:392,2,138.75,2|0|0,2:1|3:2|3:0,2:0:0:0:
168,357,5112,1,0,3:0:0:0:
161,360,5181,6,0,L|154:387,1,24.975,8|0,2:0|2:0,2:0:0:0:
242,380,5453,2,0,B|291:366|297:322|289:315|273:306|312:225|389:250,1,208.125,0|0,3:0|2:0,2:0:0:0:
381,258,5726,5,8,2:0:0:0:
502,295,5862,1,2,2:1:0:0:
407,179,5999,2,0,P|397:146|384:101,1,69.375,0|0,3:2|2:0,2:0:0:0:
502,46,6135,2,0,P|497:75|445:95,1,69.375,0|0,2:0|2:0,2:0:0:0:
286,85,6271,6,0,P|297:88|309:92,1,24.975,8|0,2:0|2:0,2:0:0:0:
387,112,6544,2,0,P|286:137|241:227,1,208.125,0|0,3:0|2:0,2:0:0:0:
245,245,6817,1,8,2:0:0:0:
149,296,6953,6,0,P|76:233|163:274,1,277.5,2|0,2:1|3:0,2:0:0:0:
226,323,7294,1,0,3:0:0:0:
234,328,7362,6,0,L|240:358,1,24.975,8|0,2:0|2:0,2:0:0:0:
488,373,7635,2,0,P|411:305|310:299,1,208.125,2|0,3:1|3:0,2:0:0:0:
313,311,7908,5,8,2:0:0:0:
14,362,8044,2,0,P|109:264|244:244,1,277.5,2|0,3:1|3:0,2:0:0:0:
322,218,8385,1,0,3:0:0:0:
331,212,8453,6,0,L|336:188,1,24.975,8|0,2:0|2:0,2:0:0:0:
418,53,8726,2,0,B|397:144|281:56|254:157,1,208.125,2|0,3:1|2:0,2:0:0:0:
256,152,8999,1,8,2:0:0:0:
284,4,9135,2,0,P|333:9|352:61,1,69.375,0|0,2:1|2:0,2:0:0:0:
413,171,9271,5,0,3:0:0:0:
243,243,9408,1,0,3:0:0:0:
73,315,9544,2,0,L|46:328,1,24.975,8|0,2:0|2:0,2:0:0:0:
86,207,9817,6,0,P|183:237|232:325,1,208.125,2|0,3:1|2:0,2:0:0:0:
178,384,10090,2,0,P|151:353|153:319,1,69.375,8|0,2:0|2:0,2:0:0:0:
326,207,10226,2,0,P|341:274|312:336,2,138.75,0|2|0,2:0|3:1|3:0,2:0:0:0:
352,133,10635,6,0,L|359:103,1,24.975,8|0,2:0|2:0,2:0:0:0:
278,108,10908,2,0,B|279:201|411:139|416:243,1,208.125,2|0,3:1|2:0,2:0:0:0:
416,239,11181,1,8,2:0:0:0:
150,326,11317,2,0,P|139:292|153:262,1,69.375,2|0,2:1|2:0,2:0:0:0:
99,171,11453,5,0,3:0:0:0:
269,243,11590,1,0,3:0:0:0:
439,315,11726,2,0,L|468:327,1,24.975,8|0,2:0|2:0,2:0:0:0:
359,318,11999,6,0,P|324:320|292:334,2,69.375,0|0|2,3:0|2:0|2:3,2:0:0:0:
430,120,12271,2,0,P|406:94|392:63,2,69.375,0|0|2,3:2|2:0|2:3,2:0:0:0:
362,194,12544,6,0,L|354:240,1,24.975,0|0,3:0|3:0,2:0:0:0:
279,218,12681,2,0,L|271:264,1,24.975,0|0,3:0|3:0,2:0:0:0:
196,242,12817,2,0,L|188:288,1,24.975,0|0,3:0|3:0,2:0:0:0:
113,267,12953,2,0,L|105:313,1,24.975,0|0,3:0|3:0,2:0:0:0:
85,194,13090,6,0,B|131:184|158:127|158:127|146:188|182:227,1,208.125,4|0,3:2|2:0,2:0:0:0:
37,261,13362,6,0,P|11:237|4:204,1,69.375,8|0,2:0|2:0,2:0:0:0:
238,327,13499,2,0,P|317:359|397:393,2,138.75,2|0|0,2:1|3:0|3:0,2:0:0:0:
163,351,13840,1,0,3:0:0:0:
163,351,13908,6,0,L|154:376,1,24.975,8|0,2:0|2:0,2:0:0:0:
323,315,14181,2,0,P|404:260|387:162,1,208.125,0|0,2:0|2:0,2:0:0:0:
396,156,14453,5,8,2:0:0:0:
431,272,14590,1,2,2:1:0:0:
317,130,14726,2,0,P|307:163|327:206,1,69.375,0|0,3:2|2:0,2:0:0:0:
446,91,14862,2,0,P|456:56|467:10,1,69.375,2|0,2:0|2:0,2:0:0:0:
369,72,14999,6,0,L|362:49,1,24.975,8|0,2:0|2:0,2:0:0:0:
396,156,15271,2,0,B|434:259|251:194|296:302,1,208.125,0|0,3:0|2:0,2:0:0:0:
307,302,15544,1,8,2:0:0:0:
477,369,15681,6,0,P|337:327|196:285,1,277.5,0|0,2:0|2:0,2:0:0:0:
222,214,16021,1,0,3:0:0:0:
230,210,16090,6,0,L|238:180,1,24.975,8|0,2:0|2:0,2:0:0:0:
182,361,16362,2,0,P|87:377|20:264,1,208.125,0|0,2:0|2:0,2:0:0:0:
30,290,16635,5,8,2:0:0:0:
312,352,16771,2,0,P|422:370|500:239,1,277.5,0|0,2:0|2:0,2:0:0:0:
428,224,17112,1,0,3:0:0:0:
419,231,17181,6,0,L|412:255,1,24.975,8|0,2:0|2:0,2:0:0:0:
367,149,17453,2,0,P|377:52|471:24,1,208.125,2|0,3:1|2:0,2:0:0:0:
463,34,17726,1,8,2:0:0:0:
344,225,17862,2,0,P|310:227|282:208,1,69.375,2|0,2:1|2:0,2:0:0:0:
93,246,17999,5,0,3:0:0:0:
270,296,18135,1,0,3:0:0:0:
442,340,18271,2,0,L|467:346,1,24.975,8|0,2:0|2:0,2:0:0:0:
367,368,18544,6,0,P|270:340|221:251,1,208.125,2|0,3:1|2:0,2:0:0:0:
149,223,18817,2,0,P|165:193|196:178,1,69.375,8|0,2:0|2:0,2:0:0:0:
359,162,18953,2,0,P|334:226|350:293,2,138.75,0|2|0,2:1|3:1|3:0,2:0:0:0:
419,100,19362,6,0,L|443:92,1,24.975,8|0,2:0|2:0,2:0:0:0:
372,160,19635,2,0,P|362:62|268:34,1,208.125,2|0,3:1|2:0,2:0:0:0:
268,33,19908,5,8,2:0:0:0:
273,168,20044,2,0,P|289:197|320:212,1,69.375,2|0,2:1|2:0,2:0:0:0:
418,246,20181,5,0,3:0:0:0:
256,290,20317,1,0,3:0:0:0:
93,333,20453,2,0,L|68:339,1,24.975,8|0,2:0|2:0,2:0:0:0:
153,384,20726,6,0,P|180:364|182:295,2,69.375,0|0|0,2:0|2:0|2:0,2:0:0:0:
379,355,20999,2,0,P|368:323|303:299,2,69.375,0|0|0,2:0|2:0|2:0,2:0:0:0:
501,270,21271,6,0,L|493:224,1,24.975,0|0,3:0|3:0,2:0:0:0:
418,246,21408,2,0,L|410:200,1,24.975,0|0,3:0|3:0,2:0:0:0:
335,222,21544,2,0,L|327:176,1,24.975,0|0,3:0|3:0,2:0:0:0:
252,197,21681,2,0,L|244:151,1,24.975,0|0,3:0|3:0,2:0:0:0:
172,179,21817,5,6,2:0:0:0:
172,179,22090,6,0,P|163:237|250:245,1,116.55,10|0,2:0|2:1,2:0:0:0:
309,125,22362,2,0,P|372:68|462:81,1,174.825,2|0,2:0|2:0,2:0:0:0:
465,87,22635,1,10,2:0:0:0:
439,326,22908,6,0,P|404:248|323:223,1,174.825,2|0,3:2|2:0,2:0:0:0:
312,232,23181,1,10,2:0:0:0:
139,244,23317,2,0,B|210:210|251:279|246:281|243:284|275:349|353:319,1,233.1,0|0,2:1|2:0,2:0:0:0:
346,331,23658,1,0,3:0:0:0:
346,330,23726,2,0,P|289:339|243:383,1,116.55,8|0,2:0|2:0,2:0:0:0:
312,232,23999,6,0,P|354:157|327:77,1,174.825,2|0,3:2|2:0,2:0:0:0:
406,53,24271,2,0,P|479:72|475:134,1,116.55,10|0,2:0|2:1,2:0:0:0:
317,154,24544,2,0,P|261:170|206:189,1,116.55,2|0,3:2|3:0,2:0:0:0:
413,228,24817,2,0,P|418:315|348:333,1,174.825,10|0,2:0|2:0,2:0:0:0:
337,323,25090,6,0,P|264:342|268:404,1,116.55,0|0,3:1|2:0,2:0:0:0:
113,361,25362,1,10,2:0:0:0:
182,328,25499,2,0,P|114:239|4:253,1,233.1,2|2,2:0|2:0,2:0:0:0:
0,384,25908,2,0,P|55:364|111:348,1,116.55,8|0,2:0|3:0,2:0:0:0:
481,358,26181,6,0,P|365:318|248:284,1,233.1,2|8,3:2|2:0,2:0:0:0:
499,225,26590,1,2,2:0:0:0:
499,225,26726,2,0,P|429:250|384:236,1,116.55,2|0,2:0|2:0,2:0:0:0:
317,154,26999,1,8,2:0:0:0:
317,154,27271,6,0,P|359:222|333:325,1,174.825,0|0,3:0|2:0,2:0:0:0:
347,323,27544,2,0,P|278:352|205:384,1,116.55,10|2,2:0|2:0,2:0:0:0:
416,156,27817,2,0,P|459:83|442:0,1,174.825,2|0,2:0|2:0,2:0:0:0:
434,5,28090,1,8,2:0:0:0:
317,154,28362,6,0,P|359:222|333:325,1,174.825,2|0,3:2|2:0,2:0:0:0:
422,330,28635,2,0,P|488:337|514:289,1,116.55,8|2,2:0|2:0,2:0:0:0:
263,309,28908,2,0,L|246:370,1,58.275,2|0,3:2|2:0,2:0:0:0:
178,321,29044,2,0,L|161:382,1,58.275,0|0,3:0|2:0,2:0:0:0:
83,362,29181,1,8,2:0:0:0:
0,323,29317,1,0,2:0:0:0:
21,233,29453,6,0,P|141:282|174:350,1,174.825,0|0,3:2|2:0,2:0:0:0:
416,305,29726,2,0,P|286:314|234:368,1,174.825,0|0,3:2|2:0,2:0:0:0:
226,262,29999,1,0,3:0:0:0:
227,257,30067,1,0,3:0:0:0:
228,253,30135,1,0,3:0:0:0:
229,249,30203,1,0,3:0:0:0:
230,245,30271,1,0,3:0:0:0:
231,241,30340,1,0,3:0:0:0:
232,237,30408,1,0,3:0:0:0:
233,233,30476,1,0,3:0:0:0:
240,203,30544,5,4,3:2:0:0:
240,203,30817,6,0,P|285:256|352:246,1,116.55,2|0,2:0|2:0,2:0:0:0:
419,49,31090,2,0,P|397:131|314:169,1,174.825,2|0,2:0|2:0,2:0:0:0:
314,154,31362,1,10,2:0:0:0:
511,289,31635,6,0,P|397:316|287:353,1,233.1,2|10,3:2|2:0,2:0:0:0:
192,268,32044,2,0,P|148:335|173:259,1,233.1,2|0,2:0|2:0,3:0:0:0:
194,249,32385,1,0,3:0:0:0:
194,249,32453,1,8,2:0:0:0:
285,277,32590,1,0,3:0:0:0:
53,209,32726,6,0,P|84:286|47:363,1,174.825,2|0,3:2|2:0,2:0:0:0:
35,365,32999,1,8,2:0:0:0:
0,293,33135,1,0,2:0:0:0:
153,356,33271,2,0,P|204:380|261:355,1,116.55,2|2,3:2|3:2,2:0:0:0:
366,208,33544,2,0,P|351:280|330:388,1,174.825,10|0,2:0|2:0,2:0:0:0:
346,384,33817,6,0,P|379:334|451:334,1,116.55,0|0,3:1|2:0,2:0:0:0:
213,227,34090,1,10,2:0:0:0:
274,275,34226,2,0,P|206:186|96:200,1,233.1,2|2,2:0|2:0,2:0:0:0:
28,241,34635,2,0,P|81:284|137:268,1,116.55,8|0,2:0|3:0,2:0:0:0:
320,136,34908,6,0,P|344:238|379:385,1,233.1,2|8,3:2|2:0,2:0:0:0:
469,257,35317,1,2,2:0:0:0:
469,257,35453,2,0,P|416:214|360:230,1,116.55,2|0,2:0|3:0,2:0:0:0:
327,0,35726,1,8,2:0:0:0:
327,0,35999,6,0,P|399:40|395:157,1,174.825,0|0,3:0|2:0,2:0:0:0:
401,134,36271,2,0,P|344:119|287:105,1,116.55,10|2,2:0|2:0,2:0:0:0:
296,295,36544,6,0,P|283:211|210:169,1,174.825,2|0,2:0|2:0,2:0:0:0:
200,179,36817,1,8,2:0:0:0:
327,0,37090,6,0,P|399:40|395:157,1,174.825,2|0,3:2|2:0,2:0:0:0:
401,134,37362,1,8,2:0:0:0:
314,111,37499,1,2,2:0:0:0:
470,250,37635,2,0,L|453:311,1,58.275,2|0,3:2|2:0,2:0:0:0:
385,262,37771,2,0,L|368:323,1,58.275,0|0,3:0|2:0,2:0:0:0:
296,295,37908,1,8,2:0:0:0:
159,322,38044,1,2,2:0:0:0:
46,351,38181,6,0,P|144:267|155:192,1,174.825,0|0,3:2|2:0,2:0:0:0:
303,384,38453,2,0,P|233:273|246:199,1,174.825,0|0,3:2|2:0,2:0:0:0:
71,219,38726,1,0,3:0:0:0:
87,293,38862,1,0,3:0:0:0:
158,321,38999,1,8,3:2:0:0:
31,199,39271,6,0,L|2:120,1,83.25,0|0,3:0|2:0,2:0:0:0:
62,67,39544,2,0,L|69:38,2,27.75,10|2|2,2:0|2:0|2:0,2:0:0:0:
13,272,39817,5,0,2:0:0:0:
109,153,39953,1,2,3:2:0:0:
109,153,40021,1,2,2:0:0:0:
109,153,40090,1,10,2:0:0:0:
91,356,40226,5,0,2:0:0:0:
22,281,40362,1,2,3:2:0:0:
357,190,40635,1,10,2:0:0:0:
467,111,40771,1,2,3:2:0:0:
392,121,40908,1,2,3:2:0:0:
82,370,41181,1,10,2:0:0:0:
29,310,41453,6,0,L|12:256,1,55.5,2|0,3:2|2:0,2:0:0:0:
101,236,41726,2,0,L|84:182,1,55.5,10|2,2:0|2:0,2:0:0:0:
20,2,41999,1,2,2:0:0:0:
0,81,42135,1,2,3:2:0:0:
78,103,42271,2,0,L|86:72,2,27.75,10|2|2,2:0|2:0|2:0,2:0:0:0:
101,236,42544,6,0,P|77:286|29:310,1,111,2|10,3:1|2:0,2:0:0:0:
418,267,43090,2,0,P|455:306|509:314,1,111,2|10,2:1|2:0,2:0:0:0:
509,313,43635,6,0,L|502:343,2,27.75,2|2|2,3:2|2:0|2:0,2:0:0:0:
380,190,43908,1,2,2:0:0:0:
396,117,44044,1,2,3:2:0:0:
412,44,44181,6,0,L|464:26,1,55.5,0|2,2:0|3:2,2:0:0:0:
369,192,44453,1,8,2:0:0:0:
110,114,44726,6,0,P|71:124|49:159,1,83.25,2|0,2:0|2:0,2:0:0:0:
58,169,44999,1,2,2:0:0:0:
104,233,45135,2,0,L|51:251,1,55.5,2|2,3:2|3:2,2:0:0:0:
42,45,45408,2,0,L|95:27,2,55.5,2|10|2,3:2|2:0|2:0,2:0:0:0:
0,112,45817,5,2,3:2:0:0:
0,112,45885,1,2,2:0:0:0:
0,112,45953,1,2,2:0:0:0:
104,233,46090,2,0,L|93:289,1,55.5,8|0,2:0|2:0,2:0:0:0:
73,379,46362,1,0,2:0:0:0:
16,324,46499,1,0,3:0:0:0:
58,169,46635,1,10,2:0:0:0:
58,169,46771,1,2,2:0:0:0:
380,167,47999,6,0,B|368:-1|151:-19|-15:40|163:-15|306:-67|537:33|447:124,1,679.874999999997,6|0,2:1|2:0,2:0:0:0:
443,217,48544,6,0,L|430:247,1,33.2999999999997,10|0,2:0|2:0,2:0:0:0:
352,240,48681,2,0,L|339:270,1,33.2999999999997,2|0,2:0|2:0,2:0:0:0:
261,271,48817,2,0,L|248:301,1,33.2999999999997,2|0,2:3|2:0,2:0:0:0:
170,305,48953,2,0,L|157:335,1,33.2999999999997,2|0,2:0|2:0,2:0:0:0:
22,323,49090,6,0,P|47:284|94:284,1,97.1249999999999,2|0,3:1|2:0,2:0:0:0:
316,345,49362,2,0,P|344:383|390:380,1,97.1249999999999,2|0,3:1|2:0,2:0:0:0:
247,301,49635,6,0,P|221:262|174:262,1,97.1249999999999,2|0,3:1|2:0,2:0:0:0:
94,284,49908,2,0,P|68:323|21:322,1,97.1249999999999,2|0,3:1|2:0,2:0:0:0:
457,263,50181,2,0,B|507:252|539:289|539:289|443:257|371:342,1,258.075,6|0,3:1|2:0,2:0:0:0:
253,223,50453,6,8,P|299:236|323:276,1,97.1249999999999,8|0,2:0|2:0,2:0:0:0:
335,384,50590,2,0,P|357:289|387:196,2,194.25,0|2|2,3:0|2:0|3:2,2:0:0:0:
85,302,50999,6,8,P|149:325|183:295,1,97.1249999999999,10|0,2:0|2:0,2:0:0:0:
217,381,51135,2,8,P|253:322|231:282,1,97.1249999999999,2|0,2:0|2:0,2:0:0:0:
426,82,51271,2,0,B|375:12|185:67|368:189|239:278|145:231|129:199,2,388.5,2|10|2,3:1|2:0|3:2,2:0:0:0:
512,85,51953,5,0,3:0:0:0:
512,85,52021,1,2,2:3:0:0:
512,85,52090,2,0,L|506:109,1,24.975,8|0,2:0|2:0,2:0:0:0:
372,147,52362,2,0,P|396:286|512:368,1,291.375,2|0,3:1|2:0,2:0:0:0:
512,343,52635,1,8,2:0:0:0:
290,180,52771,6,0,P|254:228|208:239,1,97.1249999999999,2|0,2:0|2:0,2:0:0:0:
138,259,52908,2,0,P|163:299|207:318,1,97.1249999999999,2|0,2:0|2:0,2:0:0:0:
311,305,53044,2,0,P|221:343|131:379,2,194.25,2|10|2,3:2|2:0|2:0,2:0:0:0:
68,292,53453,6,0,P|-18:334|63:281,1,291.375,2|0,3:1|2:0,2:0:0:0:
143,256,53726,2,0,P|168:296|212:315,1,97.1249999999999,8|0,2:0|2:0,2:0:0:0:
305,384,53862,2,0,P|342:264|411:68,1,291.375,0|0,2:0|2:0,2:0:0:0:
348,41,54135,5,0,3:0:0:0:
343,33,54203,1,2,2:3:0:0:
340,23,54271,2,0,L|330:-1,1,24.975,8|0,2:0|2:0,2:0:0:0:
431,15,54544,2,0,P|299:55|333:192,1,291.375,2|0,3:1|2:0,2:0:0:0:
414,355,54817,6,0,P|419:306|379:274,1,97.1249999999999,8|0,2:0|2:0,2:0:0:0:
287,261,54953,2,0,P|191:234|96:211,2,194.25,0|0|0,2:0|2:0|3:0,2:0:0:0:
476,235,55362,2,0,B|377:184|343:287|402:307|306:395|225:320,1,291.375,8|0,2:0|2:0,2:0:0:0:
234,354,55635,6,0,P|204:318|156:317,1,97.1249999999999,2|0,3:1|2:0,2:0:0:0:
420,360,55908,6,0,P|466:355|492:315,1,97.1249999999999,2|0,3:1|2:0,2:0:0:0:
488,236,56044,1,2,2:0:0:0:
45,289,56181,6,0,L|58:319,1,33.2999999999997,2|0,3:2|3:0,2:0:0:0:
132,306,56317,2,0,L|145:336,1,33.2999999999997,2|0,2:3|2:0,2:0:0:0:
219,329,56453,2,0,L|232:359,1,33.2999999999997,2|0,2:3|3:0,2:0:0:0:
306,348,56590,2,0,L|319:378,1,33.2999999999997,2|0,2:0|2:0,2:0:0:0:
488,236,56726,6,0,P|457:272|410:277,1,97.1249999999999,6|0,3:1|2:0,2:0:0:0:
497,382,56862,2,0,L|306:348,1,194.25,2|8,2:0|2:0,2:0:0:0:
270,116,57135,2,0,P|313:152|315:194,1,97.1249999999999,0|0,2:0|2:0,2:0:0:0:
294,269,57271,2,0,P|152:305|12:345,1,291.375,0|0,2:0|2:0,2:0:0:0:
63,247,57544,2,0,P|110:217|151:228,1,97.1249999999999,8|0,2:0|2:0,2:0:0:0:
306,348,57681,1,2,2:0:0:0:
225,195,57817,6,0,P|364:122|388:-5,1,291.375,0|0,3:0|2:0,3:0:0:0:
369,22,58090,1,10,2:0:0:0:
496,244,58226,2,0,P|421:331|407:217,1,291.375,0|0,3:0|2:0,3:0:0:0:
500,320,58499,5,0,3:0:0:0:
497,331,58567,1,2,2:3:0:0:
495,341,58635,2,0,L|486:370,1,24.975,8|0,2:0|2:0,2:0:0:0:
423,304,58908,2,0,P|329:277|235:252,2,194.25,2|2|10,3:1|2:0|2:0,2:0:0:0:
108,229,59317,6,0,P|151:359|289:370,1,291.375,0|0,2:0|2:0,2:0:0:0:
298,348,59590,1,2,3:2:0:0:
405,224,59726,2,0,P|451:220|488:250,1,97.1249999999999,10|0,2:0|2:0,2:0:0:0:
499,330,59862,1,2,2:0:0:0:
316,253,59999,6,0,P|322:111|432:22,1,291.375,2|0,3:1|3:0,3:0:0:0:
501,62,60271,2,0,P|458:108|411:100,1,97.1249999999999,8|0,2:0|2:0,2:0:0:0:
231,181,60408,2,0,P|149:195|38:216,2,194.25,0|0|0,3:0|3:0|3:0,2:0:0:0:
242,179,60749,1,0,3:0:0:0:
253,175,60817,2,0,L|278:171,1,24.975,8|0,2:0|2:0,2:0:0:0:
463,97,61090,6,0,B|380:52|317:161|378:157|387:184|341:283|260:246,1,291.375,2|0,3:1|2:0,3:0:0:0:
254,261,61362,1,8,2:0:0:0:
489,384,61499,2,0,P|281:277|12:297,1,485.625,4|0,3:2|2:0,2:0:0:0:
3,361,61908,2,0,L|11:384,1,24.975,8|0,2:0|2:0,2:0:0:0:
114,348,62181,1,0,3:2:0:0:
105,351,62249,1,0,3:2:0:0:
96,354,62317,1,0,3:2:0:0:
88,356,62385,1,0,3:1:0:0:
80,360,62453,1,0,3:1:0:0:
136,259,62590,6,0,P|309:176|398:8,1,388.5,4|0,2:0|2:0,2:0:0:0:
325,0,62999,2,0,L|318:28,1,24.975,8|0,2:0|2:0,2:0:0:0:
310,101,63271,1,2,2:0:0:0:
384,129,63817,1,2,2:1:0:0:
425,66,64090,1,2,2:1:0:0:
380,0,64362,5,4,3:2:0:0:
494,247,64635,6,0,P|466:212|429:206,1,69.375,8|0,2:0|2:0,2:0:0:0:
283,168,64771,2,0,P|305:261|319:319,2,138.75,2|0|0,2:1|3:2|3:0,2:0:0:0:
278,150,65112,1,0,3:0:0:0:
275,136,65181,6,0,L|268:108,1,24.975,8|0,2:0|2:0,2:0:0:0:
375,236,65453,2,0,B|402:334|234:282|267:402,1,208.125,0|0,3:0|2:0,2:0:0:0:
278,384,65726,5,8,2:0:0:0:
512,343,65862,1,2,2:1:0:0:
445,207,65999,2,0,P|485:226|495:259,1,69.375,0|0,3:2|2:0,2:0:0:0:
427,374,66135,2,0,L|447:291,1,69.375,0|0,2:0|2:0,2:0:0:0:
379,136,66271,6,0,L|384:160,1,24.975,8|0,2:0|2:0,2:0:0:0:
512,98,66544,2,0,P|415:127|332:71,1,208.125,0|0,3:0|2:0,2:0:0:0:
356,63,66817,1,8,2:0:0:0:
375,236,66953,6,0,P|260:135|263:5,1,277.5,2|0,2:1|3:0,2:0:0:0:
266,6,67294,1,0,3:0:0:0:
279,4,67362,6,0,L|309:-2,1,24.975,8|0,2:0|2:0,2:0:0:0:
492,4,67635,2,0,P|469:105|444:206,1,208.125,2|0,3:1|3:0,2:0:0:0:
452,219,67908,5,8,2:0:0:0:
279,210,68044,2,0,P|412:219|487:330,1,277.5,2|0,2:1|2:0,2:0:0:0:
492,346,68385,1,0,2:0:0:0:
496,357,68453,6,0,L|501:381,1,24.975,8|0,2:0|2:0,2:0:0:0:
409,339,68726,2,0,L|193:382,1,208.125,2|0,3:1|2:0,2:0:0:0:
194,384,68999,1,8,2:0:0:0:
286,218,69135,2,0,P|297:265|351:277,1,69.375,0|0,3:1|2:0,2:0:0:0:
328,384,69271,5,0,3:0:0:0:
369,214,69408,1,0,3:0:0:0:
412,43,69544,2,0,L|419:17,1,24.975,8|0,2:0|2:0,2:0:0:0:
336,66,69817,6,0,P|396:125|411:42,1,208.125,2|0,3:1|2:0,2:0:0:0:
247,47,70090,2,0,P|242:80|259:109,1,69.375,8|0,2:0|2:0,2:0:0:0:
378,206,70226,2,0,P|443:221|525:246,2,138.75,0|2|0,3:0|3:1|3:0,3:0:0:0:
303,176,70635,6,0,L|296:206,1,24.975,8|0,2:0|2:0,2:0:0:0:
343,338,70908,2,0,B|320:244|469:273|444:168,1,208.125,2|0,3:1|2:0,2:0:0:0:
451,163,71181,1,8,2:0:0:0:
253,115,71317,2,0,P|263:82|293:66,1,69.375,2|0,2:1|2:0,2:0:0:0:
332,0,71453,5,0,3:0:0:0:
373,170,71590,1,0,3:0:0:0:
416,341,71726,2,0,L|423:366,1,24.975,8|0,2:0|2:0,2:0:0:0:
343,338,71999,6,0,P|323:309|295:288,2,69.375,0|0|2,3:0|2:0|2:3,2:0:0:0:
479,306,72271,2,0,P|481:271|495:239,2,69.375,0|0|2,3:2|2:0|2:3,2:0:0:0:
254,360,72544,6,0,L|246:406,1,24.975,0|0,3:0|3:0,2:0:0:0:
177,360,72681,2,0,L|169:406,1,24.975,0|0,3:0|3:0,2:0:0:0:
100,360,72817,2,0,L|92:406,1,24.975,0|0,3:0|3:0,2:0:0:0:
22,360,72953,2,0,L|14:406,1,24.975,0|0,3:0|3:0,2:0:0:0:
0,288,73090,5,4,3:2:0:0:
355,380,73362,6,0,P|380:357|388:323,1,69.375,8|0,2:0|2:0,2:0:0:0:
281,177,73499,2,0,P|301:259|321:344,2,138.75,2|0|0,2:1|3:0|3:0,2:0:0:0:
386,220,73840,1,0,3:0:0:0:
386,220,73908,6,0,L|378:244,1,24.975,8|0,2:0|2:0,2:0:0:0:
388,323,74181,2,0,P|485:309|513:214,1,208.125,0|0,2:0|2:0,2:0:0:0:
496,199,74453,5,8,2:0:0:0:
334,143,74590,1,2,2:1:0:0:
401,38,74726,2,0,P|411:70|401:103,1,69.375,0|0,3:2|2:0,2:0:0:0:
328,67,74862,2,0,P|318:32|307:-14,1,69.375,2|0,2:0|2:0,2:0:0:0:
485,106,74999,6,0,L|508:113,1,24.975,8|0,2:0|2:0,2:0:0:0:
401,38,75271,6,0,P|391:41|200:2,1,208.125,0|0,2:0|2:0,2:0:0:0:
193,13,75544,1,8,2:0:0:0:
485,106,75681,2,0,P|351:162|268:273,1,277.5,0|0,2:0|2:0,2:0:0:0:
237,341,76021,1,0,3:0:0:0:
240,354,76090,6,0,L|248:381,1,24.975,8|0,2:0|2:0,2:0:0:0:
164,372,76362,2,0,L|363:310,1,208.125,0|0,2:0|2:0,2:0:0:0:
378,304,76635,5,8,2:0:0:0:
457,199,76771,2,0,P|347:217|269:86,1,277.5,0|0,2:0|2:0,2:0:0:0:
324,42,77112,1,0,3:0:0:0:
335,49,77181,6,0,L|344:77,1,24.975,8|0,2:0|2:0,2:0:0:0:
417,82,77453,2,0,P|305:52|209:27,1,208.125,2|0,3:1|2:0,2:0:0:0:
199,31,77726,1,8,2:0:0:0:
479,131,77862,2,0,P|496:101|490:67,1,69.375,2|0,2:1|2:0,2:0:0:0:
396,0,77999,5,0,3:0:0:0:
346,177,78135,1,0,3:0:0:0:
302,349,78271,2,0,L|296:374,1,24.975,8|0,2:0|2:0,2:0:0:0:
443,366,78544,6,0,P|345:337|297:249,1,208.125,2|0,3:1|2:0,2:0:0:0:
422,211,78817,2,0,P|406:241|375:256,1,69.375,8|0,2:0|2:0,2:0:0:0:
224,352,78953,2,0,P|154:370|61:391,2,138.75,0|2|0,2:1|3:1|3:0,2:0:0:0:
464,291,79362,6,0,L|489:284,1,24.975,8|0,2:0|2:0,2:0:0:0:
375,255,79635,2,0,P|412:161|508:122,1,208.125,2|0,3:1|2:0,2:0:0:0:
512,130,79908,5,8,2:0:0:0:
274,112,80044,2,0,P|308:114|334:136,1,69.375,2|0,2:1|2:0,2:0:0:0:
354,384,80181,5,0,3:0:0:0:
304,207,80317,1,0,3:0:0:0:
260,35,80453,2,0,L|254:10,1,24.975,8|0,2:0|2:0,2:0:0:0:
196,81,80726,6,0,P|169:61|158:29,2,69.375,0|0|0,2:0|2:0|2:0,2:0:0:0:
337,62,80999,2,0,P|358:35|390:23,2,69.375,0|0|0,3:2|2:0|3:0,2:0:0:0:
469,257,81271,6,0,L|461:211,1,24.975,0|0,3:0|3:0,2:0:0:0:
386,233,81408,2,0,L|378:187,1,24.975,0|0,3:0|3:0,2:0:0:0:
303,209,81544,2,0,L|295:163,1,24.975,0|0,3:0|3:0,2:0:0:0:
220,184,81681,2,0,L|212:138,1,24.975,0|0,3:0|3:0,2:0:0:0:
7,145,81817,6,0,L|22:139,1,16.65,2|0,3:1|2:0,2:0:0:0:
388,29,82345,1,8,2:0:0:0:
100,127,82612,2,0,L|105:105,1,22.2,2|2,2:1|3:2,2:0:0:0:
182,84,83280,1,0,3:0:0:0:
388,29,83414,1,8,2:0:0:0:
195,88,83681,5,2,2:0:0:0:
268,103,83818,1,2,2:0:0:0:
16,129,83956,6,0,L|0:134,1,16.65,2|0,3:1|2:0,2:0:0:0:
388,29,84490,1,8,2:0:0:0:
119,98,84757,2,0,L|98:104,1,22.2,2|2,2:1|3:2,2:0:0:0:
85,107,85425,5,2,3:2:0:0:
388,29,85559,1,8,2:0:0:0:
353,95,85693,1,2,2:0:0:0:
122,82,85826,5,2,2:0:0:0:
189,114,85960,1,2,2:0:0:0:
281,107,86094,6,0,L|266:101,1,16.65,2|0,3:1|2:0,2:0:0:0:
0,9,86628,1,8,2:0:0:0:
353,95,86895,2,0,L|359:79,1,16.65,2|0,2:1|2:1,2:0:0:0:
433,59,87430,2,0,L|435:53,1,5.55,2|0,3:1|3:1,2:0:0:0:
0,9,87697,1,8,2:0:0:0:
274,101,87964,2,0,L|271:106,1,5.55,2|0,3:1|2:1,2:0:0:0:
194,115,88232,6,0,P|185:111|184:103,1,16.65,2|0,3:2|2:0,2:0:0:0:
115,85,88762,2,0,P|107:89|106:98,1,16.65,2|0,2:0|2:0,2:0:0:0:
261,92,89296,2,0,P|271:87|283:85,2,22.2,2|2|2,2:0|2:0|3:1,2:0:0:0:
29,153,90900,5,8,2:0:0:0:
364,62,91167,2,0,L|380:57,1,16.65,2|0,2:1|2:0,2:0:0:0:
295,90,91701,1,0,3:0:0:0:
286,89,91766,1,0,3:0:0:0:
281,82,91832,1,0,3:0:0:0:
29,153,91964,5,10,2:0:0:0:
447,93,92164,5,2,2:0:0:0:
451,20,92369,5,2,2:0:0:0:
203,96,92508,6,0,L|208:112,1,16.65,2|0,3:1|2:0,2:0:0:0:
29,153,93042,1,8,2:0:0:0:
364,62,93309,2,0,L|380:57,1,16.65,2|0,2:1|2:0,2:0:0:0:
390,53,93844,1,2,3:2:0:0:
206,104,93977,1,0,3:0:0:0:
29,153,94111,5,8,2:0:0:0:
47,81,94245,1,2,2:0:0:0:
464,84,94445,5,0,2:0:0:0:
45,6,94646,6,0,L|27:3,1,16.65,2|0,3:1|2:3,2:0:0:0:
464,84,95180,1,8,2:0:0:0:
121,83,95452,6,0,L|124:100,1,16.65,2|0,3:1|2:3,2:0:0:0:
205,105,95982,1,0,3:0:0:0:
205,105,96115,1,0,3:0:0:0:
464,84,96249,5,10,2:0:0:0:
47,81,96449,5,2,2:0:0:0:
29,153,96650,5,2,2:0:0:0:
286,101,96783,6,0,L|283:84,1,16.65,2|0,3:1|2:3,2:0:0:0:
464,84,97323,5,8,2:0:0:0:
34,4,97593,6,0,L|45:6,1,11.1,2|0,3:1|2:3,2:0:0:0:
42,50,98127,6,0,L|66:54,1,24.975,0|0,3:1|2:3,2:0:0:0:
144,106,98261,6,0,L|185:112,1,41.625,0|0,3:1|2:3,2:0:0:0:
399,13,98394,2,0,B|480:170|-23:8|30:148,1,462.315,8|0,2:0|2:0,2:0:0:0:
256,384,98996,1,0,2:0:0:0:
256,384,99272,6,0,P|249:259|182:205,1,174.825,6|0,2:0|2:0,2:0:0:0:
141,212,99544,6,0,P|135:276|185:299,1,116.55,10|0,2:0|2:1,2:0:0:0:
512,330,99817,2,0,P|425:345|341:366,1,174.825,2|0,2:0|2:0,2:0:0:0:
335,384,100090,1,10,2:0:0:0:
512,108,100362,6,0,P|425:92|341:71,1,174.825,2|0,3:2|2:0,2:0:0:0:
332,56,100635,1,10,2:0:0:0:
261,303,100772,2,0,P|352:263|316:142,1,233.1,0|0,2:0|2:0,2:0:0:0:
270,103,101112,1,0,3:0:0:0:
270,102,101181,2,0,P|239:149|267:197,1,116.55,8|0,2:0|2:0,2:0:0:0:
512,376,101453,6,0,P|473:300|384:290,1,174.825,2|0,3:2|2:0,2:0:0:0:
382,363,101726,2,0,L|261:390,1,116.55,10|0,2:0|2:1,2:0:0:0:
0,262,101999,2,0,P|16:209|71:195,1,116.55,2|0,3:2|3:0,2:0:0:0:
145,207,102272,2,0,P|169:290|193:374,1,174.825,10|0,2:0|2:0,2:0:0:0:
118,384,102544,6,0,P|72:352|76:295,1,116.55,0|0,3:2|2:0,2:0:0:0:
309,167,102817,1,10,2:0:0:0:
234,221,102953,2,0,P|302:310|412:296,1,233.1,2|2,2:0|2:0,2:0:0:0:
470,228,103362,6,0,P|515:259|511:316,1,116.55,8|0,2:0|3:0,2:0:0:0:
346,236,103635,6,0,P|381:118|420:-3,1,233.1,2|8,3:2|2:0,2:0:0:0:
266,0,104044,1,2,2:0:0:0:
266,0,104181,6,0,P|261:55|307:87,1,116.55,2|0,2:0|3:0,2:0:0:0:
470,228,104453,1,8,2:0:0:0:
470,228,104726,6,0,P|392:246|337:337,1,174.825,0|0,3:0|2:0,2:0:0:0:
266,346,104999,2,0,P|194:367|118:391,1,116.55,10|2,2:0|2:0,2:0:0:0:
99,221,105272,2,0,B|198:192|171:290|273:264,1,174.825,2|0,2:0|2:0,2:0:0:0:
272,267,105544,1,8,2:0:0:0:
470,228,105817,6,0,P|392:246|337:337,1,174.825,0|0,3:0|2:0,2:0:0:0:
389,384,106090,2,0,P|448:353|443:299,1,116.55,8|2,2:0|2:0,2:0:0:0:
272,267,106362,2,0,L|255:328,1,58.275,2|0,3:2|2:0,2:0:0:0:
184,294,106499,2,0,L|167:355,1,58.275,0|0,3:0|2:0,2:0:0:0:
66,384,106635,1,8,2:0:0:0:
0,323,106772,1,0,2:0:0:0:
38,236,106908,6,0,P|165:210|210:150,1,174.825,0|0,3:2|2:0,2:0:0:0:
449,310,107181,2,0,P|331:252|303:183,1,174.825,0|0,3:2|2:0,2:0:0:0:
245,243,107453,1,0,3:0:0:0:
244,248,107522,1,0,3:0:0:0:
243,252,107590,1,0,3:0:0:0:
242,256,107658,1,0,3:0:0:0:
241,260,107726,1,0,3:0:0:0:
240,264,107794,1,0,3:0:0:0:
239,268,107862,1,0,3:0:0:0:
238,272,107931,1,0,3:0:0:0:
231,302,107999,5,4,3:2:0:0:
231,302,108272,6,0,P|263:363|331:367,1,116.55,2|0,2:0|2:0,2:0:0:0:
26,248,108544,2,0,P|60:325|148:350,1,174.825,2|0,2:0|2:0,2:0:0:0:
153,340,108817,1,10,2:0:0:0:
434,356,109090,6,0,B|423:234|311:305|300:184,1,233.1,2|10,3:2|2:0,2:0:0:0:
499,20,109499,2,0,P|445:28|395:182,1,233.1,2|0,2:0|2:0,3:0:0:0:
392,177,109840,1,0,3:0:0:0:
392,177,109908,1,8,2:0:0:0:
512,231,110044,1,0,3:0:0:0:
210,292,110181,6,0,P|292:290|351:352,1,174.825,2|0,3:2|2:0,2:0:0:0:
354,369,110453,1,8,2:0:0:0:
401,266,110590,1,0,2:0:0:0:
177,376,110726,2,0,P|116:360|59:346,1,116.55,0|0,2:0|2:0,2:0:0:0:
54,328,110931,2,0,P|80:278|135:266,1,116.55,0|0,2:0|2:0,2:0:0:0:
210,292,111135,2,0,P|227:314|254:321,1,58.275,0|0,3:0|2:0,2:0:0:0:
401,266,111272,1,0,3:0:0:0:
401,266,111544,5,10,2:0:0:0:
354,369,111681,2,0,P|374:244|394:111,1,233.1,2|2,2:0|2:0,2:0:0:0:
416,60,112090,2,0,P|359:55|319:95,1,116.55,8|0,2:0|3:0,2:0:0:0:
70,223,112362,6,0,P|183:231|254:320,1,233.1,2|8,3:2|2:0,2:0:0:0:
209,384,112772,1,2,2:0:0:0:
209,384,112908,2,0,P|153:343|154:285,1,116.55,2|0,2:0|3:0,2:0:0:0:
483,243,113181,1,8,2:0:0:0:
483,243,113453,6,0,P|403:221|325:308,1,174.825,0|0,3:0|2:0,2:0:0:0:
380,342,113726,2,0,P|436:355|492:370,1,116.55,10|2,2:0|2:0,2:0:0:0:
364,195,113999,6,0,P|345:109|322:11,1,174.825,2|0,2:0|2:0,2:0:0:0:
310,12,114272,1,8,2:0:0:0:
292,351,114544,6,0,P|220:311|224:194,1,174.825,2|0,3:2|2:0,2:0:0:0:
224,221,114817,1,8,2:0:0:0:
299,243,114953,1,2,2:0:0:0:
49,355,115090,6,0,L|66:294,1,58.275,2|0,3:2|2:0,2:0:0:0:
141,336,115226,2,0,L|158:275,1,58.275,0|0,3:0|2:0,2:0:0:0:
234,301,115362,1,8,2:0:0:0:
371,274,115499,1,2,2:0:0:0:
495,272,115635,6,0,P|412:309|382:389,1,174.825,0|0,3:2|2:0,2:0:0:0:
224,221,115908,2,0,P|284:281|294:379,1,174.825,0|0,3:2|2:0,2:0:0:0:
289,373,116181,5,0,3:2:0:0:
71,349,116317,1,0,3:0:0:0:
60,352,116385,1,0,2:0:0:0:
49,355,116453,1,8,2:0:0:0:
39,359,116522,1,0,3:0:0:0:
30,362,116590,1,0,3:0:0:0:
20,366,116658,1,0,3:0:0:0:
344,59,118908,6,0,B|344:348|65:355|65:355|179:317|94:206|257:220,1,679.874999999997,6|0,2:1|2:0,2:0:0:0:
214,298,119453,6,0,L|227:328,1,33.2999999999997,10|0,2:0|2:0,2:0:0:0:
306,322,119590,2,0,L|319:352,1,33.2999999999997,2|0,2:0|2:0,2:0:0:0:
397,353,119726,2,0,L|410:383,1,33.2999999999997,2|0,2:3|2:0,2:0:0:0:
489,383,119862,1,2,2:0:0:0:
454,274,119999,6,0,P|436:230|390:222,1,97.1249999999999,2|0,3:1|2:0,2:0:0:0:
205,217,120272,2,0,P|177:255|131:252,1,97.1249999999999,2|0,3:1|2:0,2:0:0:0:
56,195,120408,1,2,2:0:0:0:
99,358,120544,6,0,L|107:384,2,27.75,2|8|2,1:0|2:0|3:0,2:3:0:0:
50,200,120817,2,0,B|3:203|-17:250|-17:250|94:228|180:343,1,291.375,6|0,3:1|2:0,2:0:0:0:
25,357,121089,6,8,P|3:315|26:275,1,97.1249999999999,8|0,2:0|2:0,2:0:0:0:
208,237,121226,2,0,P|306:267|407:295,2,194.25,0|2|2,3:0|2:0|3:2,2:0:0:0:
400,131,121635,6,0,P|345:180|360:222,1,97.1249999999999,10|0,2:0|2:0,2:0:0:0:
328,358,121771,2,0,P|285:338|274:293,1,97.1249999999999,2|0,2:0|2:0,2:0:0:0:
258,150,121907,2,0,B|381:101|476:243|389:263|397:333|420:389|509:374,2,388.5,2|10|2,3:1|2:0|3:2,2:0:0:0:
208,237,122589,5,0,3:0:0:0:
208,237,122657,1,2,2:3:0:0:
208,237,122726,2,0,L|201:261,1,24.975,8|0,2:0|2:0,2:0:0:0:
71,285,122998,2,0,P|210:241|352:206,1,291.375,2|0,3:1|2:1,3:1:0:0:
348,198,123271,1,8,2:0:0:0:
294,29,123407,6,0,P|312:73|327:120,1,97.1249999999999,2|0,2:0|2:0,2:0:0:0:
371,281,123544,2,0,P|414:263|427:218,1,97.1249999999999,2|0,2:0|2:0,2:0:0:0:
423,37,123680,2,0,P|354:102|347:197,2,194.25,2|10|2,3:2|2:0|2:0,2:0:0:0:
171,236,124089,6,0,P|309:268|393:383,1,291.375,2|0,3:1|2:0,2:0:0:0:
253,331,124362,2,0,P|199:333|166:367,1,97.1249999999999,8|0,2:0|2:0,2:0:0:0:
32,369,124498,2,0,P|-17:300|97:334,1,291.375,2|0,2:0|2:0,2:0:0:0:
180,318,124771,5,0,3:0:0:0:
179,327,124839,1,2,2:3:0:0:
176,337,124907,2,0,L|169:362,1,24.975,8|0,2:0|2:0,2:0:0:0:
35,297,125180,2,0,P|176:332|342:374,1,291.375,2|0,3:1|2:0,3:0:0:0:
457,324,125453,6,0,P|442:370|393:384,1,97.1249999999999,8|0,2:0|2:0,2:0:0:0:
295,278,125589,2,0,P|314:205|286:73,2,194.25,0|0|0,2:0|2:0|3:0,2:0:0:0:
169,361,125998,1,8,2:0:0:0:
457,324,126271,6,0,P|443:279|399:262,1,97.1249999999999,2|0,3:1|2:0,2:0:0:0:
86,219,126544,6,0,P|121:249|168:240,1,97.1249999999999,2|0,3:1|3:0,3:0:0:0:
237,192,126680,1,2,2:0:0:0:
38,384,126817,6,0,L|50:351,1,33.2999999999997,2|0,3:2|3:0,2:0:0:0:
124,363,126953,2,0,L|136:330,1,33.2999999999997,2|0,2:3|2:0,2:0:0:0:
210,335,127089,2,0,L|222:302,1,33.2999999999997,2|0,2:3|3:0,2:0:0:0:
296,311,127226,2,0,L|308:278,1,33.2999999999997,2|0,2:0|2:0,2:0:0:0:
52,272,127362,6,0,B|10:246|-24:282|-24:282|97:276|152:380,1,291.375,6|0,3:1|2:0,2:0:0:0:
172,225,127635,6,0,P|137:195|90:204,1,97.1249999999999,10|0,2:0|2:0,3:0:0:0:
267,384,127771,2,0,P|391:323|346:187,1,291.375,2|0,2:0|2:0,3:0:0:0:
240,48,128044,2,0,P|278:139|250:232,2,194.25,2|10|2,3:2|2:0|3:2,2:0:0:0:
421,0,128453,2,0,P|450:95|352:30,1,291.375,0|0,3:0|2:0,3:0:0:0:
340,24,128726,1,10,2:0:0:0:
482,270,128862,2,0,P|306:289|223:428,1,291.375,0|0,2:0|2:0,2:0:0:0:
157,365,129135,5,0,3:0:0:0:
146,367,129203,1,2,2:3:0:0:
136,369,129271,2,0,L|107:377,1,24.975,8|0,2:0|2:0,2:0:0:0:
1,246,129544,2,0,P|102:270|201:296,2,194.25,2|2|10,3:1|2:0|2:0,2:0:0:0:
198,213,129953,6,0,B|254:201|321:246|205:342|337:401|402:355,1,291.375,0|0,2:0|2:0,2:0:0:0:
398,348,130226,1,2,3:2:0:0:
360,220,130362,2,0,P|343:213|267:267,1,97.1249999999999,10|0,2:0|2:0,2:0:0:0:
200,296,130498,1,2,2:0:0:0:
237,130,130635,6,0,P|142:236|0:245,1,291.375,2|0,3:1|3:0,3:0:0:0:
1,169,130907,2,0,P|63:156|96:190,1,97.1249999999999,8|0,2:0|2:0,2:0:0:0:
276,242,131044,6,0,P|371:348|513:357,1,291.375,2|0,3:2|3:0,3:0:0:0:
361,219,131317,5,0,3:0:0:0:
357,208,131385,1,2,2:3:0:0:
353,197,131453,2,0,L|346:172,1,24.975,8|0,2:0|2:0,2:0:0:0:
464,16,131726,6,0,B|476:105|370:94|367:86|364:78|260:63|259:157,1,291.375,2|0,3:1|2:0,3:0:0:0:
261,166,131998,1,8,2:0:0:0:
475,267,132135,2,0,P|237:216|0:169,1,485.625,4|0,3:2|2:0,2:0:0:0:
53,221,132544,2,0,L|61:244,1,24.975,8|0,2:0|2:0,2:0:0:0:
242,292,132817,6,0,P|215:385|228:289,1,291.375,0|0,3:0|2:0,2:0:0:0:
236,282,133089,1,8,2:0:0:0:
459,384,133226,6,0,B|507:256|360:239|354:248|348:258|201:241|277:103,1,388.5,4|0,2:0|2:0,3:0:0:0:
488,75,133635,2,0,L|511:69,1,24.975,8|0,2:0|2:0,2:0:0:0:
411,52,133907,6,0,B|429:124|361:157|361:157|468:130|426:14,1,291.375,0|0,3:0|2:0,2:0:0:0:
344,1,134180,2,0,P|314:36|331:80,1,97.1249999999999,8|0,2:0|2:0,2:0:0:0:
476,218,134317,1,2,2:0:0:0:
281,142,134453,6,0,P|263:192|203:192,1,97.1249999999999,0|0,3:0|2:0,2:0:0:0:
245,296,134589,2,0,P|191:294|173:237,1,97.1249999999999,0|0,3:0|2:0,2:0:0:0:
83,216,134726,2,0,P|223:247|325:348,1,291.375,8|0,2:0|2:0,2:0:0:0:
406,359,134998,6,0,P|442:327|511:314,2,97.1249999999999,0|2|2,3:0|2:3|2:3,2:0:0:0:
106,359,135271,2,0,P|69:327|1:314,2,97.1249999999999,0|2|2,3:0|2:3|2:3,2:0:0:0:
239,330,135544,1,0,1:2:0:0:
241,322,135612,1,0,3:2:0:0:
243,313,135680,1,0,1:2:0:0:
245,305,135748,1,0,3:1:0:0:
245,296,135817,1,2,2:1:0:0:
295,85,136089,6,0,P|341:40|415:63,1,105.45,4|2,3:2|2:0,2:0:0:0:
345,168,136362,1,10,2:0:0:0:
208,108,136498,2,0,P|130:24|32:22,1,210.9,2|2,2:0|3:2,2:0:0:0:
92,148,136907,1,8,2:0:0:0:
164,171,137044,5,2,2:0:0:0:
2,370,137317,2,0,P|33:317|92:306,1,105.45,2|8,2:0|2:0,2:0:0:0:
83,228,137589,2,0,B|190:246|112:339|224:368,1,210.9,2|0,2:0|3:0,2:0:0:0:
236,365,137930,1,0,3:0:0:0:
247,357,137998,1,10,2:0:0:0:
271,279,138135,1,2,2:0:0:0:
91,382,138271,5,2,3:2:0:0:
329,333,138544,2,0,P|387:321|498:303,1,158.175,10|0,2:0|2:0,2:0:0:0:
499,314,138817,1,2,3:2:0:0:
348,248,138953,2,0,P|328:200|351:155,1,105.45,2|8,2:0|2:0,2:0:0:0:
459,70,139226,5,2,2:0:0:0:
255,102,139362,1,2,3:2:0:0:
51,134,139498,1,2,2:0:0:0:
117,175,139635,5,8,2:0:0:0:
106,28,139771,1,2,2:0:0:0:
106,28,139839,1,2,2:0:0:0:
106,28,139907,2,0,B|57:130|229:74|192:188,1,210.9,2|8,2:0|2:0,2:0:0:0:
0,384,140453,2,0,L|141:342,2,105.45,2|2|8,2:0|2:0|2:0,2:0:0:0:
41,210,140862,2,0,P|85:271|161:268,1,158.175,2|0,2:0|2:0,2:0:0:0:
265,226,141135,2,0,P|316:230|351:268,1,105.45,0|8,3:0|2:0,2:0:0:0:
225,361,141407,6,0,L|249:278,1,52.725,2|0,2:0|2:0,2:0:0:0:
439,328,141680,2,0,L|463:245,1,52.725,2|0,2:0|2:0,2:0:0:0:
478,202,141817,1,10,2:0:0:0:
152,59,142089,2,0,L|176:142,1,52.725,2|0,2:0|2:0,2:0:0:0:
181,182,142226,1,0,3:0:0:0:
187,189,142294,1,0,2:0:0:0:
187,182,142362,1,10,2:0:0:0:
82,65,142498,6,0,P|193:95|262:118,1,158.175,2|0,2:0|2:0,2:0:0:0:
252,110,142771,2,0,P|286:95|287:51,1,52.725,2|0,2:0|2:0,2:0:0:0:
265,5,142907,1,8,2:0:0:0:
109,163,143044,2,0,P|20:147|6:68,1,158.175,2|0,2:0|2:0,2:0:0:0:
7,80,143317,5,2,2:0:0:0:
234,108,143453,1,10,2:0:0:0:
483,147,143589,1,2,2:0:0:0:
161,256,143726,6,0,P|186:260|209:274,2,52.725,0|2|2,3:0|2:3|2:3,2:0:0:0:
393,199,143998,2,0,P|370:212|354:233,2,52.725,0|2|2,3:0|2:3|2:3,2:0:0:0:
289,281,144271,2,0,L|298:317,1,33.3,0|0,2:0|2:0,2:0:0:0:
74,383,144817,6,0,P|120:338|194:361,1,105.45,4|2,3:2|2:0,2:0:0:0:
227,384,145089,1,10,2:0:0:0:
102,263,145226,2,0,P|67:140|-18:102,1,210.9,2|2,2:0|3:2,2:0:0:0:
185,259,145635,1,8,2:0:0:0:
217,188,145771,5,2,2:0:0:0:
505,355,146044,2,0,L|382:322,1,105.45,2|8,2:0|2:0,2:0:0:0:
242,309,146317,2,0,B|345:341|318:223|431:248,1,210.9,2|0,2:0|3:0,2:0:0:0:
438,254,146657,1,0,3:0:0:0:
444,263,146726,1,10,2:0:0:0:
303,198,146862,1,2,2:0:0:0:
333,125,146998,5,2,3:2:0:0:
39,26,147271,2,0,P|95:43|203:73,1,158.175,10|0,2:0|2:0,2:0:0:0:
205,62,147544,1,2,3:2:0:0:
0,173,147680,2,0,P|81:141|130:129,1,105.45,2|8,2:0|2:0,2:0:0:0:
430,284,147953,5,2,2:0:0:0:
254,257,148089,1,2,3:2:0:0:
80,229,148226,1,2,2:0:0:0:
117,298,148362,5,8,2:0:0:0:
278,169,148498,1,2,2:0:0:0:
278,169,148567,1,2,2:0:0:0:
278,169,148635,2,0,P|367:209|460:130,1,210.9,2|8,2:0|2:0,2:0:0:0:
254,257,149180,2,0,P|248:305|200:338,2,105.45,2|2|8,2:0|2:0|2:0,2:0:0:0:
161,44,149589,2,0,P|180:131|202:230,1,158.175,2|0,2:0|2:0,2:0:0:0:
182,208,149862,2,0,P|131:204|96:166,1,105.45,0|8,3:0|2:0,2:0:0:0:
246,80,150135,6,0,L|270:-3,1,52.725,2|0,2:0|2:0,2:0:0:0:
473,213,150407,2,0,L|497:130,1,52.725,2|0,2:0|2:0,2:0:0:0:
512,87,150544,1,10,2:0:0:0:
264,212,150817,2,0,L|288:295,1,52.725,2|0,2:0|2:0,2:0:0:0:
293,335,150953,1,0,3:0:0:0:
299,342,151021,1,0,2:0:0:0:
299,335,151089,1,10,2:0:0:0:
356,275,151226,6,0,P|467:305|486:370,1,158.175,2|0,2:0|2:0,2:0:0:0:
340,192,151498,2,0,P|373:166|374:122,1,52.725,2|0,2:0|2:0,2:0:0:0:
372,141,151635,1,8,2:0:0:0:
372,0,151771,2,0,P|446:51|429:126,1,158.175,2|0,2:0|2:0,2:0:0:0:
451,120,152044,1,2,3:2:0:0:
257,161,152180,1,10,2:0:0:0:
63,204,152317,1,2,2:0:0:0:
279,262,152453,6,0,P|253:257|231:244,2,52.725,0|2|2,3:0|2:3|2:3,2:0:0:0:
47,319,152726,2,0,P|70:306|86:285,2,52.725,0|2|0,3:0|2:3|2:0,2:0:0:0:
150,236,152998,1,0,3:0:0:0:
151,240,153067,1,0,3:0:0:0:
152,245,153135,1,0,2:3:0:0:
153,249,153203,1,0,2:3:0:0:
154,254,153271,1,0,3:0:0:0:
155,259,153339,1,0,3:0:0:0:
157,263,153407,1,0,2:3:0:0:
161,269,153476,1,0,2:0:0:0:
160,269,153544,6,0,B|184:365|244:413|490:462|610:260|519:182|446:143|375:212|410:291,1,602.175000000001,4|0,2:0|2:0,2:0:0:0:
249,274,154089,2,0,B|207:206|255:117|348:147|353:211|300:240,1,233.1,0|0,2:0|2:0,2:0:0:0:
428,220,154635,6,0,B|422:193|405:187|394:220|433:237,1,58.275,2|0,2:1|2:0,2:0:0:0:
502,150,154907,2,0,B|479:135|463:143|478:175|517:159,1,58.275,0|0,2:0|2:0,2:0:0:0:
280,181,155180,6,0,B|304:166|320:174|305:206|266:190,1,58.275,2|0,2:1|2:0,2:0:0:0:
272,78,155439,2,0,B|300:85|306:101|272:112|256:74,1,58.275,2|0,2:1|2:0,2:0:0:0:
475,1,155699,6,0,B|486:68|409:94|351:46|390:0|436:41,1,174.825,2|0,2:1|2:0,2:0:0:0:
487,75,156232,1,2,2:1:0:0:
487,75,156517,1,2,2:1:0:0:
206,356,156803,2,0,B|363:390|423:265|428:175|276:133|257:238|308:263,1,399.6,2|2,2:1|2:1,2:0:0:0:
299,256,157886,6,0,B|338:295|405:248|408:192|346:162|352:227,1,174.825,2|0,2:1|2:0,2:0:0:0:
167,282,158457,2,0,B|119:257|72:189|154:61|295:97|284:219|200:214,1,349.65,2|0,2:1|2:0,2:0:0:0:
49,191,159002,2,0,B|29:454|398:470|579:339|653:140|513:-11|424:24|377:110|451:169,1,932.400000000001,2|0,2:1|2:0,2:0:0:0:
270,286,160045,6,0,B|347:295|405:204|341:152|283:159|276:230,1,233.1,2|0,2:1|2:0,2:0:0:0:
280,209,160608,1,2,2:1:0:0:
45,360,161129,6,0,B|49:332|36:320|12:346|42:376,1,58.275,2|0,2:1|2:0,3:0:0:0:
194,300,161413,2,0,B|183:273|165:270|159:306|200:315,1,58.275,2|0,2:1|2:0,3:0:0:0:
359,152,161697,6,0,B|339:132|322:137|330:171|372:163,1,58.275,2|0,2:1|2:0,3:0:0:0:
393,9,161982,2,0,B|366:3|354:17|380:41|410:11,1,58.275,2|0,2:1|2:0,3:0:0:0:
268,264,162266,6,0,B|263:368|444:403|465:271|388:234|328:269,1,291.375,2|0,2:1|2:0,2:0:0:0:
268,264,162676,2,0,B|167:290|95:120|220:72|272:140|250:206,1,291.375,2|0,2:1|2:0,2:0:0:0:
268,264,163087,2,0,B|291:352|184:382|158:316|223:251,1,174.825,2|0,2:1|2:0,2:0:0:0:
268,264,163361,6,0,B|332:152|545:226|499:406|366:394|337:326,1,407.925,2|0,2:1|2:0,2:0:0:0:
341,321,163901,1,2,2:1:0:0:
349,312,164145,1,2,2:1:0:0:
268,264,164414,6,0,B|314:135|125:68|117:226|192:227,1,291.375,2|0,2:1|2:0,2:0:0:0:
268,264,164864,2,0,B|345:150|510:264|387:363|342:303,1,291.375,2|0,2:1|2:0,2:0:0:0:
268,264,165273,2,0,B|203:239|150:284|165:356|227:337,1,174.825,2|0,2:1|2:0,2:0:0:0:
268,264,165545,6,0,B|194:388|-8:340|-13:171|154:101|187:229,1,467.176785772706,2|0,2:1|2:0,2:0:0:0:
512,51,166594,6,0,B|454:19|397:44|369:158|480:135|457:68,1,208.125,2|0,2:1|2:0,2:0:0:0:
335,1,167006,2,0,B|314:40|360:71|373:25|327:16,1,83.2499999999998,2|0,2:1|2:0,2:0:0:0:
241,0,167419,2,0,B|245:17|268:14|259:-3|242:7,1,33.2999999999999,2|0,2:1|2:0,2:0:0:0:
24,367,167694,6,0,B|-53:344|-25:244|51:218|76:299|31:331,1,222,2|0,2:1|2:0,2:0:0:0:
22,144,168107,2,0,B|14:102|57:60|100:81|80:124|49:107,1,124.875,2|0,2:1|2:0,2:0:0:0:
87,8,168520,2,0,B|128:-1|138:40|120:34|119:25,1,62.4375000000002,0|0,2:1|2:0,2:0:0:0:
157,3,168795,1,2,2:1:0:0:
300,19,169346,5,0,2:0:0:0:
415,99,169621,5,0,2:0:0:0:
268,264,169896,5,0,2:0:0:0:
470,231,170997,6,0,L|499:310,1,83.25,0|0,3:0|2:0,2:0:0:0:
437,354,171269,2,0,L|430:380,2,27.75,10|2|2,2:0|2:0|2:0,2:0:0:0:
433,151,171542,5,0,2:0:0:0:
369,193,171678,1,2,3:2:0:0:
369,193,171747,1,2,2:0:0:0:
369,193,171815,1,10,2:0:0:0:
482,0,171951,5,0,2:0:0:0:
459,76,172087,1,2,3:2:0:0:
13,280,172360,1,10,2:0:0:0:
43,209,172497,1,2,3:2:0:0:
112,235,172633,1,2,3:2:0:0:
70,384,172906,1,10,2:0:0:0:
103,148,173178,6,0,L|84:91,1,55.5,0|0,3:0|2:0,2:0:0:0:
18,57,173451,2,0,L|-1:0,1,55.5,10|2,2:0|2:0,2:0:0:0:
13,280,173724,1,0,2:0:0:0:
112,235,173860,1,2,3:2:0:0:
14,134,173997,2,0,L|8:161,2,27.75,10|2|2,2:0|2:0|2:0,2:0:0:0:
18,57,174269,6,0,P|54:16|108:6,1,111,2|10,3:1|2:0,2:0:0:0:
465,57,174815,2,0,P|428:16|374:6,1,111,2|10,2:1|2:0,2:0:0:0:
436,240,175360,6,0,L|443:270,2,27.75,2|2|2,2:0|2:0|2:0,2:0:0:0:
372,199,175633,1,10,2:0:0:0:
399,126,175769,1,2,3:2:0:0:
91,359,176042,5,2,3:2:0:0:
60,288,176178,2,0,L|31:221,1,55.5,10|2,2:0|2:0,2:0:0:0:
31,37,176451,6,0,P|70:47|92:82,1,83.25,0|0,3:0|2:0,2:0:0:0:
83,92,176724,1,10,2:0:0:0:
52,160,176860,2,0,L|-1:142,1,55.5,2|0,3:0|3:0,2:0:0:0:
38,376,177133,2,0,L|91:358,2,55.5,2|2|2,3:2|2:0|2:0,2:0:0:0:
60,288,177542,5,2,3:2:0:0:
60,288,177610,1,2,2:0:0:0:
60,288,177678,1,2,2:0:0:0:
80,167,177815,2,0,L|100:219,1,55.5,8|0,2:0|2:0,2:0:0:0:
430,253,178087,1,0,2:0:0:0:
506,229,178224,1,2,3:2:0:0:
396,115,178360,1,10,2:0:0:0:
372,191,178497,1,2,2:0:0:0:
212,305,180815,6,0,B|156:375|132:309|76:376|76:376|91:255|126:148|335:171|406:236|244:318|204:388|456:465|478:273,1,796.425000000001,6|0,2:1|2:0,2:0:0:0:
486,220,181360,6,0,L|469:275,1,33.2999999999997,10|0,2:0|2:0,2:0:0:0:
398,238,181497,2,0,L|381:293,1,33.2999999999997,2|0,2:0|2:0,2:0:0:0:
310,256,181633,2,0,L|293:311,1,33.2999999999997,2|0,2:3|2:0,2:0:0:0:
222,274,181769,2,0,L|205:329,1,33.2999999999997,2|0,2:0|2:0,2:0:0:0:
72,220,181906,6,0,P|129:248|130:304,1,97.1249999999999,2|0,3:1|2:0,2:0:0:0:
310,384,182178,2,0,P|372:370|386:316,1,97.1249999999999,2|0,3:1|2:0,2:0:0:0:
0,365,182451,6,0,P|44:319|97:335,1,97.1249999999999,2|0,3:1|2:0,2:0:0:0:
468,349,182724,2,0,P|488:288|449:248,1,97.1249999999999,2|0,3:1|2:0,2:0:0:0:
273,189,182997,6,0,B|227:189|202:243|202:243|303:205|388:269,1,291.375,6|0,3:1|2:0,2:0:0:0:
512,155,183269,6,8,P|467:173|422:193,1,97.1249999999999,8|0,2:0|2:0,2:0:0:0:
228,325,183406,2,0,P|174:324|132:202,2,194.25,0|2|2,3:0|2:0|3:2,2:0:0:0:
437,340,183815,6,0,P|474:309|473:263,1,97.1249999999999,10|0,2:0|2:0,2:0:0:0:
413,0,183951,2,0,P|433:44|452:99,1,97.1249999999999,2|0,2:0|2:0,2:0:0:0:
286,384,184087,2,0,B|237:261|379:166|399:253|469:245|525:222|509:137,2,388.5,2|10|2,3:1|2:0|3:2,2:0:0:0:
362,354,184769,5,0,3:0:0:0:
362,354,184837,1,2,2:3:0:0:
362,354,184906,2,0,L|355:330,1,24.975,8|0,2:0|2:0,2:0:0:0:
283,275,185178,2,0,P|138:306|-3:341,1,291.375,2|0,3:1|2:1,3:1:0:0:
0,357,185451,1,8,2:0:0:0:
138,202,185587,6,0,P|90:206|62:243,1,97.1249999999999,2|0,2:0|2:0,2:0:0:0:
176,343,185724,2,0,L|199:249,1,97.1249999999999,2|0,2:0|2:0,2:0:0:0:
374,44,185860,2,0,P|343:157|237:184,2,194.25,2|10|2,3:2|2:0|2:0,2:0:0:0:
512,384,186269,6,0,P|390:272|248:279,1,291.375,2|0,2:1|2:0,2:0:0:0:
265,368,186542,2,0,P|312:371|350:342,1,97.1249999999999,8|0,2:0|2:0,2:0:0:0:
374,44,186678,2,0,P|328:146|430:98,1,291.375,2|0,2:0|2:0,2:0:0:0:
491,6,186951,5,0,3:0:0:0:
482,10,187019,1,2,2:3:0:0:
472,12,187087,2,0,L|447:19,1,24.975,8|0,2:0|2:0,2:0:0:0:
374,44,187360,2,0,P|409:185|451:351,1,291.375,2|0,2:1|2:0,2:0:0:0:
290,276,187633,6,0,P|295:229|335:205,1,97.1249999999999,10|0,2:0|2:0,2:0:0:0:
512,384,187769,2,0,P|410:332|316:352,2,194.25,2|2|2,2:0|2:0|3:2,2:0:0:0:
335,205,188178,2,0,P|273:292|97:337,1,291.375,10|0,2:0|2:0,2:0:0:0:
30,294,188451,6,0,P|53:264|135:270,1,97.1249999999999,2|0,3:1|2:0,2:0:0:0:
414,225,188724,6,0,P|442:249|521:226,1,97.1249999999999,2|0,3:1|2:0,2:0:0:0:
440,102,188860,1,2,2:0:0:0:
468,373,188997,6,0,L|458:339,1,33.2999999999997,2|0,3:2|3:0,2:0:0:0:
383,344,189133,2,0,L|373:310,1,33.2999999999997,2|0,2:3|2:0,2:0:0:0:
300,309,189269,2,0,L|290:275,1,33.2999999999997,2|0,2:3|3:0,2:0:0:0:
217,277,189406,2,0,L|207:243,1,33.2999999999997,0|0,2:0|2:0,2:0:0:0:
137,214,189542,6,0,B|116:202|90:218|90:218|117:212|142:239,1,97.1249999999999,4|0,3:1|2:0,2:0:0:0:
355,236,189678,2,0,P|334:87|270:48,1,194.25,2|8,2:0|2:0,2:0:0:0:
431,260,189951,2,0,P|478:256|512:223,1,97.1249999999999,2|0,2:0|2:0,2:0:0:0:
385,16,190087,2,0,P|243:52|103:92,1,291.375,2|0,2:0|2:0,2:0:0:0:
60,29,190360,2,0,P|132:-3|148:3,1,97.1249999999999,8|0,2:0|2:0,2:0:0:0:
386,97,190497,1,2,2:0:0:0:
190,143,190633,6,0,P|200:253|257:145,1,291.375,2|0,3:1|2:0,3:0:0:0:
266,150,190906,1,10,2:0:0:0:
106,270,191042,2,0,P|259:280|365:381,1,291.375,2|0,3:2|2:0,3:0:0:0:
429,340,191315,5,0,3:0:0:0:
432,351,191383,1,2,2:3:0:0:
434,361,191451,2,0,L|443:390,1,24.975,8|0,2:0|2:0,2:0:0:0:
322,288,191724,2,0,P|428:266|522:246,2,194.25,2|2|10,3:1|2:0|2:0,2:0:0:0:
475,0,192133,6,0,B|523:81|401:138|432:71|286:111|353:228,1,291.375,0|0,2:1|2:0,2:0:0:0:
360,205,192406,1,2,3:2:0:0:
384,76,192542,2,0,P|347:45|300:48,1,97.1249999999999,10|0,2:0|2:0,2:0:0:0:
184,243,192678,1,2,2:0:0:0:
86,4,192815,6,0,P|230:82|234:239,1,291.375,2|0,3:1|3:0,3:0:0:0:
175,248,193087,2,0,P|149:189|175:150,1,97.1249999999999,8|0,2:0|2:0,2:0:0:0:
343,281,193224,2,0,P|261:299|193:403,2,194.25,0|0|0,3:0|3:0|3:0,2:0:0:0:
453,296,193633,6,0,L|428:292,1,24.975,8|0,2:0|2:0,2:0:0:0:
395,189,193906,2,0,P|363:97|399:186,1,291.375,2|0,3:1|2:0,2:0:0:0:
413,192,194178,1,8,2:0:0:0:
482,360,194315,6,0,B|529:311|511:98|236:244|152:127|270:2,1,485.625,4|0,3:2|2:0,2:0:0:0:
336,0,194724,2,0,L|331:24,1,24.975,8|0,2:0|2:0,2:0:0:0:
326,42,194997,1,0,3:1:0:0:
323,50,195065,1,0,3:1:0:0:
321,58,195133,1,0,3:2:0:0:
319,68,195201,1,0,3:2:0:0:
317,77,195269,1,0,3:2:0:0:
115,182,195406,6,0,L|502:79,1,388.5,4|0,3:2|2:0,2:0:0:0:
410,0,195815,2,0,L|405:24,1,24.975,8|0,2:0|2:0,2:0:0:0:
404,24,196087,1,0,3:0:0:0:
332,45,196360,1,0,3:2:0:0:
308,116,196633,5,0,3:2:0:0:
355,177,196769,1,0,3:2:0:0:
378,184,196837,1,0,3:2:0:0:
390,204,196906,2,0,L|403:243,1,33.3,0|0,3:0|3:0,2:0:0:0:
297,263,197042,2,0,L|310:302,1,33.3,0|0,3:0|3:0,2:0:0:0:
194,295,197178,5,4,3:2:0:0:
476,216,197315,1,8,2:0:0:0:
201,215,197451,2,0,P|154:220|123:256,1,97.1249999999999,0|0,3:2|3:2,2:0:0:0:
282,371,197587,1,10,2:0:0:0:
494,346,197724,6,0,P|439:330|287:289,1,194.25,2|8,2:0|2:0,2:0:0:0:
52,217,197997,1,2,3:2:0:0:
45,205,198065,1,0,3:2:0:0:
56,206,198133,1,10,3:2:0:0:
191,384,198269,6,0,P|203:309|160:275,2,97.1249999999999,2|0|8,3:2|2:0|2:0,2:0:0:0:
341,262,198542,2,0,P|323:218|281:197,2,97.1249999999999,10|0|0,3:2|3:2|3:2,2:0:0:0:
472,28,198815,6,0,P|413:101|319:98,1,194.25,2|8,3:2|2:0,2:0:0:0:
242,76,199087,1,10,3:2:0:0:
234,68,199156,1,0,3:2:0:0:
248,66,199224,1,0,3:2:0:0:
512,117,199360,5,2,3:2:0:0:
280,196,199497,1,8,2:0:0:0:
459,312,199633,2,0,P|493:278|496:232,1,97.1249999999999,0|0,3:2|2:0,2:0:0:0:
353,168,199769,1,8,2:0:0:0:
383,323,199906,5,2,3:2:0:0:
436,83,200042,1,10,2:0:0:0:
397,236,200178,1,10,2:0:0:0:
399,249,200247,1,0,3:0:0:0:
411,239,200315,1,2,3:2:0:0:
161,203,200451,5,2,3:2:0:0:
232,375,200587,2,0,L|258:275,1,97.1249999999999,8|0,2:0|2:0,2:0:0:0:
280,196,200724,2,0,P|194:225|138:311,2,194.25,2|10|2,3:2|2:0|3:2,2:0:0:0:
0,177,201133,2,0,P|21:212|23:280,1,97.1249999999999,8|0,2:0|2:0,2:0:0:0:
63,336,201269,1,10,3:2:0:0:
61,341,201337,1,0,2:0:0:0:
59,347,201406,1,0,3:0:0:0:
58,353,201474,1,0,3:0:0:0:
56,359,201542,5,2,3:2:0:0:
283,181,201678,1,8,2:0:0:0:
138,308,201815,2,0,L|241:331,1,97.1249999999999,0|0,3:2|3:0,2:0:0:0:
316,346,201951,1,10,2:0:0:0:
352,133,202087,5,2,3:2:0:0:
399,364,202224,2,0,P|445:357|472:318,1,97.1249999999999,10|8,2:0|2:0,2:0:0:0:
508,239,202360,1,2,3:2:0:0:
505,225,202428,1,0,3:0:0:0:
493,233,202497,1,10,2:0:0:0:
204,239,202633,5,0,3:0:0:0:
316,346,202769,2,0,P|323:300|294:262,1,97.1249999999999,10|8,2:0|2:0,2:0:0:0:
140,298,202906,1,0,3:2:0:0:
130,308,202974,1,0,3:0:0:0:
143,312,203042,1,10,2:0:0:0:
232,329,203178,6,0,L|275:129,1,194.25,0|8,3:0|2:0,2:0:0:0:
296,12,203451,1,0,3:2:0:0:
305,0,203519,1,0,3:0:0:0:
311,15,203587,1,8,2:0:0:0:
357,200,203724,5,0,3:0:0:0:
404,34,203860,2,0,P|379:75|389:122,1,97.1249999999999,8|8,2:0|2:0,2:0:0:0:
465,93,203997,1,0,3:0:0:0:
477,89,204065,1,0,3:0:0:0:
466,79,204133,1,8,2:0:0:0:
272,139,204269,5,0,3:0:0:0:
495,232,204406,2,0,P|504:278|479:319,1,97.1249999999999,8|8,2:0|2:0,2:0:0:0:
259,384,204542,1,0,2:0:0:0:
232,310,204678,1,8,2:0:0:0:
204,216,204815,6,0,P|310:231|402:381,1,291.375,2|0,3:1|2:0,2:0:0:0:
393,384,205087,1,0,3:0:0:0:
157,331,205224,1,0,2:0:0:0:
186,141,205360,6,0,P|126:184|130:222,1,97.1249999999999,0|0,3:0|3:0,2:0:0:0:
48,194,205497,2,0,P|70:264|107:272,1,97.1249999999999,0|0,3:0|3:0,2:0:0:0:
60,358,205633,1,0,3:2:0:0:
65,356,205701,1,0,2:0:0:0:
71,354,205769,1,0,3:0:0:0:
77,353,205837,1,0,3:0:0:0:
83,351,205906,6,0,L|287:298,2,194.25,6|2|8,3:1|2:0|2:0,2:0:0:0:
413,273,206315,2,0,P|453:296|465:342,1,97.1249999999999,0|0,2:0|2:0,2:0:0:0:
381,349,206451,2,0,P|332:319|306:191,1,194.25,0|0,2:0|2:0,2:0:0:0:
506,58,206724,2,0,P|458:54|423:86,1,97.1249999999999,8|0,2:0|2:0,2:0:0:0:
381,175,206860,1,2,2:0:0:0:
65,189,206997,6,0,P|194:247|230:384,1,291.375,0|0,3:0|2:0,3:0:0:0:
217,384,207269,1,10,2:0:0:0:
381,175,207406,2,0,P|369:285|312:185,1,291.375,0|0,3:0|2:0,3:0:0:0:
328,119,207678,5,0,3:0:0:0:
327,110,207747,1,2,2:3:0:0:
325,100,207815,2,0,L|318:70,1,24.975,8|0,2:0|2:0,2:0:0:0:
306,1,208087,2,0,P|282:93|209:155,2,194.25,2|2|10,3:1|2:0|2:0,2:0:0:0:
490,340,208497,6,0,P|375:246|229:240,1,291.375,0|0,2:0|2:0,2:0:0:0:
228,256,208769,1,2,3:2:0:0:
512,210,208906,2,0,P|497:253|431:275,1,97.1249999999999,10|0,2:0|2:0,2:0:0:0:
366,301,209042,1,2,2:0:0:0:
76,247,209178,2,0,P|75:365|148:281,1,291.375,0|0,2:0|2:0,2:0:0:0:
117,182,209451,2,0,P|55:166|20:199,1,97.1249999999999,8|0,2:0|2:0,2:0:0:0:
211,373,209587,2,0,P|306:354|402:338,2,194.25,0|0|0,3:0|3:0|3:0,2:0:0:0:
199,375,209928,1,0,3:0:0:0:
188,379,209997,6,0,L|163:383,1,24.975,8|0,2:0|2:0,2:0:0:0:
0,362,210269,6,0,P|152:285|204:170,1,291.375,2|0,3:1|2:0,3:0:0:0:
219,182,210542,1,8,2:0:0:0:
512,384,210678,2,0,P|330:240|331:62,1,388.5,4|0,3:2|2:0,2:0:0:0:
257,266,211087,2,0,L|253:292,1,24.975,8|0,2:0|2:0,2:0:0:0:
252,301,211360,1,0,3:2:0:0:
250,311,211428,1,0,3:2:0:0:
248,319,211497,1,0,3:2:0:0:
247,328,211565,1,0,3:1:0:0:
244,337,211633,1,0,3:1:0:0:
253,30,211769,6,0,P|172:203|0:283,1,388.5,4|0,2:0|2:0,2:0:0:0:
63,167,212178,2,0,B|47:106|-29:101|-29:101|32:129|42:180,1,233.1,8|0,2:0|2:0,2:0:0:0:
57,186,212451,1,2,2:0:0:0:
365,354,212860,1,2,2:0:0:0:
365,354,212997,2,0,P|331:342|338:236,1,149.85,2|0,2:0|2:0,2:0:0:0:
369,213,213269,6,0,P|350:223|271:237,1,99.8999999999999,2|0,2:0|2:0,2:0:0:0:
167,215,213542,1,2,2:0:0:0:
