osu file format v14

[General]
AudioFilename: audio.ogg
AudioLeadIn: 0
PreviewTime: 142490
Countdown: 0
SampleSet: Soft
StackLeniency: 0.7
Mode: 0
LetterboxInBreaks: 0
WidescreenStoryboard: 1

[Editor]
Bookmarks: 163801,186260,228227
DistanceSpacing: 1.1
BeatDivisor: 4
GridSize: 16
TimelineZoom: 1.3

[Metadata]
Title:Heat abnormal
TitleUnicode:熱異常
Artist:Iyowa feat. Adachi Rei
ArtistUnicode:いよわ feat. 足立レイ
Creator:Ryuusei Aika
Version:SupaV's Abnormally Hard
Source:
Tags:Kardshark Mniam SupaV THAT_otaku Deppyforce Netsu Ijou Thermal Abnormaly 初音ミク Hatsune Miku Vocaloid ボーカロイド ボカロ UTAU Japanese Electronic
BeatmapID:4358417
BeatmapSetID:2058976

[Difficulty]
HPDrainRate:4
CircleSize:4
OverallDifficulty:6
ApproachRate:7
SliderMultiplier:1.38
SliderTickRate:1

[Events]
//Background and Video events
0,0,"bg.jpg",0,0
//Break Periods
2,165277,185210
//Storyboard Layer 0 (Background)
//Storyboard Layer 1 (Fail)
//Storyboard Layer 2 (Pass)
//Storyboard Layer 3 (Foreground)
//Storyboard Layer 4 (Overlay)
//Storyboard Sound Samples

[TimingPoints]
32,327.868852459016,4,2,1,50,1,0
32,-166.666666666667,4,2,1,50,0,0
359,-166.666666666667,4,2,1,50,0,0
686,-166.666666666667,4,2,1,50,0,0
1670,-166.666666666667,4,2,1,50,0,0
2162,-166.666666666667,4,2,1,50,0,0
2326,-166.666666666667,4,2,1,50,0,0
2490,-166.666666666667,4,2,1,50,0,0
2654,-166.666666666667,4,2,1,50,0,0
5933,-166.666666666667,4,2,1,50,0,0
6589,-166.666666666667,4,2,1,50,0,0
7736,-166.666666666667,4,2,1,50,0,0
7900,-166.666666666667,4,2,1,50,0,0
11178,-166.666666666667,4,2,1,50,0,0
11506,-166.666666666667,4,2,1,50,0,0
11999,-166.666666666667,4,2,1,50,0,0
12163,-166.666666666667,4,2,1,50,0,0
12654,-166.666666666667,4,2,1,50,0,0
12818,-166.666666666667,4,2,1,50,0,0
12982,-166.666666666667,4,2,1,50,0,0
13146,-166.666666666667,4,2,1,50,0,0
16260,-166.666666666667,4,2,1,50,0,0
16424,-166.666666666667,4,2,1,50,0,0
16588,-166.666666666667,4,2,1,50,0,0
16753,-166.666666666667,4,2,1,50,0,0
16917,-166.666666666667,4,2,1,50,0,0
17081,-166.666666666667,4,2,1,50,0,0
17163,-166.666666666667,4,2,1,50,0,0
17736,-166.666666666667,4,2,1,50,0,0
17899,-166.666666666667,4,2,1,50,0,0
18063,-166.666666666667,4,2,1,50,0,0
18227,-166.666666666667,4,2,1,50,0,0
18392,-166.666666666667,4,2,1,50,0,0
21507,-166.666666666667,4,2,1,50,0,0
21671,327.868852459016,4,2,2,60,1,0
21671,-111.111111111111,4,2,2,60,0,0
21998,-111.111111111111,4,2,1,60,0,0
22243,-111.111111111111,4,2,1,60,0,0
22325,-111.111111111111,4,2,1,60,0,0
22407,-111.111111111111,4,2,1,60,0,0
22654,-111.111111111111,4,2,1,60,0,0
22900,-111.111111111111,4,2,1,60,0,0
22982,-111.111111111111,4,2,1,60,0,0
23145,-111.111111111111,4,2,1,60,0,0
23310,-111.111111111111,4,2,1,60,0,0
23474,-111.111111111111,4,2,1,60,0,0
23638,-111.111111111111,4,2,1,60,0,0
23719,-111.111111111111,4,2,1,60,0,0
23964,-111.111111111111,4,2,1,60,0,0
24211,-111.111111111111,4,2,1,60,0,0
24293,-111.111111111111,4,2,1,60,0,0
24784,-111.111111111111,4,2,1,60,0,0
24948,-111.111111111111,4,2,1,60,0,0
25113,-111.111111111111,4,2,1,60,0,0
25277,-111.111111111111,4,2,1,60,0,0
25358,-111.111111111111,4,2,1,60,0,0
25440,-111.111111111111,4,2,1,60,0,0
25522,-111.111111111111,4,2,1,60,0,0
25605,-111.111111111111,4,2,1,60,0,0
25851,-111.111111111111,4,2,1,60,0,0
25933,-111.111111111111,4,2,1,60,0,0
26096,-111.111111111111,4,2,1,60,0,0
26261,-111.111111111111,4,2,1,60,0,0
26425,-111.111111111111,4,2,1,60,0,0
26589,-111.111111111111,4,2,1,60,0,0
26834,-111.111111111111,4,2,1,60,0,0
26916,-111.111111111111,4,2,1,60,0,0
27407,-111.111111111111,4,2,1,60,0,0
27572,-111.111111111111,4,2,1,60,0,0
27653,-111.111111111111,4,2,1,60,0,0
27735,-111.111111111111,4,2,1,60,0,0
27900,-111.111111111111,4,2,1,60,0,0
28064,-111.111111111111,4,2,1,60,0,0
28145,-111.111111111111,4,2,1,60,0,0
28227,-111.111111111111,4,2,1,60,0,0
28392,-111.111111111111,4,2,1,60,0,0
28556,-111.111111111111,4,2,1,60,0,0
28637,-111.111111111111,4,2,1,60,0,0
28719,-111.111111111111,4,2,1,60,0,0
28884,-111.111111111111,4,2,1,60,0,0
29048,-111.111111111111,4,2,1,60,0,0
29129,-111.111111111111,4,2,1,60,0,0
29211,-111.111111111111,4,2,1,60,0,0
29376,-111.111111111111,4,2,1,60,0,0
29539,-111.111111111111,4,2,1,60,0,0
29620,-111.111111111111,4,2,1,60,0,0
29702,-111.111111111111,4,2,1,60,0,0
29867,-111.111111111111,4,2,1,60,0,0
30031,-111.111111111111,4,2,1,60,0,0
30112,-111.111111111111,4,2,1,60,0,0
30194,-111.111111111111,4,2,1,60,0,0
30359,-111.111111111111,4,2,1,60,0,0
30523,-111.111111111111,4,2,1,60,0,0
30604,-111.111111111111,4,2,1,60,0,0
30686,-111.111111111111,4,2,1,60,0,0
30851,-111.111111111111,4,2,1,60,0,0
31014,-111.111111111111,4,2,1,60,0,0
31096,-111.111111111111,4,2,1,60,0,0
31179,-111.111111111111,4,2,1,60,0,0
31425,-111.111111111111,4,2,1,60,0,0
31507,-111.111111111111,4,2,1,60,0,0
31670,-111.111111111111,4,2,1,60,0,0
31752,-111.111111111111,4,2,1,60,0,0
31997,-111.111111111111,4,2,1,60,0,0
32162,-111.111111111111,4,2,2,60,0,0
32490,-111.111111111111,4,2,1,60,0,0
32735,-111.111111111111,4,2,1,60,0,0
32817,-111.111111111111,4,2,1,60,0,0
32899,-111.111111111111,4,2,1,60,0,0
33146,-111.111111111111,4,2,1,60,0,0
33392,-111.111111111111,4,2,1,60,0,0
33474,-111.111111111111,4,2,1,60,0,0
33637,-111.111111111111,4,2,1,60,0,0
33802,-111.111111111111,4,2,1,60,0,0
33966,-111.111111111111,4,2,1,60,0,0
34129,-111.111111111111,4,2,1,60,0,0
34211,-111.111111111111,4,2,1,60,0,0
34456,-111.111111111111,4,2,1,60,0,0
34703,-111.111111111111,4,2,1,60,0,0
34785,-111.111111111111,4,2,1,60,0,0
35359,-111.111111111111,4,2,1,60,0,0
35441,-111.111111111111,4,2,1,60,0,0
35522,-111.111111111111,4,2,1,60,0,0
35769,-111.111111111111,4,2,1,60,0,0
35932,-111.111111111111,4,2,1,60,0,0
36097,-111.111111111111,4,2,1,60,0,0
36260,-111.111111111111,4,2,1,60,0,0
36425,-111.111111111111,4,2,1,60,0,0
36507,-111.111111111111,4,2,1,60,0,0
36752,-111.111111111111,4,2,1,60,0,0
36833,-111.111111111111,4,2,1,60,0,0
36915,-111.111111111111,4,2,1,60,0,0
36997,-111.111111111111,4,2,1,60,0,0
37080,-111.111111111111,4,2,1,60,0,0
37326,-111.111111111111,4,2,1,60,0,0
37408,-111.111111111111,4,2,1,60,0,0
37571,-111.111111111111,4,2,1,60,0,0
37736,-111.111111111111,4,2,1,60,0,0
37900,-111.111111111111,4,2,1,60,0,0
38063,-111.111111111111,4,2,1,60,0,0
38392,-111.111111111111,4,2,1,60,0,0
38555,-111.111111111111,4,2,1,60,0,0
38884,-111.111111111111,4,2,1,60,0,0
39047,-111.111111111111,4,2,1,60,0,0
39376,-111.111111111111,4,2,1,60,0,0
39539,-111.111111111111,4,2,1,60,0,0
39867,-111.111111111111,4,2,1,60,0,0
40030,-111.111111111111,4,2,1,60,0,0
40359,-111.111111111111,4,2,1,60,0,0
40522,-111.111111111111,4,2,1,60,0,0
40851,-111.111111111111,4,2,1,60,0,0
41014,-111.111111111111,4,2,1,60,0,0
41343,-111.111111111111,4,2,1,60,0,0
41506,-111.111111111111,4,2,1,60,0,0
41588,-111.111111111111,4,2,1,60,0,0
41671,-111.111111111111,4,2,1,60,0,0
41917,-111.111111111111,4,2,1,60,0,0
41999,-111.111111111111,4,2,1,60,0,0
42162,-111.111111111111,4,2,1,60,0,0
42244,-111.111111111111,4,2,1,60,0,0
43966,-100,4,2,2,60,0,0
44293,-100,4,2,1,60,0,0
44457,-100,4,2,1,60,0,0
44621,-100,4,2,1,60,0,0
45195,-100,4,2,1,60,0,0
45277,-100,4,2,1,60,0,0
45440,-100,4,2,1,60,0,0
45605,-100,4,2,1,60,0,0
45687,-100,4,2,1,60,0,0
45769,-100,4,2,1,60,0,0
46014,-100,4,2,1,60,0,0
46261,-100,4,2,1,60,0,0
46424,-100,4,2,1,60,0,0
46589,-100,4,2,1,60,0,0
46998,-100,4,2,1,60,0,0
47080,-100,4,2,1,60,0,0
47408,-100,4,2,1,60,0,0
47571,-100,4,2,1,60,0,0
47653,-100,4,2,1,60,0,0
47736,-100,4,2,1,60,0,0
48146,-100,4,2,1,60,0,0
48228,-100,4,2,1,60,0,0
48392,-100,4,2,1,60,0,0
48555,-100,4,2,1,60,0,0
48637,-100,4,2,1,60,0,0
48884,-100,4,2,1,60,0,0
49130,-100,4,2,1,60,0,0
49211,-100,4,2,1,60,0,0
49539,-100,4,2,1,60,0,0
49703,-100,4,2,1,60,0,0
49784,-100,4,2,1,60,0,0
49866,-100,4,2,1,60,0,0
50031,-100,4,2,1,60,0,0
50195,-100,4,2,1,60,0,0
50276,-100,4,2,1,60,0,0
50358,-100,4,2,1,60,0,0
50523,-100,4,2,1,60,0,0
50687,-100,4,2,1,60,0,0
50768,-100,4,2,1,60,0,0
50850,-100,4,2,1,60,0,0
51015,-100,4,2,1,60,0,0
51179,-100,4,2,1,60,0,0
51260,-100,4,2,1,60,0,0
51342,-100,4,2,1,60,0,0
51507,-100,4,2,1,60,0,0
51671,-100,4,2,1,60,0,0
51752,-100,4,2,1,60,0,0
51834,-100,4,2,1,60,0,0
51998,-100,4,2,1,60,0,0
52162,-100,4,2,1,60,0,0
52243,-100,4,2,1,60,0,0
52325,-100,4,2,1,60,0,0
52490,-100,4,2,1,60,0,0
52654,-100,4,2,1,60,0,0
52735,-100,4,2,1,60,0,0
52817,-100,4,2,1,60,0,0
52982,-100,4,2,1,60,0,0
53146,-100,4,2,1,60,0,0
53227,-100,4,2,1,60,0,0
53309,-100,4,2,1,60,0,0
53474,-100,4,2,1,60,0,0
53802,-100,4,2,1,60,0,0
53965,-100,4,2,1,60,0,0
54048,-100,4,2,1,60,0,0
54293,-100,4,2,1,60,0,0
54457,-100,4,2,2,60,0,0
54785,-100,4,2,1,80,0,0
54948,-100,4,2,1,80,0,0
55113,-100,4,2,1,80,0,0
55522,-100,4,2,1,80,0,0
55604,-100,4,2,1,80,0,0
55686,-100,4,2,1,80,0,0
55769,-100,4,2,1,80,0,0
55933,-100,4,2,1,80,0,0
56096,-100,4,2,1,80,0,0
56178,-100,4,2,1,80,0,0
56425,-100,4,2,1,80,0,0
56589,-100,4,2,1,80,0,0
56752,-100,4,2,1,80,0,0
56998,-100,4,2,1,80,0,0
57080,-100,4,2,1,80,0,0
57243,-100,4,2,1,80,0,0
57408,-100,4,2,1,80,0,0
57571,-100,4,2,1,80,0,0
57736,-100,4,2,1,80,0,0
57900,-100,4,2,1,80,0,0
58064,-100,4,2,1,80,0,0
58555,-100,4,2,1,80,0,0
58720,-100,4,2,1,80,0,0
58883,-100,4,2,1,80,0,0
59048,-100,4,2,1,80,0,0
59130,-100,4,2,1,80,0,0
59211,-100,4,2,1,80,0,0
59538,-100,4,2,1,80,0,0
59703,-166.666666666667,4,2,1,80,0,0
59949,-166.666666666667,4,2,1,80,0,0
60031,-166.666666666667,4,2,1,80,0,0
60112,-166.666666666667,4,2,1,80,0,0
60359,-166.666666666667,4,2,1,80,0,0
60440,-166.666666666667,4,2,1,80,0,0
60522,-166.666666666667,4,2,1,80,0,0
60604,-166.666666666667,4,2,1,80,0,0
60851,-166.666666666667,4,2,1,80,0,0
60932,-166.666666666667,4,2,1,80,0,0
61014,-166.666666666667,4,2,1,80,0,0
61096,-166.666666666667,4,2,1,80,0,0
61343,-166.666666666667,4,2,1,80,0,0
61424,-166.666666666667,4,2,1,80,0,0
61506,-166.666666666667,4,2,1,80,0,0
61588,-166.666666666667,4,2,1,80,0,0
61834,-166.666666666667,4,2,1,80,0,0
61915,-166.666666666667,4,2,1,80,0,0
61997,-166.666666666667,4,2,1,80,0,0
62079,-166.666666666667,4,2,1,80,0,0
62326,-166.666666666667,4,2,1,80,0,0
62407,-166.666666666667,4,2,1,80,0,0
62489,-166.666666666667,4,2,1,80,0,0
62571,-166.666666666667,4,2,1,80,0,0
62818,-166.666666666667,4,2,1,80,0,0
62899,-166.666666666667,4,2,1,80,0,0
62981,-166.666666666667,4,2,1,80,0,0
63063,-166.666666666667,4,2,1,80,0,0
63310,-166.666666666667,4,2,1,80,0,0
63391,-166.666666666667,4,2,1,80,0,0
63473,-166.666666666667,4,2,1,80,0,0
63555,-166.666666666667,4,2,1,80,0,0
63802,-166.666666666667,4,2,1,80,0,0
64047,-166.666666666667,4,2,1,80,0,0
64293,-166.666666666667,4,2,1,80,0,0
66261,-83.3333333333333,4,2,1,80,0,0
66589,-83.3333333333333,4,2,2,80,0,0
67735,-83.3333333333333,4,2,2,80,0,0
67900,-83.3333333333333,4,2,2,80,0,0
68063,-83.3333333333333,4,2,2,80,0,0
68228,-83.3333333333333,4,2,2,80,0,0
69211,-83.3333333333333,4,2,2,80,0,0
69375,-83.3333333333333,4,2,2,80,0,0
69702,-83.3333333333333,4,2,2,80,0,0
69867,-83.3333333333333,4,2,2,80,0,0
71507,-83.3333333333333,4,2,1,80,0,0
71834,-83.3333333333333,4,2,2,80,0,0
72981,-83.3333333333333,4,2,2,80,0,0
73146,-83.3333333333333,4,2,2,80,0,0
73965,-83.3333333333333,4,2,2,80,0,0
74457,-83.3333333333333,4,2,2,80,0,0
75276,-83.3333333333333,4,2,2,80,0,0
75441,-83.3333333333333,4,2,2,80,0,0
76752,-83.3333333333333,4,2,1,80,0,0
76916,-83.3333333333333,4,2,2,80,0,0
77080,-83.3333333333333,4,2,2,80,0,0
77408,-83.3333333333333,4,2,1,80,0,0
77572,-83.3333333333333,4,2,2,80,0,0
77736,-83.3333333333333,4,2,1,80,0,0
77900,-83.3333333333333,4,2,2,80,0,0
78064,-83.3333333333333,4,2,1,80,0,0
78228,-83.3333333333333,4,2,2,80,0,0
78392,-83.3333333333333,4,2,1,80,0,0
78556,-83.3333333333333,4,2,2,80,0,0
78720,-83.3333333333333,4,2,1,80,0,0
78884,-83.3333333333333,4,2,3,80,0,0
79048,-83.3333333333333,4,2,1,80,0,0
79211,-83.3333333333333,4,2,3,80,0,0
79375,-83.3333333333333,4,2,1,80,0,0
79539,-83.3333333333333,4,2,2,80,0,0
79703,-83.3333333333333,4,2,1,80,0,0
79867,-83.3333333333333,4,2,3,80,0,0
80031,-83.3333333333333,4,2,1,80,0,0
80195,-83.3333333333333,4,2,2,80,0,0
80359,-83.3333333333333,4,2,1,80,0,0
80523,-83.3333333333333,4,2,3,80,0,0
80687,-83.3333333333333,4,2,1,80,0,0
80851,-83.3333333333333,4,2,2,80,0,0
81015,-83.3333333333333,4,2,1,80,0,0
81179,-83.3333333333333,4,2,2,80,0,0
81343,-83.3333333333333,4,2,1,80,0,0
81507,-83.3333333333333,4,2,2,80,0,0
81670,-83.3333333333333,4,2,1,80,0,0
81834,-83.3333333333333,4,2,3,80,0,0
81998,-83.3333333333333,4,2,1,80,0,0
82162,-83.3333333333333,4,2,2,80,0,0
82326,-83.3333333333333,4,2,1,80,0,0
82490,-83.3333333333333,4,2,2,80,0,0
82654,-83.3333333333333,4,2,1,80,0,0
82818,-83.3333333333333,4,2,2,80,0,0
82982,-83.3333333333333,4,2,1,80,0,0
83146,-83.3333333333333,4,2,3,80,0,0
83310,-83.3333333333333,4,2,1,80,0,0
83474,-83.3333333333333,4,2,2,80,0,0
83638,-83.3333333333333,4,2,1,80,0,0
83802,-83.3333333333333,4,2,3,80,0,0
83966,-83.3333333333333,4,2,1,80,0,0
84130,-83.3333333333333,4,2,3,80,0,0
84293,-83.3333333333333,4,2,1,80,0,0
84457,-83.3333333333333,4,2,2,80,0,0
84621,-83.3333333333333,4,2,1,80,0,0
84785,-83.3333333333333,4,2,2,80,0,0
84949,-83.3333333333333,4,2,1,80,0,0
85113,-83.3333333333333,4,2,3,80,0,0
85277,-83.3333333333333,4,2,1,80,0,0
85441,-83.3333333333333,4,2,3,80,0,0
85605,-83.3333333333333,4,2,1,80,0,0
85769,-83.3333333333333,4,2,3,80,0,0
85933,-83.3333333333333,4,2,1,80,0,0
86097,-83.3333333333333,4,2,3,80,0,0
86261,-83.3333333333333,4,2,1,80,0,0
86425,-83.3333333333333,4,2,3,80,0,0
86507,-83.3333333333333,4,2,4,80,0,0
86589,-83.3333333333333,4,2,1,80,0,0
86752,-83.3333333333333,4,2,3,80,0,0
86916,-83.3333333333333,4,2,1,80,0,0
87080,-83.3333333333333,4,2,3,80,0,0
87244,-83.3333333333333,4,2,1,50,0,0
87407,-83.3333333333333,4,2,1,50,0,0
87900,327.868852459016,4,2,1,50,1,0
87900,-166.666666666667,4,2,1,50,0,0
88227,-166.666666666667,4,2,1,50,0,0
90522,-166.666666666667,4,2,1,50,0,0
90850,-166.666666666667,4,2,1,50,0,0
93145,-166.666666666667,4,2,1,50,0,0
98554,-166.666666666667,4,2,1,50,0,0
98719,-166.666666666667,4,2,1,50,0,0
100850,-166.666666666667,4,2,1,50,0,0
101014,-166.666666666667,4,2,1,50,0,0
101177,-166.666666666667,4,2,1,50,0,0
101342,-166.666666666667,4,2,1,50,0,0
103473,-166.666666666667,4,2,1,50,0,0
103637,-166.666666666667,4,2,1,50,0,0
103800,-166.666666666667,4,2,1,50,0,0
103965,-166.666666666667,4,2,1,50,0,0
106096,-166.666666666667,4,2,1,50,0,0
106260,-166.666666666667,4,2,1,50,0,0
106423,-166.666666666667,4,2,1,50,0,0
106588,-166.666666666667,4,2,1,50,0,0
108719,-166.666666666667,4,2,1,50,0,0
110195,-100,4,2,2,60,0,0
110522,-100,4,2,1,60,0,0
110767,-100,4,2,1,60,0,0
110849,-100,4,2,1,60,0,0
110931,-100,4,2,1,60,0,0
111178,-100,4,2,1,60,0,0
111260,-100,4,2,1,60,0,0
111505,-100,4,2,1,60,0,0
111670,-100,4,2,1,60,0,0
111833,-100,4,2,1,60,0,0
111916,-100,4,2,1,60,0,0
111998,-100,4,2,1,60,0,0
112243,-100,4,2,1,60,0,0
112490,-100,4,2,1,60,0,0
112654,-100,4,2,1,60,0,0
112818,-100,4,2,1,60,0,0
113309,-100,4,2,1,60,0,0
113473,-100,4,2,1,60,0,0
113554,-100,4,2,1,60,0,0
113801,-100,4,2,1,60,0,0
114047,-100,4,2,1,60,0,0
114129,-100,4,2,1,60,0,0
114293,-100,4,2,1,60,0,0
114456,-100,4,2,1,60,0,0
114621,-100,4,2,1,60,0,0
114785,-100,4,2,1,60,0,0
114949,-100,4,2,1,60,0,0
115112,-100,4,2,1,60,0,0
115359,-100,4,2,1,60,0,0
115440,-100,4,2,1,60,0,0
115603,-100,4,2,1,60,0,0
115768,-100,4,2,1,60,0,0
115932,-100,4,2,1,60,0,0
116095,-100,4,2,1,60,0,0
116424,-100,4,2,1,60,0,0
116587,-100,4,2,1,60,0,0
116916,-100,4,2,1,60,0,0
117079,-100,4,2,1,60,0,0
117408,-100,4,2,1,60,0,0
117571,-100,4,2,1,60,0,0
117900,-100,4,2,1,60,0,0
118063,-100,4,2,1,60,0,0
118391,-100,4,2,1,60,0,0
118554,-100,4,2,1,60,0,0
118883,-100,4,2,1,60,0,0
119046,-100,4,2,1,60,0,0
119539,-100,4,2,1,60,0,0
119703,-100,4,2,1,60,0,0
119949,-100,4,2,1,60,0,0
120031,-100,4,2,1,60,0,0
120194,-100,4,2,1,60,0,0
120277,-100,4,2,1,60,0,0
120522,-100,4,2,1,60,0,0
120686,-100,4,2,2,60,0,0
121014,-100,4,2,1,60,0,0
121178,-100,4,2,1,60,0,0
121341,-100,4,2,1,60,0,0
121423,-100,4,2,1,60,0,0
121506,-100,4,2,1,60,0,0
121751,-100,4,2,1,60,0,0
121833,-100,4,2,1,60,0,0
121915,-100,4,2,1,60,0,0
121998,-100,4,2,1,60,0,0
122162,-100,4,2,1,60,0,0
122326,-100,4,2,1,60,0,0
122407,-100,4,2,1,60,0,0
122654,-100,4,2,1,60,0,0
122818,-100,4,2,1,60,0,0
122981,-100,4,2,1,60,0,0
123227,-100,4,2,1,60,0,0
123309,-100,4,2,1,60,0,0
123472,-100,4,2,1,60,0,0
123637,-100,4,2,1,60,0,0
124129,-100,4,2,1,60,0,0
124293,-100,4,2,1,60,0,0
124538,-100,4,2,1,60,0,0
124620,-100,4,2,1,60,0,0
124702,-100,4,2,1,60,0,0
124949,-100,4,2,1,60,0,0
125112,-100,4,2,1,60,0,0
125277,-100,4,2,1,60,0,0
125440,-100,4,2,1,60,0,0
125603,-100,4,2,1,60,0,0
125768,-100,4,2,1,60,0,0
125932,-166.666666666667,4,2,1,60,0,0
126178,-166.666666666667,4,2,1,60,0,0
126260,-166.666666666667,4,2,1,50,0,0
126341,-166.666666666667,4,2,1,50,0,0
126588,-166.666666666667,4,2,1,50,0,0
126669,-166.666666666667,4,2,1,50,0,0
126751,-166.666666666667,4,2,1,50,0,0
126833,-166.666666666667,4,2,1,50,0,0
127080,-166.666666666667,4,2,1,50,0,0
127161,-166.666666666667,4,2,1,50,0,0
127243,-166.666666666667,4,2,1,50,0,0
127325,-166.666666666667,4,2,1,50,0,0
127572,-166.666666666667,4,2,1,50,0,0
127653,-166.666666666667,4,2,1,50,0,0
127735,-166.666666666667,4,2,1,50,0,0
127817,-166.666666666667,4,2,1,50,0,0
128063,-166.666666666667,4,2,1,50,0,0
128144,-166.666666666667,4,2,1,50,0,0
128226,-166.666666666667,4,2,1,50,0,0
128308,-166.666666666667,4,2,1,50,0,0
128555,-166.666666666667,4,2,1,50,0,0
128636,-166.666666666667,4,2,1,50,0,0
128718,-166.666666666667,4,2,1,50,0,0
128800,-166.666666666667,4,2,1,50,0,0
129047,-166.666666666667,4,2,1,50,0,0
129128,-166.666666666667,4,2,1,50,0,0
129210,-166.666666666667,4,2,1,50,0,0
129292,-166.666666666667,4,2,1,50,0,0
129539,-166.666666666667,4,2,1,50,0,0
129620,-166.666666666667,4,2,1,50,0,0
129702,-166.666666666667,4,2,1,50,0,0
129784,-166.666666666667,4,2,1,50,0,0
130031,-166.666666666667,4,2,1,50,0,0
130113,-166.666666666667,4,2,1,50,0,0
130195,-166.666666666667,4,2,1,50,0,0
130276,-166.666666666667,4,2,1,50,0,0
130522,-166.666666666667,4,2,1,50,0,0
131013,-166.666666666667,4,2,1,50,0,0
131178,-166.666666666667,4,2,1,50,0,0
131916,-166.666666666667,4,2,1,50,0,0
132161,-166.666666666667,4,2,1,50,0,0
132408,-166.666666666667,4,2,1,50,0,0
132490,-125,4,2,1,50,0,0
132735,-125,4,2,1,50,0,0
142490,-125,4,2,1,50,0,0
142899,-125,4,2,1,50,0,0
142981,-100,4,2,2,60,0,0
143144,-100,4,2,2,60,0,0
143309,-100,4,2,2,60,0,0
143473,-100,4,2,1,60,0,0
143636,-100,4,2,1,60,0,0
143965,-100,4,2,2,60,0,0
144128,-100,4,2,2,60,0,0
144293,-100,4,2,1,60,0,0
144538,-100,4,2,1,60,0,0
144621,-100,4,2,2,60,0,0
144785,-100,4,2,1,60,0,0
145277,-100,4,2,2,60,0,0
145440,-100,4,2,2,60,0,0
145604,-100,4,2,1,60,0,0
145767,-100,4,2,1,60,0,0
145932,-100,4,2,2,60,0,0
146096,-100,4,2,1,60,0,0
146259,-100,4,2,1,60,0,0
146588,-100,4,2,2,60,0,0
146751,-100,4,2,2,60,0,0
146916,-100,4,2,1,60,0,0
147161,-100,4,2,1,60,0,0
147244,-100,4,2,2,60,0,0
147408,-100,4,2,1,60,0,0
147899,-100,4,2,2,60,0,0
148063,-100,4,2,2,60,0,0
148227,-100,4,2,1,60,0,0
148472,-100,4,2,1,60,0,0
148555,-100,4,2,2,60,0,0
148719,-100,4,2,1,60,0,0
148883,-100,4,2,1,60,0,0
149211,-100,4,2,2,60,0,0
149374,-100,4,2,2,60,0,0
149539,-100,4,2,1,60,0,0
149785,-100,4,2,1,60,0,0
149867,-100,4,2,2,60,0,0
149948,-100,4,2,2,60,0,0
150031,-100,4,2,1,60,0,0
150522,-100,4,2,2,60,0,0
150686,-100,4,2,2,60,0,0
150850,-100,4,2,1,60,0,0
151095,-100,4,2,1,60,0,0
151178,-100,4,2,2,60,0,0
151342,-100,4,2,1,60,0,0
151506,-100,4,2,1,60,0,0
151834,-100,4,2,2,60,0,0
151997,-100,4,2,2,60,0,0
152162,-100,4,2,1,60,0,0
152408,-100,4,2,1,60,0,0
152490,-100,4,2,2,60,0,0
152571,-100,4,2,2,60,0,0
152654,-100,4,2,1,60,0,0
153145,-100,4,2,2,60,0,0
153309,-100,4,2,2,60,0,0
153473,-100,4,2,2,60,0,0
153636,-100,4,2,2,60,0,0
153801,-100,4,2,2,60,0,0
153965,-100,4,2,1,60,0,0
154128,-100,4,2,1,60,0,0
154457,-100,4,2,2,60,0,0
154620,-100,4,2,2,60,0,0
154785,-100,4,2,1,60,0,0
155030,-100,4,2,1,60,0,0
155113,-100,4,2,2,60,0,0
155277,-100,4,2,1,60,0,0
155768,-100,4,2,2,60,0,0
155932,-100,4,2,2,60,0,0
156096,-100,4,2,1,60,0,0
156259,-100,4,2,1,60,0,0
156424,-100,4,2,2,60,0,0
156588,-100,4,2,1,60,0,0
156751,-100,4,2,1,60,0,0
157080,-100,4,2,2,60,0,0
157243,-100,4,2,2,60,0,0
157408,-100,4,2,1,60,0,0
157653,-100,4,2,1,60,0,0
157736,-100,4,2,2,60,0,0
157899,-100,4,2,1,60,0,0
158391,-100,4,2,2,60,0,0
158555,-100,4,2,2,60,0,0
158719,-100,4,2,1,60,0,0
158964,-100,4,2,1,60,0,0
159047,-100,4,2,2,60,0,0
159211,-100,4,2,1,60,0,0
159375,-100,4,2,1,60,0,0
159703,-100,4,2,2,60,0,0
159866,-100,4,2,2,60,0,0
160031,-100,4,2,1,60,0,0
160277,-100,4,2,1,60,0,0
160359,-100,4,2,2,60,0,0
160440,-100,4,2,2,60,0,0
160522,-100,4,2,1,60,0,0
161014,-100,4,2,2,60,0,0
161178,-100,4,2,2,60,0,0
161342,-100,4,2,1,60,0,0
161587,-100,4,2,1,60,0,0
161670,-100,4,2,2,60,0,0
161834,-100,4,2,1,60,0,0
161998,-100,4,2,1,60,0,0
162326,-100,4,2,2,60,0,0
162489,-100,4,2,2,60,0,0
162654,-100,4,2,1,60,0,0
162899,-100,4,2,1,60,0,0
162981,-100,4,2,2,60,0,0
163062,-100,4,2,2,60,0,0
163145,-100,4,2,1,60,0,0
163637,-100,4,2,2,80,0,0
163801,-100,4,2,2,50,0,0
165277,-100,4,2,2,30,0,0
186260,-83.3333333333333,4,2,1,80,0,0
186588,-83.3333333333333,4,2,2,80,0,0
187734,-83.3333333333333,4,2,2,80,0,0
187899,-83.3333333333333,4,2,2,80,0,0
188062,-83.3333333333333,4,2,2,80,0,0
188227,-83.3333333333333,4,2,2,80,0,0
189210,-83.3333333333333,4,2,2,80,0,0
189374,-83.3333333333333,4,2,2,80,0,0
189701,-83.3333333333333,4,2,2,80,0,0
189866,-83.3333333333333,4,2,2,80,0,0
191506,-83.3333333333333,4,2,1,80,0,0
191834,-83.3333333333333,4,2,2,80,0,0
192980,-83.3333333333333,4,2,2,80,0,0
193145,-83.3333333333333,4,2,2,80,0,0
193964,-83.3333333333333,4,2,2,80,0,0
194456,-83.3333333333333,4,2,2,80,0,0
195275,-83.3333333333333,4,2,2,80,0,0
195440,-83.3333333333333,4,2,2,80,0,0
195603,-83.3333333333333,4,2,2,80,0,0
195768,-83.3333333333333,4,2,2,80,0,0
196752,-83.3333333333333,4,2,1,80,0,0
196916,-83.3333333333333,4,2,2,80,0,0
197080,-83.3333333333333,4,2,1,80,0,0
197244,-83.3333333333333,4,2,2,80,0,0
197408,-83.3333333333333,4,2,1,80,0,0
197572,-83.3333333333333,4,2,2,80,0,0
197736,-83.3333333333333,4,2,1,80,0,0
197899,-83.3333333333333,4,2,2,80,0,0
198063,-83.3333333333333,4,2,1,80,0,0
198227,-83.3333333333333,4,2,2,80,0,0
198391,-83.3333333333333,4,2,1,80,0,0
198555,-83.3333333333333,4,2,2,80,0,0
198719,-83.3333333333333,4,2,1,80,0,0
198883,-83.3333333333333,4,2,3,80,0,0
199047,-83.3333333333333,4,2,1,80,0,0
199211,-83.3333333333333,4,2,3,80,0,0
199375,-83.3333333333333,4,2,1,80,0,0
199539,-83.3333333333333,4,2,2,80,0,0
199703,-83.3333333333333,4,2,1,80,0,0
199867,-83.3333333333333,4,2,3,80,0,0
200031,-83.3333333333333,4,2,1,80,0,0
200195,-83.3333333333333,4,2,2,80,0,0
200359,-83.3333333333333,4,2,1,80,0,0
200522,-83.3333333333333,4,2,3,80,0,0
200686,-83.3333333333333,4,2,1,80,0,0
200850,-83.3333333333333,4,2,2,80,0,0
201014,-83.3333333333333,4,2,1,80,0,0
201178,-83.3333333333333,4,2,2,80,0,0
201342,-83.3333333333333,4,2,1,80,0,0
201506,-83.3333333333333,4,2,2,80,0,0
201670,-83.3333333333333,4,2,1,80,0,0
201834,-83.3333333333333,4,2,3,80,0,0
201998,-83.3333333333333,4,2,1,80,0,0
202162,-83.3333333333333,4,2,2,80,0,0
202326,-83.3333333333333,4,2,1,80,0,0
202490,-83.3333333333333,4,2,2,80,0,0
202654,-83.3333333333333,4,2,1,80,0,0
202818,-83.3333333333333,4,2,2,80,0,0
202981,-83.3333333333333,4,2,1,80,0,0
203145,-83.3333333333333,4,2,3,80,0,0
203309,-83.3333333333333,4,2,1,80,0,0
203473,-83.3333333333333,4,2,2,80,0,0
203637,-83.3333333333333,4,2,1,80,0,0
203801,-83.3333333333333,4,2,3,80,0,0
203965,-83.3333333333333,4,2,1,80,0,0
204129,-83.3333333333333,4,2,3,80,0,0
204293,-83.3333333333333,4,2,1,80,0,0
204457,-83.3333333333333,4,2,2,80,0,0
204621,-83.3333333333333,4,2,1,80,0,0
204785,-83.3333333333333,4,2,2,80,0,0
204949,-83.3333333333333,4,2,1,80,0,0
205113,-83.3333333333333,4,2,3,80,0,0
205277,-83.3333333333333,4,2,1,80,0,0
205440,-83.3333333333333,4,2,3,80,0,0
205604,-83.3333333333333,4,2,1,80,0,0
205768,-83.3333333333333,4,2,3,80,0,0
205932,-83.3333333333333,4,2,1,80,0,0
206096,-83.3333333333333,4,2,3,80,0,0
206260,-83.3333333333333,4,2,1,80,0,0
206424,-83.3333333333333,4,2,3,80,0,0
206506,-83.3333333333333,4,2,3,80,0,0
206588,-83.3333333333333,4,2,1,80,0,0
206670,-83.3333333333333,4,2,4,80,0,0
206916,-83.3333333333333,4,2,1,80,0,0
207080,-83.3333333333333,4,2,3,80,0,0
207244,-83.3333333333333,4,2,1,80,0,0
207408,-83.3333333333333,4,2,2,80,0,0
207572,-83.3333333333333,4,2,1,80,0,0
207736,-83.3333333333333,4,2,3,80,0,0
207818,-83.3333333333333,4,2,1,80,0,0
207899,-83.3333333333333,4,2,1,80,0,0
208063,-83.3333333333333,4,2,3,80,0,0
208227,-83.3333333333333,4,2,1,80,0,0
208391,-83.3333333333333,4,2,3,80,0,0
208473,-83.3333333333333,4,2,1,80,0,0
208555,-83.3333333333333,4,2,1,80,0,0
208719,-83.3333333333333,4,2,3,80,0,0
208801,-83.3333333333333,4,2,1,80,0,0
208883,-83.3333333333333,4,2,1,80,0,0
209047,-83.3333333333333,4,2,3,80,0,0
209129,-83.3333333333333,4,2,1,80,0,0
209211,-83.3333333333333,4,2,1,80,0,0
209375,-83.3333333333333,4,2,3,80,0,0
209539,-83.3333333333333,4,2,1,80,0,0
209703,-83.3333333333333,4,2,3,80,0,0
209785,-83.3333333333333,4,2,1,80,0,0
209867,-83.3333333333333,4,2,1,80,0,0
210031,-83.3333333333333,4,2,3,80,0,0
210195,-83.3333333333333,4,2,1,80,0,0
210359,-83.3333333333333,4,2,3,80,0,0
210440,-83.3333333333333,4,2,1,80,0,0
210604,-83.3333333333333,4,2,1,80,0,0
210686,-83.3333333333333,4,2,3,80,0,0
210850,-83.3333333333333,4,2,1,80,0,0
210931,-83.3333333333333,4,2,1,80,0,0
211014,-83.3333333333333,4,2,3,80,0,0
211096,-83.3333333333333,4,2,1,80,0,0
211177,-83.3333333333333,4,2,1,80,0,0
211342,-83.3333333333333,4,2,3,80,0,0
211506,-83.3333333333333,4,2,1,80,0,0
211670,-83.3333333333333,4,2,3,80,0,0
211752,-83.3333333333333,4,2,1,80,0,0
211834,-83.3333333333333,4,2,1,80,0,0
211998,-83.3333333333333,4,2,3,80,0,0
212162,-83.3333333333333,4,2,1,80,0,0
212326,-83.3333333333333,4,2,3,80,0,0
212408,-83.3333333333333,4,2,3,80,0,0
212490,-83.3333333333333,4,2,1,80,0,0
212654,-83.3333333333333,4,2,3,80,0,0
212818,-83.3333333333333,4,2,1,80,0,0
212981,-83.3333333333333,4,2,3,80,0,0
213063,-83.3333333333333,4,2,1,80,0,0
213144,-83.3333333333333,4,2,1,80,0,0
213309,-83.3333333333333,4,2,3,80,0,0
213473,-83.3333333333333,4,2,1,80,0,0
213637,-83.3333333333333,4,2,3,80,0,0
213719,-83.3333333333333,4,2,1,80,0,0
213800,-83.3333333333333,4,2,1,80,0,0
213965,-83.3333333333333,4,2,3,80,0,0
214047,-83.3333333333333,4,2,1,80,0,0
214128,-83.3333333333333,4,2,1,80,0,0
214293,-83.3333333333333,4,2,3,80,0,0
214457,-83.3333333333333,4,2,1,80,0,0
214621,-83.3333333333333,4,2,3,80,0,0
214703,-83.3333333333333,4,2,1,80,0,0
214784,-83.3333333333333,4,2,1,80,0,0
214949,-83.3333333333333,4,2,3,80,0,0
215031,-83.3333333333333,4,2,1,80,0,0
215112,-83.3333333333333,4,2,1,80,0,0
215277,-83.3333333333333,4,2,3,80,0,0
215440,-83.3333333333333,4,2,1,80,0,0
215604,-83.3333333333333,4,2,3,80,0,0
215686,-83.3333333333333,4,2,1,80,0,0
215768,-83.3333333333333,4,2,1,80,0,0
215932,-83.3333333333333,4,2,3,80,0,0
216014,-83.3333333333333,4,2,1,80,0,0
216095,-83.3333333333333,4,2,1,80,0,0
216260,-83.3333333333333,4,2,3,80,0,0
216424,-83.3333333333333,4,2,1,80,0,0
216588,-83.3333333333333,4,2,3,80,0,0
216670,-83.3333333333333,4,2,1,80,0,0
216751,-83.3333333333333,4,2,1,80,0,0
216916,-83.3333333333333,4,2,4,80,0,0
216998,-83.3333333333333,4,2,4,80,0,0
217080,-83.3333333333333,4,2,1,80,0,0
217244,-83.3333333333333,4,2,5,80,0,0
217326,-83.3333333333333,4,2,1,80,0,0
217572,-83.3333333333333,4,2,2,80,0,0
217736,-83.3333333333333,4,2,1,80,0,0
217899,-83.3333333333333,4,2,2,80,0,0
218063,-83.3333333333333,4,2,1,80,0,0
218227,-83.3333333333333,4,2,3,80,0,0
218309,-83.3333333333333,4,2,1,80,0,0
218391,-83.3333333333333,4,2,1,80,0,0
218555,-83.3333333333333,4,2,3,80,0,0
218719,-83.3333333333333,4,2,1,80,0,0
218883,-83.3333333333333,4,2,3,80,0,0
218965,-83.3333333333333,4,2,1,80,0,0
219047,-83.3333333333333,4,2,1,80,0,0
219211,-83.3333333333333,4,2,3,80,0,0
219375,-83.3333333333333,4,2,1,80,0,0
219539,-83.3333333333333,4,2,3,80,0,0
219621,-83.3333333333333,4,2,1,80,0,0
219703,-83.3333333333333,4,2,1,80,0,0
219784,-83.3333333333333,4,2,1,80,0,0
219867,-83.3333333333333,4,2,3,80,0,0
219949,-83.3333333333333,4,2,1,80,0,0
220031,-83.3333333333333,4,2,1,80,0,0
220195,-83.3333333333333,4,2,3,80,0,0
220277,-83.3333333333333,4,2,1,80,0,0
220359,-83.3333333333333,4,2,1,80,0,0
220522,-83.3333333333333,4,2,3,80,0,0
220686,-83.3333333333333,4,2,1,80,0,0
220850,-83.3333333333333,4,2,3,80,0,0
220932,-83.3333333333333,4,2,1,80,0,0
221013,-83.3333333333333,4,2,1,80,0,0
221095,-83.3333333333333,4,2,1,80,0,0
221178,-83.3333333333333,4,2,3,80,0,0
221342,-83.3333333333333,4,2,1,80,0,0
221506,-83.3333333333333,4,2,3,80,0,0
221588,-83.3333333333333,4,2,1,80,0,0
221670,-83.3333333333333,4,2,1,80,0,0
221834,-83.3333333333333,4,2,3,80,0,0
221998,-83.3333333333333,4,2,1,80,0,0
222162,-83.3333333333333,4,2,3,80,0,0
222326,-83.3333333333333,4,2,1,80,0,0
222408,-83.3333333333333,4,2,1,80,0,0
222490,-83.3333333333333,4,2,3,80,0,0
222572,-83.3333333333333,4,2,1,80,0,0
222654,-83.3333333333333,4,2,1,80,0,0
222818,-83.3333333333333,4,2,3,80,0,0
222981,-83.3333333333333,4,2,1,80,0,0
223145,-83.3333333333333,4,2,3,80,0,0
223309,-83.3333333333333,4,2,1,80,0,0
223473,-83.3333333333333,4,2,3,80,0,0
223555,-83.3333333333333,4,2,1,80,0,0
223636,-83.3333333333333,4,2,1,80,0,0
223718,-83.3333333333333,4,2,1,80,0,0
223801,-83.3333333333333,4,2,3,80,0,0
223883,-83.3333333333333,4,2,1,80,0,0
224129,-83.3333333333333,4,2,3,80,0,0
224211,-83.3333333333333,4,2,1,80,0,0
224293,-83.3333333333333,4,2,1,80,0,0
224457,-83.3333333333333,4,2,3,80,0,0
224539,-83.3333333333333,4,2,1,80,0,0
224620,-83.3333333333333,4,2,1,80,0,0
224702,-83.3333333333333,4,2,1,80,0,0
224785,-83.3333333333333,4,2,3,80,0,0
224867,-83.3333333333333,4,2,1,80,0,0
225113,-83.3333333333333,4,2,3,80,0,0
225195,-83.3333333333333,4,2,1,80,0,0
225277,-83.3333333333333,4,2,1,80,0,0
225440,-83.3333333333333,4,2,3,80,0,0
225522,-83.3333333333333,4,2,1,80,0,0
225603,-83.3333333333333,4,2,1,80,0,0
225685,-83.3333333333333,4,2,1,80,0,0
225768,-83.3333333333333,4,2,3,80,0,0
225850,-83.3333333333333,4,2,1,80,0,0
226096,-83.3333333333333,4,2,3,80,0,0
226178,-83.3333333333333,4,2,1,80,0,0
226260,-83.3333333333333,4,2,1,80,0,0
226424,-83.3333333333333,4,2,3,80,0,0
226506,-83.3333333333333,4,2,1,80,0,0
226587,-83.3333333333333,4,2,1,80,0,0
226669,-83.3333333333333,4,2,1,80,0,0
226752,-83.3333333333333,4,2,3,80,0,0
226834,-83.3333333333333,4,2,1,80,0,0
227080,-83.3333333333333,4,2,3,80,0,0
227162,-83.3333333333333,4,2,1,80,0,0
227244,-83.3333333333333,4,2,1,80,0,0
227326,-83.3333333333333,4,2,4,80,0,0
227408,-83.3333333333333,4,2,3,80,0,0
227490,-83.3333333333333,4,2,1,80,0,0
227572,-83.3333333333333,4,2,1,80,0,0
227736,-83.3333333333333,4,2,6,80,0,0
227818,-83.3333333333333,4,2,4,80,0,0
227899,-83.3333333333333,4,2,1,80,0,0
228063,-83.3333333333333,4,2,4,80,0,0
228227,-83.3333333333333,4,2,1,80,0,0

[Colours]
Combo1 : 32,183,255
Combo2 : 255,64,64
Combo3 : 255,128,128
Combo4 : 223,112,0
Combo5 : 255,175,96
Combo6 : 0,159,80
Combo7 : 0,255,128
Combo8 : 0,128,192

[HitObjects]
254,80,359,6,0,B|258:73|258:73|244:-14,2,82.7999974731446,2|2|2,1:2|1:2|1:2,0:0:0:0:
171,224,1343,2,0,L|79:212,1,82.7999974731446,2|2,1:2|1:2,0:0:0:0:
8,358,1999,2,0,B|-2:334|-2:334|3:312,3,41.3999987365723,2|2|2|2,1:2|2:2|1:2|1:2,0:0:0:0:
6,236,2654,1,2,1:2:0:0:
255,0,5769,5,0,0:0:0:0:
255,0,5933,2,0,L|268:92,1,82.7999974731446,2|2,1:2|1:2,0:0:0:0:
331,142,6425,1,2,1:2:0:0:
331,142,6589,2,0,B|343:134|343:134|429:148,2,82.7999974731446,2|2|2,1:2|1:2|1:2,0:0:0:0:
258,294,7572,1,2,1:2:0:0:
258,294,7736,1,2,1:2:0:0:
258,294,7900,1,2,1:2:0:0:
254,80,10851,6,0,B|258:73|258:73|244:-14,2,82.7999974731446,2|2|2,1:2|1:2|1:2,0:0:0:0:
388,194,11835,1,2,1:2:0:0:
388,194,11999,1,2,2:2:0:0:
388,194,12163,1,2,1:2:0:0:
247,281,12491,2,0,B|240:308|240:308|251:334,3,41.3999987365723,2|2|2|2,1:2|2:2|1:2|1:2,0:0:0:0:
299,383,13146,1,2,1:2:0:0:
255,0,16097,6,0,B|264:21|264:21|255:49,3,41.3999987365723,2|2|2|0,1:2|2:2|1:2|0:0,0:0:0:0:
202,100,16753,1,2,1:2:0:0:
202,100,16917,1,2,1:2:0:0:
256,163,17081,1,2,1:2:0:0:
260,168,17163,1,0,0:0:0:0:
265,173,17245,2,0,P|309:166|356:160,1,82.7999974731446,2|2,2:2|2:2,0:0:0:0:
429,169,17736,2,0,B|441:194|441:194|432:224,3,41.3999987365723,2|2|2|2,1:2|2:2|1:2|1:2,0:0:0:0:
482,277,18392,1,2,1:2:0:0:
253,0,21507,5,0,1:1:0:0:
253,0,21671,2,0,B|236:109|236:109|248:128,1,124.199996209717,0|10,1:1|1:2,0:0:0:0:
319,163,22162,2,0,L|366:155,3,31.0499990524292,2|2|2|0,2:2|2:2|1:2|0:0,0:0:0:0:
385,132,22490,1,2,2:2:0:0:
457,180,22654,2,0,L|444:250,1,62.0999981048585,10|2,2:2|2:2,0:0:0:0:
438,284,22900,1,2,2:2:0:0:
440,295,22982,2,0,L|370:307,1,62.0999981048585,2|2,1:2|2:2,0:0:0:0:
308,263,23310,5,2,1:2:0:0:
308,263,23474,1,2,2:2:0:0:
268,340,23638,1,2,1:2:0:0:
263,346,23719,1,2,2:2:0:0:
256,354,23801,2,0,L|177:346,1,62.0999981048585,2|10,2:2|1:2,0:0:0:0:
114,311,24130,1,2,1:2:0:0:
108,316,24211,1,2,2:2:0:0:
100,323,24293,2,0,L|108:402,1,62.0999981048585,2|2,1:2|2:2,0:0:0:0:
194,347,24621,6,0,L|256:354,2,62.0999981048585,10|2|2,1:2|2:2|1:2,0:0:0:0:
114,311,25113,1,2,2:2:0:0:
173,247,25277,2,0,L|178:210,3,31.0499990524292,10|2|2|2,1:2|2:2|1:2|2:2,0:0:0:0:
206,183,25605,2,0,L|193:102,1,62.0999981048585,2|2,1:2|2:2,0:0:0:0:
166,89,25851,1,2,2:2:0:0:
159,84,25933,2,0,L|171:14,1,62.0999981048585,10|2,1:2|2:2,0:0:0:0:
252,50,26261,5,2,1:2:0:0:
252,50,26425,1,2,2:2:0:0:
252,50,26589,1,10,1:2:0:0:
323,0,26752,1,2,1:2:0:0:
329,7,26834,1,0,0:0:0:0:
335,16,26916,2,0,P|365:20|405:27,1,62.0999981048585,2|2,1:2|2:2,0:0:0:0:
480,2,27244,2,0,P|484:32|491:72,1,62.0999981048585,10|2,1:2|2:2,0:0:0:0:
463,147,27572,6,0,L|459:198,2,31.0499990524292,2|2|2,1:2|2:2|2:2,0:0:0:0:
397,89,27900,1,10,1:2:0:0:
397,89,28064,2,0,L|393:38,2,31.0499990524292,2|2|2,1:2|2:2|1:2,0:0:0:0:
331,147,28392,1,2,2:2:0:0:
331,147,28556,2,0,L|327:198,2,31.0499990524292,10|2|2,1:2|2:2|2:2,0:0:0:0:
265,89,28884,1,2,1:2:0:0:
265,89,29048,2,0,L|261:38,2,31.0499990524292,2|2|10,2:2|2:2|1:2,0:0:0:0:
199,147,29376,1,2,1:2:0:0:
199,147,29539,2,0,L|195:198,2,31.0499990524292,2|2|2,1:2|2:2|2:2,0:0:0:0:
133,89,29867,1,10,1:2:0:0:
133,89,30031,2,0,L|129:38,2,31.0499990524292,2|2|2,2:2|2:2|1:2,0:0:0:0:
67,147,30359,1,2,2:2:0:0:
67,147,30523,2,0,L|63:198,2,31.0499990524292,10|2|2,1:2|2:2|1:2,0:0:0:0:
1,88,30851,6,0,L|-3:37,3,31.0499990524292,2|0|2|2,1:2|0:0|2:2|2:2,0:0:0:0:
18,17,31179,1,10,1:2:0:0:
105,57,31343,1,2,2:2:0:0:
110,64,31425,1,2,2:2:0:0:
115,70,31507,2,0,L|191:54,1,62.0999981048585,2|0,1:2|0:0,0:0:0:0:
200,21,31752,2,0,L|310:35,1,93.1499971572877,2|0,2:2|1:1,0:0:0:0:
374,2,32162,5,0,1:1:0:0:
487,140,32490,1,10,1:2:0:0:
487,140,32654,2,0,L|476:195,3,31.0499990524292,2|2|2|0,2:2|2:2|1:2|0:0,0:0:0:0:
497,211,32982,1,2,2:2:0:0:
462,290,33146,2,0,L|392:303,1,62.0999981048585,10|2,1:2|1:2,0:0:0:0:
359,287,33392,1,2,2:2:0:0:
347,281,33474,2,0,L|277:293,1,62.0999981048585,2|2,1:2|2:2,0:0:0:0:
230,359,33802,5,10,1:2:0:0:
145,337,33966,2,0,L|137:286,3,31.0499990524292,2|2|2|0,2:2|2:2|1:2|0:0,0:0:0:0:
112,273,34293,2,0,L|122:192,1,62.0999981048585,2|10,2:2|1:2,0:0:0:0:
173,141,34622,1,2,1:2:0:0:
179,136,34703,1,2,2:2:0:0:
187,129,34785,2,0,L|175:51,1,62.0999981048585,2|2,1:2|2:2,0:0:0:0:
119,2,35113,6,0,L|40:17,1,62.0999981048585,10|2,1:2|2:2,0:0:0:0:
26,45,35359,1,0,0:0:0:0:
21,56,35441,2,0,L|-19:48,2,31.0499990524292,2|2|2,1:2|2:2|2:2,0:0:0:0:
45,140,35769,2,0,L|34:222,1,62.0999981048585,10|2,1:2|1:2,0:0:0:0:
11,237,36015,1,2,2:2:0:0:
4,246,36097,2,0,L|15:328,1,62.0999981048585,2|2,1:2|2:2,0:0:0:0:
60,380,36425,5,10,1:2:0:0:
69,379,36507,1,2,2:2:0:0:
78,377,36589,1,2,2:2:0:0:
154,337,36752,2,0,L|196:344,3,31.0499990524292,2|2|2|0,1:2|2:2|2:2|0:0,0:0:0:0:
215,373,37080,1,10,1:2:0:0:
292,332,37244,5,2,1:2:0:0:
299,326,37326,1,0,0:0:0:0:
308,320,37408,2,0,L|294:246,1,62.0999981048585,2|2,1:2|2:2,0:0:0:0:
328,177,37736,1,10,1:2:0:0:
259,124,37900,6,0,L|208:128,2,31.0499990524292,2|2|2,2:2|2:2|1:2,0:0:0:0:
331,73,38228,1,2,2:2:0:0:
331,73,38392,2,0,L|382:77,2,31.0499990524292,10|2|2,1:2|2:2|1:2,0:0:0:0:
280,7,38720,1,2,1:2:0:0:
280,7,38884,2,0,L|229:11,2,31.0499990524292,2|2|10,2:2|2:2|1:2,0:0:0:0:
331,73,39212,1,2,2:2:0:0:
331,73,39376,2,0,L|382:77,2,31.0499990524292,2|2|2,1:2|2:2|2:2,0:0:0:0:
259,124,39704,1,10,1:2:0:0:
259,124,39867,2,0,L|208:128,2,31.0499990524292,2|2|2,1:2|2:2|1:2,0:0:0:0:
328,178,40195,1,2,2:2:0:0:
328,178,40359,2,0,L|379:182,2,31.0499990524292,10|2|2,1:2|2:2|2:2,0:0:0:0:
271,245,40687,1,2,1:2:0:0:
271,245,40851,2,0,L|220:249,2,31.0499990524292,2|2|10,2:2|2:2|1:2,0:0:0:0:
339,299,41179,1,2,1:2:0:0:
414,255,41343,6,0,L|453:262,3,31.0499990524292,2|2|2|2,1:2|2:2|2:2|2:2,0:0:0:0:
474,292,41671,1,10,1:2:0:0:
450,375,41835,1,2,2:2:0:0:
441,382,41917,1,2,2:2:0:0:
427,383,41999,2,0,L|351:367,1,62.0999981048585,2|0,1:2|0:0,0:0:0:0:
324,382,42244,2,0,L|214:359,1,93.1499971572877,0|2,0:0|1:2,0:0:0:0:
147,381,42654,1,2,1:2:0:0:
252,0,43966,6,0,B|268:116|268:116|254:136,1,138,0|10,1:1|1:2,0:0:0:0:
210,213,44457,1,2,2:2:0:0:
210,213,44621,1,2,1:2:0:0:
210,213,44785,1,2,2:2:0:0:
144,151,44949,2,0,L|69:140,1,69,10|2,1:2|1:2,0:0:0:0:
39,167,45195,1,2,2:2:0:0:
29,172,45277,2,0,L|18:255,1,69,2|2,1:2|2:2,0:0:0:0:
46,326,45605,5,10,1:2:0:0:
53,329,45687,1,2,1:2:0:0:
62,331,45769,1,2,1:2:0:0:
137,381,45933,2,0,L|178:372,3,34.5,2|2|2|2,1:2|1:2|1:2|1:2,0:0:0:0:
210,351,46261,2,0,P|249:357|296:365,1,69,10|2,1:2|1:2,0:0:0:0:
322,351,46507,1,2,2:2:0:0:
329,343,46589,2,0,P|362:337|397:331,1,69,2|2,1:2|2:2,0:0:0:0:
468,277,46916,5,10,1:2:0:0:
467,269,46998,1,0,0:0:0:0:
465,261,47080,1,2,2:2:0:0:
509,182,47244,1,2,1:2:0:0:
509,182,47408,2,0,L|502:133,3,34.5,2|0|10|2,2:2|0:0|1:2|2:2,0:0:0:0:
477,111,47736,1,2,1:2:0:0:
392,80,47900,6,0,L|301:97,1,69,2|2,1:2|2:2,0:0:0:0:
285,115,48146,1,2,2:2:0:0:
276,114,48228,1,10,1:2:0:0:
219,183,48392,2,0,L|225:227,3,34.5,2|2|2|2,2:2|2:2|1:2|2:2,0:0:0:0:
251,253,48720,1,2,2:2:0:0:
202,328,48884,6,0,L|123:313,1,69,10|2,1:2|1:2,0:0:0:0:
90,329,49130,1,0,0:0:0:0:
76,333,49211,2,0,L|61:254,1,69,2|2,1:2|2:2,0:0:0:0:
0,199,49539,1,10,1:2:0:0:
59,132,49703,6,0,L|50:87,2,34.5,2|2|2,2:2|2:2|1:2,0:0:0:0:
140,181,50031,1,2,2:2:0:0:
140,181,50195,2,0,L|146:214,2,34.5,10|2|2,1:2|2:2|1:2,0:0:0:0:
198,112,50523,1,2,1:2:0:0:
198,112,50687,2,0,L|189:67,2,34.5,2|2|10,2:2|2:2|1:2,0:0:0:0:
281,157,51015,1,2,2:2:0:0:
281,157,51179,2,0,L|287:190,2,34.5,2|2|2,1:2|2:2|2:2,0:0:0:0:
339,88,51507,1,10,1:2:0:0:
339,88,51671,2,0,L|330:43,2,34.5,2|2|2,1:2|2:2|1:2,0:0:0:0:
419,138,51998,1,2,2:2:0:0:
419,138,52162,2,0,L|425:171,2,34.5,10|2|2,1:2|2:2|2:2,0:0:0:0:
477,69,52490,1,2,1:2:0:0:
477,69,52654,2,0,L|468:24,2,34.5,2|2|10,2:2|2:2|1:2,0:0:0:0:
419,138,52982,1,2,1:2:0:0:
419,138,53146,2,0,L|425:171,2,34.5,2|2|2,1:2|2:2|2:2,0:0:0:0:
339,88,53474,1,10,1:2:0:0:
231,168,53720,1,2,2:2:0:0:
223,175,53802,2,0,L|235:253,1,69,2|0,1:2|0:0,0:0:0:0:
258,282,54048,2,0,L|241:391,1,103.5,0|0,0:0|1:1,0:0:0:0:
168,333,54457,5,0,1:1:0:0:
43,383,54703,1,0,0:0:0:0:
37,374,54785,2,0,L|51:293,1,69,10|2,1:2|2:2,0:0:0:0:
12,234,55113,1,2,1:2:0:0:
12,234,55277,1,2,2:2:0:0:
12,234,55441,6,0,L|3:187,3,34.5,10|2|2|0,1:2|2:2|1:2|0:0,0:0:0:0:
29,161,55769,1,2,1:2:0:0:
6,74,55933,2,0,L|-3:27,3,34.5,2|2|10|0,2:2|2:2|1:2|0:0,0:0:0:0:
22,1,56261,1,2,2:2:0:0:
111,44,56425,5,2,1:2:0:0:
111,44,56589,1,2,2:2:0:0:
111,44,56752,1,10,1:2:0:0:
197,18,56916,1,2,1:2:0:0:
203,12,56998,1,2,2:2:0:0:
210,6,57080,2,0,L|293:20,1,69,2|2,1:2|2:2,0:0:0:0:
317,40,57326,1,0,0:0:0:0:
325,48,57408,2,0,L|408:34,1,69,10|2,1:2|2:2,0:0:0:0:
485,73,57736,5,2,1:2:0:0:
485,73,57900,1,2,2:2:0:0:
485,73,58064,1,10,1:2:0:0:
430,144,58228,1,2,1:2:0:0:
500,199,58392,6,0,L|483:279,1,69,2|2,1:2|2:2,0:0:0:0:
504,308,58638,1,2,2:2:0:0:
509,315,58720,2,0,L|492:395,1,69,10|2,1:2|2:2,0:0:0:0:
404,381,59048,1,2,1:2:0:0:
395,379,59130,1,0,0:0:0:0:
386,376,59211,1,2,2:2:0:0:
305,336,59375,2,0,L|227:347,1,69,10|0,1:2|0:0,0:0:0:0:
197,366,59621,1,0,0:0:0:0:
186,364,59702,1,2,1:2:0:0:
61,367,59949,5,2,2:2:0:0:
50,364,60031,2,1,L|43:397,2,20.6999993682862,2|2|2,1:2|2:2|1:2,0:0:0:0:
20,283,60359,2,0,L|-16:276,4,20.6999993682862,2|2|2|2|2,1:2|2:2|2:2|2:2|1:2,0:0:0:0:
31,200,60851,2,0,L|-5:193,4,20.6999993682862,2|2|2|2|2,1:2|2:2|1:2|2:2|2:2,0:0:0:0:
42,118,61343,2,0,L|5:111,4,20.6999993682862,2|2|2|2|2,1:2|2:2|1:2|2:2|1:2,0:0:0:0:
54,36,61834,2,0,L|17:29,4,20.6999993682862,2|2|2|2|2,2:2|2:2|1:2|2:2|1:2,0:0:0:0:
42,118,62326,2,0,L|5:111,4,20.6999993682862,2|2|2|2|2,1:2|2:2|2:2|2:2|1:2,0:0:0:0:
31,200,62818,2,0,L|-5:193,4,20.6999993682862,2|2|2|2|2,2:2|2:2|1:2|2:2|2:2,0:0:0:0:
20,283,63310,2,0,L|-16:276,4,20.6999993682862,2|2|2|2|2,1:2|2:2|1:2|2:2|1:2,0:0:0:0:
54,360,63802,1,2,2:2:0:0:
54,360,63966,6,0,L|50:381,2,20.6999993682862,2|2|2,1:2|2:2|2:2,0:0:0:0:
128,324,64293,2,1,L|206:310,1,62.0999981048585,2|2,1:2|2:2,0:0:0:0:
362,199,64949,1,2,1:2:0:0:
255,0,66261,6,0,B|259:5|259:5|246:134,1,124.199996209717,12|0,1:1|0:0,0:0:0:0:
211,151,66589,2,0,B|130:167|130:167|129:166|129:166|37:183|37:183,2,165.599994946289,10|10|10,1:2|1:2|1:2,0:0:0:0:
386,200,67572,2,0,L|473:216,1,82.7999974731446,10|0,1:2|0:0,0:0:0:0:
355,272,67900,2,0,L|442:288,1,82.7999974731446,10|0,1:2|0:0,0:0:0:0:
509,342,68228,5,10,1:2:0:0:
509,342,68392,1,2,2:2:0:0:
509,342,68556,1,10,1:2:0:0:
427,382,68720,1,2,2:2:0:0:
340,352,68884,2,0,B|259:340|259:340|164:379,1,165.599994946289,10|8,1:2|1:2,0:0:0:0:
101,328,69375,1,2,2:2:0:0:
146,248,69539,2,0,L|129:151,1,82.7999974731446,10|0,1:2|0:0,0:0:0:0:
182,90,69867,5,10,1:2:0:0:
182,90,70031,1,2,2:2:0:0:
182,90,70195,2,0,B|263:106|263:106|264:105|264:105|356:122|356:122,2,165.599994946289,10|10|10,1:2|1:2|1:2,0:0:0:0:
21,2,71179,5,10,1:2:0:0:
12,92,71343,1,2,2:2:0:0:
2,182,71507,1,14,1:1:0:0:
179,221,71834,6,0,B|181:209|164:301|164:301|165:302|165:302|149:383,2,165.599994946289,10|10|10,1:2|1:2|1:2,0:0:0:0:
118,152,72654,1,2,2:2:0:0:
182,90,72818,2,0,L|271:107,1,82.7999974731446,10|0,1:2|0:0,0:0:0:0:
357,82,73146,5,10,1:2:0:0:
357,82,73310,1,2,2:2:0:0:
357,82,73474,1,10,1:2:0:0:
408,156,73638,1,2,2:2:0:0:
339,218,73802,2,0,L|354:299,1,82.7999974731446,10|0,1:2|0:0,0:0:0:0:
408,373,74130,1,8,1:2:0:0:
509,222,74457,6,0,L|421:236,2,82.7999974731446,10|2|10,1:2|2:2|1:2,0:0:0:0:
489,142,74949,2,0,L|407:155,2,82.7999974731446,2|10|2,2:2|1:2|2:2,0:0:0:0:
469,62,75441,2,0,L|387:75,1,82.7999974731446,10|2,1:2|2:2,0:0:0:0:
314,18,75769,2,0,L|232:31,1,82.7999974731446,10|2,1:2|2:2,0:0:0:0:
163,91,76097,2,0,L|81:104,1,82.7999974731446,10|2,1:2|2:2,0:0:0:0:
2,150,76425,5,10,1:2:0:0:
11,240,76589,1,2,2:2:0:0:
21,330,76753,1,14,1:1:0:0:
200,355,77080,6,0,B|188:353|280:370|280:370|281:369|281:369|362:385,2,165.599994946289,10|10|10,2:2|1:2|1:2,0:0:0:0:
353,255,78064,2,0,B|341:253|433:270|433:270|434:269|434:269|515:285,2,165.599994946289,10|10|10,1:2|1:2|1:2,0:0:0:0:
277,202,78884,1,2,2:1:0:0:
277,202,79048,1,10,1:2:0:0:
277,202,79211,1,2,2:1:0:0:
335,131,79375,6,0,B|413:125|413:125|509:166,1,165.599994946289,10|8,1:2|1:2,0:0:0:0:
508,249,79867,1,2,2:1:0:0:
431,297,80031,2,0,L|337:278,1,82.7999974731446,10|0,1:2|0:0,0:0:0:0:
267,321,80359,1,10,1:2:0:0:
267,321,80523,1,2,2:1:0:0:
267,321,80687,6,0,B|279:319|187:336|187:336|186:335|186:335|105:351,2,165.599994946289,10|10|10,1:2|1:2|1:2,0:0:0:0:
392,188,81670,5,10,1:2:0:0:
383,98,81834,1,2,2:1:0:0:
373,8,81998,1,14,1:1:0:0:
190,1,82326,2,0,B|109:17|109:17|108:16|108:16|16:33|16:33,1,165.599994946289,10|10,1:2|1:2,0:0:0:0:
7,218,82982,1,10,1:2:0:0:
7,218,83146,1,2,2:1:0:0:
7,218,83310,2,0,L|96:232,1,82.7999974731446,10|0,1:2|0:0,0:0:0:0:
175,192,83638,5,10,1:2:0:0:
175,192,83802,1,2,2:1:0:0:
257,231,83966,1,10,1:2:0:0:
277,319,84130,1,2,2:1:0:0:
212,382,84293,2,0,L|130:370,1,82.7999974731446,10|0,1:2|0:0,0:0:0:0:
38,369,84621,1,8,1:2:0:0:
1,190,84949,6,0,L|13:108,2,82.7999974731446,10|2|10,1:2|2:1|1:2,0:0:0:0:
83,229,85441,2,0,L|95:147,2,82.7999974731446,2|10|2,2:1|1:2|2:1,0:0:0:0:
150,291,85933,5,10,1:2:0:0:
150,291,86097,1,2,2:1:0:0:
150,291,86261,1,10,1:2:0:0:
225,239,86425,5,2,2:1:0:0:
234,245,86507,1,0,2:2:0:0:
243,250,86589,2,0,P|281:242|337:232,1,82.7999974731446,10|2,1:2|1:1,0:0:0:0:
395,177,86916,5,10,1:2:0:0:
464,244,87080,1,2,1:1:0:0:
464,244,87244,2,0,L|448:341,2,82.7999974731446,2|0|0,1:2|1:1|1:1,0:0:0:0:
507,162,87736,5,0,1:1:0:0:
505,150,87818,1,0,1:1:0:0:
502,136,87900,1,0,1:1:0:0:
399,6,88227,1,0,1:1:0:0:
399,6,90522,5,0,1:1:0:0:
318,150,90850,1,8,1:2:0:0:
318,150,93145,5,0,1:1:0:0:
162,94,93473,1,8,1:2:0:0:
162,94,95768,5,0,1:1:0:0:
299,2,96096,1,8,1:2:0:0:
299,2,98391,6,0,P|326:2|353:16,1,41.3999987365723,0|0,1:1|0:0,0:0:0:0:
392,70,98719,2,0,P|367:253|61:354,1,538.19998357544,8|0,1:2|1:1,0:0:0:0:
25,282,101014,2,0,P|56:275|77:279,1,41.3999987365723,0|0,1:1|0:0,0:0:0:0:
148,268,101342,2,0,P|266:152|15:78,1,538.19998357544,8|0,1:2|1:1,0:0:0:0:
1,147,103637,6,0,P|27:158|53:157,1,41.3999987365723,0|0,1:1|0:0,0:0:0:0:
114,122,103965,2,0,P|330:68|506:302,1,538.19998357544,8|0,1:2|1:1,0:0:0:0:
494,374,106260,2,0,P|464:380|445:377,1,41.3999987365723,0|0,1:1|0:0,0:0:0:0:
394,320,106588,2,0,P|323:175|193:389,1,538.19998357544,8|8,1:2|2:2,0:0:0:0:
260,0,110195,6,0,B|244:116|244:116|258:136,1,138,0|10,1:1|1:2,0:0:0:0:
306,207,110686,2,0,P|339:200|346:198,3,34.5,2|2|2|2,2:2|2:2|1:2|2:2,0:0:0:0:
382,214,111014,1,2,2:2:0:0:
464,177,111178,1,10,1:2:0:0:
471,173,111260,1,2,1:2:0:0:
477,169,111342,2,0,L|492:92,1,69,2|2,1:2|1:2,0:0:0:0:
463,15,111670,6,0,L|386:0,1,69,2|10,2:2|1:2,0:0:0:0:
350,11,111916,1,0,0:0:0:0:
337,8,111998,1,2,1:2:0:0:
247,0,112162,2,0,L|201:7,3,34.5,2|2|2|0,1:2|1:2|1:2|0:0,0:0:0:0:
176,32,112490,1,10,1:2:0:0:
91,2,112654,1,2,1:2:0:0:
81,6,112736,1,2,2:2:0:0:
73,10,112818,2,0,P|79:43|85:78,1,69,2|2,1:2|2:2,0:0:0:0:
138,149,113145,5,10,1:2:0:0:
221,116,113309,1,2,2:2:0:0:
226,111,113391,1,2,2:2:0:0:
232,104,113473,2,0,L|271:114,3,34.5,2|0|2|2,1:2|0:0|2:2|2:2,0:0:0:0:
306,93,113801,1,10,1:2:0:0:
384,137,113965,1,2,1:2:0:0:
385,148,114047,1,2,2:2:0:0:
386,159,114129,1,2,1:2:0:0:
454,217,114293,2,0,L|493:212,2,34.5,2|2|10,2:2|2:2|1:2,0:0:0:0:
404,294,114621,5,2,2:2:0:0:
404,294,114785,1,2,1:2:0:0:
404,294,114949,2,0,L|412:333,2,34.5,2|2|10,2:2|2:2|1:2,0:0:0:0:
315,276,115277,1,2,1:2:0:0:
309,268,115359,1,0,0:0:0:0:
303,263,115440,2,0,L|223:276,1,69,2|2,1:2|2:2,0:0:0:0:
175,341,115768,1,10,1:2:0:0:
86,326,115932,6,0,L|78:370,2,34.5,2|2|2,2:2|2:2|1:2,0:0:0:0:
23,268,116260,1,2,2:2:0:0:
23,268,116424,2,0,L|31:222,2,34.5,10|2|2,1:2|2:2|1:2,0:0:0:0:
86,326,116752,1,2,1:2:0:0:
86,326,116916,2,0,L|78:370,2,34.5,2|2|10,2:2|2:2|1:2,0:0:0:0:
155,267,117244,1,2,2:2:0:0:
155,267,117408,2,0,L|163:221,2,34.5,2|2|2,1:2|2:2|2:2,0:0:0:0:
226,330,117736,1,10,1:2:0:0:
226,330,117900,2,0,L|218:374,2,34.5,2|2|2,1:2|2:2|1:2,0:0:0:0:
303,283,118227,1,2,2:2:0:0:
303,283,118391,2,0,L|311:237,2,34.5,10|2|2,1:2|2:2|2:2,0:0:0:0:
374,346,118719,1,2,1:2:0:0:
374,346,118883,2,0,L|366:390,2,34.5,2|2|10,2:2|2:2|1:2,0:0:0:0:
443,288,119211,1,2,1:2:0:0:
443,288,119375,5,2,1:2:0:0:
486,209,119539,1,2,2:2:0:0:
494,203,119621,1,0,0:0:0:0:
503,196,119703,2,0,L|489:108,1,69,10|2,1:2|2:2,0:0:0:0:
462,93,119949,1,2,2:2:0:0:
457,87,120031,2,0,L|378:102,1,69,2|0,1:2|0:0,0:0:0:0:
348,120,120277,2,0,L|239:103,1,103.5,0|0,0:0|1:1,0:0:0:0:
182,39,120686,5,0,1:1:0:0:
13,92,121014,1,10,1:2:0:0:
13,92,121178,2,0,L|21:140,3,34.5,2|2|2|0,2:2|2:2|1:2|0:0,0:0:0:0:
45,163,121506,1,2,2:2:0:0:
2,241,121670,6,0,L|9:288,3,34.5,10|0|2|2,1:2|0:0|1:2|2:2,0:0:0:0:
0,320,121998,1,2,1:2:0:0:
79,361,122162,1,2,2:2:0:0:
83,368,122244,1,2,2:2:0:0:
88,374,122326,2,0,L|144:368,3,34.5,10|2|2|0,1:2|2:2|2:2|0:0,0:0:0:0:
165,384,122654,5,2,1:2:0:0:
240,336,122818,2,0,L|281:342,2,34.5,2|2|10,2:2|2:2|1:2,0:0:0:0:
168,281,123145,1,2,1:2:0:0:
163,277,123227,1,2,2:2:0:0:
158,272,123309,2,0,L|145:187,1,69,2|2,1:2|2:2,0:0:0:0:
95,142,123637,5,10,1:2:0:0:
95,142,123801,1,2,2:2:0:0:
95,142,123965,1,2,1:2:0:0:
149,70,124129,1,2,2:2:0:0:
150,60,124211,1,2,2:2:0:0:
152,51,124293,1,10,1:2:0:0:
226,0,124457,6,0,L|277:7,3,34.5,2|2|2|2,1:2|2:2|1:2|2:2,0:0:0:0:
302,22,124785,1,0,0:0:0:0:
389,0,124949,2,0,L|402:81,1,69,10|2,1:2|2:2,0:0:0:0:
472,130,125277,1,2,1:2:0:0:
472,130,125440,2,0,L|516:123,2,34.5,2|2|10,2:2|2:2|1:2,0:0:0:0:
403,188,125768,5,2,1:2:0:0:
399,198,125850,1,0,0:0:0:0:
397,205,125932,1,0,1:0:0:0:
317,300,126178,1,2,2:2:0:0:
310,310,126260,2,0,L|314:346,2,20.6999993682862,2|0|2,1:2|0:0|2:2,0:0:0:0:
250,252,126588,6,0,L|256:216,4,20.6999993682862,2|2|2|0|2,1:2|2:2|2:2|0:0|1:2,0:0:0:0:
168,259,127080,2,0,L|174:223,4,20.6999993682862,2|2|2|0|2,1:2|2:2|1:2|0:0|2:2,0:0:0:0:
86,267,127572,2,0,L|92:231,4,20.6999993682862,2|2|2|0|2,1:2|2:2|2:2|0:0|1:2,0:0:0:0:
3,276,128063,2,0,L|9:240,4,20.6999993682862,2|2|2|0|2,2:2|2:2|1:2|0:0|1:2,0:0:0:0:
86,267,128555,2,0,L|90:246,4,20.6999993682862,2|2|2|0|2,1:2|2:2|2:2|0:0|1:2,0:0:0:0:
168,259,129047,2,0,L|172:238,4,20.6999993682862,2|2|2|0|2,2:2|2:2|1:2|0:0|2:2,0:0:0:0:
250,252,129539,2,0,L|254:231,4,20.6999993682862,2|2|2|0|2,1:2|2:2|1:2|0:0|1:2,0:0:0:0:
333,261,130031,1,2,1:2:0:0:
340,256,130113,1,2,2:2:0:0:
349,250,130195,2,0,L|353:229,4,20.6999993682862,2|2|2|0|2,1:2|2:2|2:2|0:0|1:2,0:0:0:0:
400,362,130768,2,0,L|473:375,1,62.0999981048585,0|2,0:0|2:2,0:0:0:0:
510,305,131178,5,2,1:2:0:0:
257,190,131943,2,0,L|265:123,1,55.1999983154297,0|2,1:1|1:2,0:0:0:0:
325,19,132408,1,0,0:0:0:0:
333,15,132490,6,0,B|350:7|350:7|432:22,2,82.8,2|0|0,1:2|0:0|0:0,0:0:0:0:
174,93,133309,1,0,1:1:0:0:
344,109,133801,2,0,B|362:110|362:110|426:164,2,82.8,0|0|0,1:1|0:0|0:0,0:0:0:0:
167,97,134620,1,0,1:1:0:0:
308,200,135113,2,0,B|323:210|323:210|351:289,2,82.8,0|0|0,1:1|0:0|0:0,0:0:0:0:
160,101,135932,1,0,1:1:0:0:
233,267,136424,2,0,B|240:284|240:284|226:366,2,82.8,0|0|0,1:1|0:0|0:0,0:0:0:0:
154,107,137243,1,0,1:1:0:0:
79,342,137736,6,0,B|62:349|62:349|-20:335,2,82.8,0|0|0,1:1|0:0|0:0,0:0:0:0:
239,263,138555,1,0,1:1:0:0:
397,333,139047,2,0,B|414:340|414:340|496:326,2,82.8,0|0|0,1:1|0:0|0:0,0:0:0:0:
237,254,139866,1,0,1:1:0:0:
79,323,140359,2,0,B|62:330|62:330|-20:316,2,82.8,0|0|0,1:1|0:0|0:0,0:0:0:0:
239,244,141178,1,0,1:1:0:0:
399,312,141670,2,0,B|416:319|416:319|498:305,2,82.8,0|0|0,1:1|0:0|0:0,0:0:0:0:
239,233,142490,6,0,B|230:217|230:217|241:177|241:177|212:87,1,138,0|0,1:1|0:0,0:0:0:0:
201,59,142981,6,0,L|117:44,1,69,0|0,1:1|0:0,0:0:0:0:
93,24,143227,1,0,0:0:0:0:
82,26,143309,1,8,2:1:0:0:
6,73,143473,2,0,P|-5:111|15:151,1,69,0|0,1:1|1:1,0:0:0:0:
58,216,143801,1,0,1:1:0:0:
58,216,143965,2,0,L|41:306,1,69,8|0,2:1|0:0,0:0:0:0:
78,367,144293,2,0,B|83:373|83:373|192:355,2,103.5,0|2|2,1:1|0:0|1:1,0:0:0:0:
165,209,145113,2,0,L|152:141,1,69,2|8,1:1|2:1,0:0:0:0:
86,79,145440,1,0,0:0:0:0:
153,21,145604,6,0,P|181:16|225:36,1,69,0|0,1:1|0:0,0:0:0:0:
256,53,145850,1,0,0:0:0:0:
267,51,145932,1,8,2:1:0:0:
341,0,146096,2,0,P|370:15|409:13,1,69,0|0,1:1|1:1,0:0:0:0:
499,9,146424,1,0,1:1:0:0:
499,9,146588,2,0,L|482:99,1,69,8|0,2:1|0:0,0:0:0:0:
431,148,146916,2,0,B|425:153|425:153|443:262,2,103.5,0|2|0,1:1|0:0|1:1,0:0:0:0:
274,59,147736,2,0,L|206:71,1,69,0|8,1:1|2:1,0:0:0:0:
142,135,148063,1,0,0:0:0:0:
59,99,148227,6,0,B|54:92|54:92|38:-2,2,103.5,0|2|0,1:1|0:0|1:1,0:0:0:0:
0,167,148883,1,0,1:1:0:0:
56,243,149047,1,0,1:1:0:0:
56,243,149211,2,0,P|76:273|70:319,1,69,8|0,2:1|0:0,0:0:0:0:
122,382,149539,2,0,L|194:372,1,69,0|0,1:1|0:0,0:0:0:0:
234,383,149785,2,0,L|306:373,1,69,2|0,0:0|0:0,0:0:0:0:
346,381,150031,1,2,1:1:0:0:
502,292,150359,2,0,P|515:235|468:165,1,138,2|0,1:1|0:0,0:0:0:0:
393,133,150850,6,0,B|386:138|386:138|292:154,2,103.5,0|2|0,1:1|0:0|1:1,0:0:0:0:
454,66,151506,1,0,1:1:0:0:
394,6,151670,1,0,1:1:0:0:
394,6,151834,2,0,L|316:18,1,69,8|0,2:1|0:0,0:0:0:0:
236,0,152162,2,0,P|216:33|221:71,1,69,0|0,1:1|0:0,0:0:0:0:
251,92,152408,2,0,P|267:122|263:160,1,69,2|0,0:0|0:0,0:0:0:0:
243,196,152654,1,0,1:1:0:0:
372,319,152982,2,0,L|520:293,1,138,0|0,1:1|0:0,0:0:0:0:
506,205,153473,6,0,L|422:190,1,69,0|0,1:1|0:0,0:0:0:0:
397,172,153719,1,0,0:0:0:0:
386,174,153801,1,8,2:1:0:0:
303,138,153965,2,0,L|219:153,1,69,0|0,1:1|1:1,0:0:0:0:
153,124,154293,1,0,1:1:0:0:
153,124,154457,2,0,P|134:154|146:204,1,69,8|0,2:1|0:0,0:0:0:0:
193,256,154785,2,0,B|198:262|198:262|307:244,2,103.5,0|2|0,1:1|0:0|1:1,0:0:0:0:
64,382,155605,2,0,L|51:314,1,69,0|8,1:1|2:1,0:0:0:0:
1,239,155932,1,0,0:0:0:0:
46,161,156096,6,0,L|58:93,1,69,0|0,1:1|0:0,0:0:0:0:
88,59,156342,1,0,0:0:0:0:
86,48,156424,1,8,2:1:0:0:
164,3,156588,2,0,P|198:-1|233:16,1,69,0|0,1:1|1:1,0:0:0:0:
294,82,156916,1,0,1:1:0:0:
294,82,157080,2,0,P|328:86|363:69,1,69,8|0,2:1|0:0,0:0:0:0:
445,99,157408,2,0,B|451:94|451:94|433:-15,2,103.5,0|2|2,1:1|0:0|1:1,0:0:0:0:
510,266,158228,2,0,L|442:278,1,69,2|8,1:1|2:1,0:0:0:0:
363,235,158555,1,0,0:0:0:0:
287,283,158719,6,0,B|282:290|282:290|296:395,2,103.5,0|2|0,1:1|0:0|1:1,0:0:0:0:
209,237,159375,1,0,1:1:0:0:
241,155,159539,1,0,1:1:0:0:
241,155,159703,2,0,L|230:76,1,69,8|0,2:1|0:0,0:0:0:0:
280,11,160031,2,0,P|311:-1|345:3,1,69,0|0,1:1|0:0,0:0:0:0:
383,28,160277,2,0,P|414:40|448:35,1,69,2|0,0:0|0:0,0:0:0:0:
488,57,160523,1,0,1:1:0:0:
509,235,160851,2,0,L|369:212,1,138,0|0,1:1|0:0,0:0:0:0:
292,173,161342,6,0,B|289:164|289:164|304:71,2,103.5,0|2|0,1:1|0:0|1:1,0:0:0:0:
235,243,161998,1,0,1:1:0:0:
153,217,162162,1,0,1:1:0:0:
153,217,162326,2,0,L|75:229,1,69,8|0,2:1|0:0,0:0:0:0:
44,308,162654,2,0,P|77:328|115:323,1,69,0|0,1:1|0:0,0:0:0:0:
143,352,162899,2,0,P|176:332|214:337,1,69,2|0,0:0|0:0,0:0:0:0:
244,357,163146,1,2,1:1:0:0:
338,204,163474,2,0,L|315:55,1,138,2|0,1:1|0:0,0:0:0:0:
251,0,186260,6,0,B|247:5|247:5|260:134,1,124.199996209717,12|0,1:1|0:0,0:0:0:0:
301,148,186588,2,0,B|382:164|382:164|383:163|383:163|475:180|475:180,2,165.599994946289,10|10|10,1:2|1:2|1:2,0:0:0:0:
124,101,187571,2,0,L|108:188,1,82.7999974731446,10|0,1:2|0:0,0:0:0:0:
41,112,187899,2,0,L|25:199,1,82.7999974731446,10|0,1:2|0:0,0:0:0:0:
10,289,188227,5,10,1:2:0:0:
10,289,188391,1,2,2:2:0:0:
10,289,188555,1,10,1:2:0:0:
79,347,188719,1,2,2:2:0:0:
157,300,188883,2,0,B|238:288|238:288|333:327,1,165.599994946289,10|8,1:2|1:2,0:0:0:0:
384,378,189374,1,2,2:2:0:0:
448,313,189538,2,0,L|431:216,1,82.7999974731446,10|0,1:2|0:0,0:0:0:0:
385,165,189866,5,10,1:2:0:0:
385,165,190030,1,2,2:2:0:0:
385,165,190194,2,0,B|304:149|304:149|303:150|303:150|211:133|211:133,2,165.599994946289,10|10|10,1:2|1:2|1:2,0:0:0:0:
465,120,191014,1,0,0:0:0:0:
419,41,191178,5,10,1:2:0:0:
329,21,191342,1,2,2:2:0:0:
239,2,191506,1,14,1:1:0:0:
147,159,191833,6,0,B|145:147|162:239|162:239|161:240|161:240|177:321,2,165.599994946289,10|10|10,1:2|1:2|1:2,0:0:0:0:
98,81,192653,1,2,2:2:0:0:
24,135,192817,2,0,L|7:224,1,82.7999974731446,10|0,1:2|0:0,0:0:0:0:
7,315,193145,5,10,1:2:0:0:
7,315,193309,1,2,2:2:0:0:
7,315,193473,1,10,1:2:0:0:
67,383,193637,1,2,2:2:0:0:
136,324,193801,2,0,L|151:243,1,82.7999974731446,10|0,1:2|0:0,0:0:0:0:
115,158,194129,1,8,1:2:0:0:
287,101,194456,6,0,L|273:13,2,82.7999974731446,10|2|10,1:2|2:2|1:2,0:0:0:0:
367,81,194948,2,0,L|354:-1,2,82.7999974731446,2|10|2,2:2|1:2|2:2,0:0:0:0:
442,132,195440,2,0,L|429:214,1,82.7999974731446,10|2,1:2|2:2,0:0:0:0:
361,275,195768,2,0,L|374:357,1,82.7999974731446,10|2,1:2|2:2,0:0:0:0:
285,382,196096,2,0,L|272:300,1,82.7999974731446,10|2,1:2|2:2,0:0:0:0:
231,217,196424,5,10,1:2:0:0:
241,127,196588,1,2,2:2:0:0:
250,37,196752,1,14,1:1:0:0:
352,186,197079,6,0,B|340:184|432:201|432:201|433:200|433:200|514:216,2,165.599994946289,10|10|10,1:2|1:2|1:2,0:0:0:0:
250,37,198063,2,0,B|238:39|330:22|330:22|331:23|331:23|412:7,2,165.599994946289,10|10|10,1:2|1:2|1:2,0:0:0:0:
173,7,198883,1,2,2:1:0:0:
173,7,199047,1,10,1:2:0:0:
173,7,199210,1,2,2:1:0:0:
97,57,199374,6,0,B|83:142|83:142|132:231,1,165.599994946289,10|8,1:2|1:2,0:0:0:0:
195,265,199866,1,2,2:1:0:0:
267,209,200030,2,0,L|361:190,1,82.7999974731446,10|2,1:2|2:1,0:0:0:0:
438,159,200358,1,10,1:2:0:0:
438,159,200522,1,2,2:1:0:0:
438,159,200686,6,0,B|436:171|453:79|453:79|452:78|452:78|468:-3,2,165.599994946289,10|10|10,1:2|1:2|1:2,0:0:0:0:
509,326,201669,5,10,1:2:0:0:
419,335,201833,1,2,2:1:0:0:
329,345,201997,1,14,1:1:0:0:
150,383,202325,2,0,B|166:302|166:302|165:301|165:301|182:209|182:209,1,165.599994946289,10|10,1:2|1:2,0:0:0:0:
325,108,202981,1,10,1:2:0:0:
325,108,203145,1,2,2:1:0:0:
325,108,203309,2,0,L|311:19,1,82.7999974731446,10|0,1:2|0:0,0:0:0:0:
227,6,203637,5,10,1:2:0:0:
227,6,203801,1,2,2:1:0:0:
154,61,203965,1,10,1:2:0:0:
78,10,204129,1,2,2:1:0:0:
17,77,204292,2,0,L|29:159,1,82.7999974731446,10|0,1:2|0:0,0:0:0:0:
0,245,204620,1,8,1:2:0:0:
147,352,204948,6,0,L|229:364,2,82.7999974731446,10|2|10,1:2|2:1|1:2,0:0:0:0:
140,268,205440,2,0,L|222:280,2,82.7999974731446,2|10|2,2:1|1:2|2:1,0:0:0:0:
90,203,205932,5,10,1:2:0:0:
90,203,206096,1,2,2:1:0:0:
90,203,206260,1,10,1:2:0:0:
152,136,206424,5,2,2:1:0:0:
161,130,206506,1,0,0:0:0:0:
170,125,206588,2,0,P|208:133|264:143,1,82.7999974731446,10|2,1:2|2:1,0:0:0:0:
321,206,206915,5,10,1:2:0:0:
321,206,207079,1,2,1:1:0:0:
400,161,207244,2,0,B|428:300|428:300|410:327,1,165.599994946289,14|10,1:1|1:2,0:0:0:0:
334,364,207736,1,2,2:1:0:0:
329,372,207818,1,2,2:2:0:0:
322,382,207899,2,0,L|226:370,1,82.7999974731446,10|2,1:2|2:1,0:0:0:0:
140,384,208227,6,0,L|122:295,1,82.7999974731446,10|2,1:2|2:1,0:0:0:0:
97,264,208473,1,2,2:2:0:0:
98,249,208555,1,10,1:2:0:0:
165,187,208719,1,2,2:1:0:0:
174,181,208801,1,2,2:2:0:0:
182,174,208883,2,0,L|193:73,1,82.7999974731446,10|2,1:2|2:1,0:0:0:0:
160,15,209211,5,10,1:2:0:0:
160,15,209375,1,2,2:1:0:0:
160,15,209539,1,10,1:2:0:0:
71,34,209703,1,2,2:1:0:0:
60,40,209785,1,2,2:2:0:0:
51,46,209867,2,0,L|42:128,1,82.7999974731446,10|2,1:2|2:1,0:0:0:0:
0,210,210195,5,10,1:2:0:0:
50,285,210359,2,0,L|99:275,3,41.3999987365723,2|2|10|0,2:1|2:2|1:2|0:0,0:0:0:0:
132,294,210686,1,2,2:1:0:0:
204,238,210850,2,0,L|251:247,3,41.3999987365723,10|2|2|2,1:2|2:2|2:1|2:2,0:0:0:0:
286,228,211177,1,10,1:2:0:0:
368,267,211342,5,2,2:1:0:0:
380,271,211424,1,0,0:0:0:0:
390,273,211506,2,0,L|409:369,1,82.7999974731446,10|2,1:2|2:1,0:0:0:0:
326,384,211834,1,10,1:2:0:0:
326,384,211998,1,2,2:1:0:0:
326,384,212162,1,10,1:2:0:0:
247,341,212326,5,2,2:1:0:0:
237,333,212408,1,0,0:0:0:0:
229,327,212490,2,0,L|247:230,1,82.7999974731446,14|2,1:1|2:1,0:0:0:0:
304,176,212818,1,10,1:2:0:0:
240,111,212981,6,0,L|187:119,2,41.3999987365723,2|2|10,2:1|2:2|1:2,0:0:0:0:
313,56,213309,1,2,2:1:0:0:
243,5,213473,1,10,1:2:0:0:
243,5,213637,2,0,L|183:12,2,41.3999987365723,2|2|10,2:1|2:2|1:2,0:0:0:0:
313,56,213965,2,0,L|373:49,2,41.3999987365723,2|2|10,2:1|2:2|1:2,0:0:0:0:
240,111,214293,1,2,2:1:0:0:
304,176,214457,1,10,1:2:0:0:
304,176,214621,2,0,L|364:169,2,41.3999987365723,2|2|10,2:1|2:2|1:2,0:0:0:0:
249,250,214949,2,0,L|189:257,2,41.3999987365723,2|2|10,2:1|2:2|1:2,0:0:0:0:
318,309,215277,1,2,2:1:0:0:
262,380,215441,1,10,1:2:0:0:
262,380,215605,2,0,L|202:387,2,41.3999987365723,2|2|10,2:1|2:2|1:2,0:0:0:0:
318,309,215932,2,0,L|359:304,2,41.3999987365723,2|2|10,2:1|2:2|1:2,0:0:0:0:
249,250,216260,1,2,2:1:0:0:
304,176,216424,1,10,1:2:0:0:
304,176,216588,2,0,L|364:169,2,41.3999987365723,2|2|10,2:1|2:2|1:2,0:0:0:0:
240,111,216916,5,2,2:1:0:0:
233,106,216998,1,2,2:2:0:0:
225,100,217080,2,0,L|237:5,1,82.7999974731446,10|10,1:2|2:1,0:0:0:0:
278,1,217326,2,0,L|412:18,1,124.199996209717,2|2,0:0|2:1,0:0:0:0:
491,2,217736,6,0,B|514:129|514:129|472:167,1,165.599994946289,12|10,1:1|1:2,0:0:0:0:
434,227,218227,1,2,2:1:0:0:
428,230,218309,1,2,2:2:0:0:
421,233,218391,2,0,L|408:328,1,82.7999974731446,10|2,1:2|2:1,0:0:0:0:
325,351,218719,2,0,L|310:258,1,82.7999974731446,10|2,1:2|2:1,0:0:0:0:
289,229,218965,1,2,2:2:0:0:
281,220,219047,2,0,L|294:139,1,82.7999974731446,10|2,1:2|2:1,0:0:0:0:
352,68,219375,5,10,1:2:0:0:
352,68,219539,1,2,2:1:0:0:
285,5,219703,2,0,L|236:13,3,41.3999987365723,10|0|2|2,1:2|0:0|2:1|2:2,0:0:0:0:
206,37,220031,1,10,1:2:0:0:
119,9,220195,1,2,2:1:0:0:
109,7,220277,1,2,2:2:0:0:
98,5,220359,2,0,L|82:99,1,82.7999974731446,10|2,1:2|2:1,0:0:0:0:
26,157,220686,5,10,1:2:0:0:
97,213,220850,2,0,L|141:207,3,41.3999987365723,2|2|10|2,2:1|2:2|1:2|2:2,0:0:0:0:
180,225,221178,1,2,2:1:0:0:
250,166,221342,2,0,L|360:183,1,82.7999974731446,10|2,1:2|2:1,0:0:0:0:
367,208,221588,1,2,2:2:0:0:
376,218,221670,2,0,L|486:201,1,82.7999974731446,10|2,1:2|2:1,0:0:0:0:
512,285,221998,5,10,1:2:0:0:
512,285,222162,1,2,2:1:0:0:
456,357,222326,1,10,1:2:0:0:
445,355,222408,1,2,2:2:0:0:
434,354,222490,1,2,2:1:0:0:
346,328,222654,2,0,L|254:343,1,82.7999974731446,10|2,1:2|2:1,0:0:0:0:
229,371,222899,1,0,0:0:0:0:
223,379,222981,2,0,L|131:364,1,82.7999974731446,14|2,1:1|2:1,0:0:0:0:
51,381,223309,5,10,1:2:0:0:
1,304,223473,2,0,L|11:246,3,41.3999987365723,2|2|10|2,2:1|2:2|1:2|2:2,0:0:0:0:
0,217,223801,1,2,2:1:0:0:
58,146,223965,2,0,L|68:88,3,41.3999987365723,10|2|2|2,1:2|2:2|2:1|2:2,0:0:0:0:
57,59,224293,1,10,1:2:0:0:
131,6,224457,2,0,L|189:16,3,41.3999987365723,2|2|10|2,2:1|2:2|1:2|2:2,0:0:0:0:
218,5,224785,1,2,2:1:0:0:
273,77,224949,2,0,L|263:135,3,41.3999987365723,10|2|2|2,1:2|2:2|2:1|2:2,0:0:0:0:
274,164,225277,1,10,1:2:0:0:
209,228,225440,2,0,L|199:286,3,41.3999987365723,2|2|10|2,2:1|2:2|1:2|2:2,0:0:0:0:
210,315,225768,1,2,2:1:0:0:
278,375,225932,2,0,L|336:385,3,41.3999987365723,10|2|2|2,1:2|2:2|2:1|2:2,0:0:0:0:
365,374,226260,1,10,1:2:0:0:
440,323,226424,2,0,L|450:265,3,41.3999987365723,2|2|10|2,2:1|2:2|1:2|2:2,0:0:0:0:
439,236,226752,1,2,2:1:0:0:
502,170,226916,2,0,L|512:112,3,41.3999987365723,10|2|2|2,1:2|2:2|2:1|2:2,0:0:0:0:
501,83,227244,1,10,1:2:0:0:
433,21,227408,5,10,2:1:0:0:
425,13,227490,1,10,2:2:0:0:
414,3,227572,2,0,L|303:21,1,82.7999974731446,10|0,1:2|0:0,0:0:0:0:
294,42,227818,2,0,L|161:26,1,124.199996209717,2|2,2:2|2:1,0:0:0:0:
99,84,228227,1,2,1:2:0:0:
