osu file format v14

[General]
AudioFilename: audio.ogg
AudioLeadIn: 0
PreviewTime: 142490
Countdown: 0
SampleSet: Soft
StackLeniency: 0
Mode: 0
LetterboxInBreaks: 0
WidescreenStoryboard: 0

[Editor]
DistanceSpacing: 0.5
BeatDivisor: 8
GridSize: 8
TimelineZoom: 2.3

[Metadata]
Title:Heat abnormal
TitleUnicode:熱異常
Artist:Iyowa feat. Adachi Rei
ArtistUnicode:いよわ feat. 足立レイ
Creator:Ryuusei Aika
Version:OGLE-2005-BLG-390Lb
Source:
Tags:Kardshark Mniam SupaV THAT_otaku Deppyforce Netsu Ijou Thermal Abnormaly 初音ミク Hatsune Miku Vocaloid ボーカロイド ボカロ UTAU Japanese Electronic
BeatmapID:4303461
BeatmapSetID:2058976

[Difficulty]
HPDrainRate:3
CircleSize:4.5
OverallDifficulty:9
ApproachRate:0
SliderMultiplier:2
SliderTickRate:1

[Events]
//Background and Video events
0,0,"bg.jpg",0,0
//Break Periods
2,165477,184461
//Storyboard Layer 0 (Background)
//Storyboard Layer 1 (Fail)
//Storyboard Layer 2 (Pass)
//Storyboard Layer 3 (Foreground)
//Storyboard Layer 4 (Overlay)
//Storyboard Sound Samples

[TimingPoints]
32,327.868852459016,4,2,1,50,1,0
21671,327.868852459016,4,2,2,60,1,0
21998,-100,4,2,1,60,0,0
32162,-100,4,2,2,60,0,0
32490,-100,4,2,1,60,0,0
43966,-100,4,2,2,60,0,0
44293,-100,4,2,1,60,0,0
54457,-100,4,2,2,60,0,0
54785,-100,4,2,1,80,0,0
66261,-100,4,2,1,80,0,0
66589,-100,4,2,2,80,0,0
71507,-100,4,2,1,80,0,0
71834,-100,4,2,2,80,0,0
76752,-100,4,2,1,80,0,0
76916,-100,4,2,2,80,0,0
77408,-100,4,2,1,80,0,0
77572,-100,4,2,2,80,0,0
77736,-100,4,2,1,80,0,0
77900,-100,4,2,2,80,0,0
78064,-100,4,2,1,80,0,0
78228,-100,4,2,2,80,0,0
78392,-100,4,2,1,80,0,0
78556,-100,4,2,2,80,0,0
78720,-100,4,2,1,80,0,0
78884,-100,4,2,3,80,0,0
79048,-100,4,2,1,80,0,0
79211,-100,4,2,3,80,0,0
79375,-100,4,2,1,80,0,0
79539,-100,4,2,2,80,0,0
79703,-100,4,2,1,80,0,0
79867,-100,4,2,3,80,0,0
80031,-100,4,2,1,80,0,0
80195,-100,4,2,2,80,0,0
80359,-100,4,2,1,80,0,0
80523,-100,4,2,3,80,0,0
80687,-100,4,2,1,80,0,0
80851,-100,4,2,2,80,0,0
81015,-100,4,2,1,80,0,0
81179,-100,4,2,2,80,0,0
81343,-100,4,2,1,80,0,0
81507,-100,4,2,2,80,0,0
81670,-100,4,2,1,80,0,0
81834,-100,4,2,3,80,0,0
81998,-100,4,2,1,80,0,0
82162,-100,4,2,2,80,0,0
82326,-100,4,2,1,80,0,0
82490,-100,4,2,2,80,0,0
82654,-100,4,2,1,80,0,0
82818,-100,4,2,2,80,0,0
82982,-100,4,2,1,80,0,0
83146,-100,4,2,3,80,0,0
83310,-100,4,2,1,80,0,0
83474,-100,4,2,2,80,0,0
83638,-100,4,2,1,80,0,0
83802,-100,4,2,3,80,0,0
83966,-100,4,2,1,80,0,0
84130,-100,4,2,3,80,0,0
84293,-100,4,2,1,80,0,0
84457,-100,4,2,2,80,0,0
84621,-100,4,2,1,80,0,0
84785,-100,4,2,2,80,0,0
84949,-100,4,2,1,80,0,0
85113,-100,4,2,3,80,0,0
85277,-100,4,2,1,80,0,0
85441,-100,4,2,3,80,0,0
85605,-100,4,2,1,80,0,0
85769,-100,4,2,3,80,0,0
85933,-100,4,2,1,80,0,0
86097,-100,4,2,3,80,0,0
86261,-100,4,2,1,80,0,0
86425,-100,4,2,3,80,0,0
86507,-100,4,2,4,80,0,0
86589,-100,4,2,1,80,0,0
86752,-100,4,2,3,80,0,0
86916,-100,4,2,1,80,0,0
87080,-100,4,2,3,80,0,0
87244,-100,4,2,1,50,0,0
87900,327.868852459016,4,2,1,50,1,0
88227,-333.333333333333,4,2,1,50,0,0
110195,-100,4,2,2,60,0,0
110522,-100,4,2,1,60,0,0
120686,-100,4,2,2,60,0,0
121014,-100,4,2,1,60,0,0
126260,-100,4,2,1,50,0,0
132490,-100,4,2,1,50,0,0
142981,-100,4,2,2,60,0,0
143473,-100,4,2,1,60,0,0
143965,-100,4,2,2,60,0,0
144293,-100,4,2,1,60,0,0
144621,-100,4,2,2,60,0,0
144785,-100,4,2,1,60,0,0
145277,-100,4,2,2,60,0,0
145604,-100,4,2,1,60,0,0
145932,-100,4,2,2,60,0,0
146096,-100,4,2,1,60,0,0
146588,-100,4,2,2,60,0,0
146916,-100,4,2,1,60,0,0
147244,-100,4,2,2,60,0,0
147408,-100,4,2,1,60,0,0
147899,-100,4,2,2,60,0,0
148227,-100,4,2,1,60,0,0
148555,-100,4,2,2,60,0,0
148719,-100,4,2,1,60,0,0
149211,-100,4,2,2,60,0,0
149539,-100,4,2,1,60,0,0
149867,-100,4,2,2,60,0,0
150031,-100,4,2,1,60,0,0
150522,-100,4,2,2,60,0,0
150850,-100,4,2,1,60,0,0
151178,-100,4,2,2,60,0,0
151342,-100,4,2,1,60,0,0
151834,-100,4,2,2,60,0,0
152162,-100,4,2,1,60,0,0
152490,-100,4,2,2,60,0,0
152654,-100,4,2,1,60,0,0
153145,-100,4,2,2,60,0,0
153965,-100,4,2,1,60,0,0
154457,-100,4,2,2,60,0,0
154785,-100,4,2,1,60,0,0
155113,-100,4,2,2,60,0,0
155277,-100,4,2,1,60,0,0
155768,-100,4,2,2,60,0,0
156096,-100,4,2,1,60,0,0
156424,-100,4,2,2,60,0,0
156588,-100,4,2,1,60,0,0
157080,-100,4,2,2,60,0,0
157408,-100,4,2,1,60,0,0
157736,-100,4,2,2,60,0,0
157899,-100,4,2,1,60,0,0
158391,-100,4,2,2,60,0,0
158719,-100,4,2,1,60,0,0
159047,-100,4,2,2,60,0,0
159211,-100,4,2,1,60,0,0
159703,-100,4,2,2,60,0,0
160031,-100,4,2,1,60,0,0
160359,-100,4,2,2,60,0,0
160522,-100,4,2,1,60,0,0
161014,-100,4,2,2,60,0,0
161342,-100,4,2,1,60,0,0
161670,-100,4,2,2,60,0,0
161834,-100,4,2,1,60,0,0
162326,-100,4,2,2,60,0,0
162654,-100,4,2,1,60,0,0
162981,-100,4,2,2,60,0,0
163145,-100,4,2,1,60,0,0
163637,-100,4,2,2,80,0,0
164211,-100,4,2,2,30,0,0
186260,-100,4,2,1,80,0,0
186588,-100,4,2,2,80,0,0
191506,-100,4,2,1,80,0,0
191834,-100,4,2,2,80,0,0
196752,-100,4,2,1,80,0,0
196916,-100,4,2,2,80,0,0
197080,-100,4,2,1,80,0,0
197244,-100,4,2,2,80,0,0
197408,-100,4,2,1,80,0,0
197572,-100,4,2,2,80,0,0
197736,-100,4,2,1,80,0,0
197899,-100,4,2,2,80,0,0
198063,-100,4,2,1,80,0,0
198227,-100,4,2,2,80,0,0
198391,-100,4,2,1,80,0,0
198555,-100,4,2,2,80,0,0
198719,-100,4,2,1,80,0,0
198883,-100,4,2,3,80,0,0
199047,-100,4,2,1,80,0,0
199211,-100,4,2,3,80,0,0
199375,-100,4,2,1,80,0,0
199539,-100,4,2,2,80,0,0
199703,-100,4,2,1,80,0,0
199867,-100,4,2,3,80,0,0
200031,-100,4,2,1,80,0,0
200195,-100,4,2,2,80,0,0
200359,-100,4,2,1,80,0,0
200522,-100,4,2,3,80,0,0
200686,-100,4,2,1,80,0,0
200850,-100,4,2,2,80,0,0
201014,-100,4,2,1,80,0,0
201178,-100,4,2,2,80,0,0
201342,-100,4,2,1,80,0,0
201506,-100,4,2,2,80,0,0
201670,-100,4,2,1,80,0,0
201834,-100,4,2,3,80,0,0
201998,-100,4,2,1,80,0,0
202162,-100,4,2,2,80,0,0
202326,-100,4,2,1,80,0,0
202490,-100,4,2,2,80,0,0
202654,-100,4,2,1,80,0,0
202818,-100,4,2,2,80,0,0
202981,-100,4,2,1,80,0,0
203145,-100,4,2,3,80,0,0
203309,-100,4,2,1,80,0,0
203473,-100,4,2,2,80,0,0
203637,-100,4,2,1,80,0,0
203801,-100,4,2,3,80,0,0
203965,-100,4,2,1,80,0,0
204129,-100,4,2,3,80,0,0
204293,-100,4,2,1,80,0,0
204457,-100,4,2,2,80,0,0
204621,-100,4,2,1,80,0,0
204785,-100,4,2,2,80,0,0
204949,-100,4,2,1,80,0,0
205113,-100,4,2,3,80,0,0
205277,-100,4,2,1,80,0,0
205440,-100,4,2,3,80,0,0
205604,-100,4,2,1,80,0,0
205768,-100,4,2,3,80,0,0
205932,-100,4,2,1,80,0,0
206096,-100,4,2,3,80,0,0
206260,-100,4,2,1,80,0,0
206424,-100,4,2,3,80,0,0
206588,-100,4,2,1,80,0,0
206670,-100,4,2,4,80,0,0
206916,-100,4,2,1,80,0,0
207080,-100,4,2,3,80,0,0
207244,-100,4,2,1,80,0,0
207408,-100,4,2,2,80,0,0
207572,-100,4,2,1,80,0,0
207736,-100,4,2,3,80,0,0
207818,-100,4,2,1,80,0,0
208063,-100,4,2,3,80,0,0
208227,-100,4,2,1,80,0,0
208391,-100,4,2,3,80,0,0
208473,-100,4,2,1,80,0,0
208719,-100,4,2,3,80,0,0
208801,-100,4,2,1,80,0,0
209047,-100,4,2,3,80,0,0
209129,-100,4,2,1,80,0,0
209375,-100,4,2,3,80,0,0
209539,-100,4,2,1,80,0,0
209703,-100,4,2,3,80,0,0
209785,-100,4,2,1,80,0,0
210031,-100,4,2,3,80,0,0
210195,-100,4,2,1,80,0,0
210359,-100,4,2,3,80,0,0
210440,-100,4,2,1,80,0,0
210686,-100,4,2,3,80,0,0
210850,-100,4,2,1,80,0,0
211014,-100,4,2,3,80,0,0
211096,-100,4,2,1,80,0,0
211342,-100,4,2,3,80,0,0
211506,-100,4,2,1,80,0,0
211670,-100,4,2,3,80,0,0
211752,-100,4,2,1,80,0,0
211998,-100,4,2,3,80,0,0
212162,-100,4,2,1,80,0,0
212326,-100,4,2,3,80,0,0
212490,-100,4,2,1,80,0,0
212654,-100,4,2,3,80,0,0
212818,-100,4,2,1,80,0,0
212981,-100,4,2,3,80,0,0
213063,-100,4,2,1,80,0,0
213309,-100,4,2,3,80,0,0
213473,-100,4,2,1,80,0,0
213637,-100,4,2,3,80,0,0
213719,-100,4,2,1,80,0,0
213965,-100,4,2,3,80,0,0
214047,-100,4,2,1,80,0,0
214293,-100,4,2,3,80,0,0
214457,-100,4,2,1,80,0,0
214621,-100,4,2,3,80,0,0
214703,-100,4,2,1,80,0,0
214949,-100,4,2,3,80,0,0
215031,-100,4,2,1,80,0,0
215277,-100,4,2,3,80,0,0
215440,-100,4,2,1,80,0,0
215604,-100,4,2,3,80,0,0
215686,-100,4,2,1,80,0,0
215932,-100,4,2,3,80,0,0
216014,-100,4,2,1,80,0,0
216260,-100,4,2,3,80,0,0
216424,-100,4,2,1,80,0,0
216588,-100,4,2,3,80,0,0
216670,-100,4,2,1,80,0,0
216916,-100,4,2,4,80,0,0
217080,-100,4,2,1,80,0,0
217244,-100,4,2,5,80,0,0
217326,-100,4,2,1,80,0,0
217572,-100,4,2,2,80,0,0
217736,-100,4,2,1,80,0,0
217899,-100,4,2,2,80,0,0
218063,-100,4,2,1,80,0,0
218227,-100,4,2,3,80,0,0
218309,-100,4,2,1,80,0,0
218555,-100,4,2,3,80,0,0
218719,-100,4,2,1,80,0,0
218883,-100,4,2,3,80,0,0
218965,-100,4,2,1,80,0,0
219211,-100,4,2,3,80,0,0
219375,-100,4,2,1,80,0,0
219539,-100,4,2,3,80,0,0
219621,-100,4,2,1,80,0,0
219867,-100,4,2,3,80,0,0
219949,-100,4,2,1,80,0,0
220195,-100,4,2,3,80,0,0
220277,-100,4,2,1,80,0,0
220522,-100,4,2,3,80,0,0
220686,-100,4,2,1,80,0,0
220850,-100,4,2,3,80,0,0
220932,-100,4,2,1,80,0,0
221178,-100,4,2,3,80,0,0
221342,-100,4,2,1,80,0,0
221506,-100,4,2,3,80,0,0
221588,-100,4,2,1,80,0,0
221834,-100,4,2,3,80,0,0
221998,-100,4,2,1,80,0,0
222162,-100,4,2,3,80,0,0
222326,-100,4,2,1,80,0,0
222490,-100,4,2,3,80,0,0
222572,-100,4,2,1,80,0,0
222818,-100,4,2,3,80,0,0
222981,-100,4,2,1,80,0,0
223145,-100,4,2,3,80,0,0
223309,-100,4,2,1,80,0,0
223473,-100,4,2,3,80,0,0
223555,-100,4,2,1,80,0,0
223801,-100,4,2,3,80,0,0
223883,-100,4,2,1,80,0,0
224129,-100,4,2,3,80,0,0
224211,-100,4,2,1,80,0,0
224457,-100,4,2,3,80,0,0
224539,-100,4,2,1,80,0,0
224785,-100,4,2,3,80,0,0
224867,-100,4,2,1,80,0,0
225113,-100,4,2,3,80,0,0
225195,-100,4,2,1,80,0,0
225440,-100,4,2,3,80,0,0
225522,-100,4,2,1,80,0,0
225768,-100,4,2,3,80,0,0
225850,-100,4,2,1,80,0,0
226096,-100,4,2,3,80,0,0
226178,-100,4,2,1,80,0,0
226424,-100,4,2,3,80,0,0
226506,-100,4,2,1,80,0,0
226752,-100,4,2,3,80,0,0
226834,-100,4,2,1,80,0,0
227080,-100,4,2,3,80,0,0
227162,-100,4,2,1,80,0,0
227326,-100,4,2,4,80,0,0
227408,-100,4,2,3,80,0,0
227490,-100,4,2,1,80,0,0
227736,-100,4,2,6,80,0,0
227818,-100,4,2,4,80,0,0
227899,-100,4,2,1,80,0,0
228063,-100,4,2,4,80,0,0
228227,-100,4,2,1,80,0,0

[Colours]
Combo1 : 32,183,255
Combo2 : 255,64,64
Combo3 : 255,128,128
Combo4 : 223,112,0
Combo5 : 255,175,96
Combo6 : 0,159,80
Combo7 : 0,255,128
Combo8 : 0,128,192

[HitObjects]
244,153,359,5,2,1:2:0:0:
278,270,687,1,2,1:2:0:0:
176,173,1015,5,2,1:2:0:0:
278,270,1343,1,2,1:2:0:0:
312,133,1671,1,2,1:2:0:0:
295,201,1999,5,2,1:2:0:0:
256,192,2163,1,2,0:0:0:0:
244,153,2327,1,2,1:2:0:0:
256,192,2491,1,2,1:2:0:0:
295,201,2655,1,2,1:2:0:0:
312,133,5769,5,0,0:0:0:0:
304,167,5933,1,2,1:2:0:0:
176,173,6261,5,2,1:2:0:0:
201,197,6425,1,2,1:2:0:0:
227,221,6589,1,2,1:2:0:0:
296,202,6917,1,2,1:2:0:0:
278,270,7245,1,2,1:2:0:0:
296,202,7572,5,2,1:2:0:0:
304,167,7736,1,2,1:2:0:0:
312,133,7900,1,2,1:2:0:0:
278,270,10851,5,2,1:2:0:0:
312,133,11179,1,2,1:2:0:0:
278,270,11507,1,2,1:2:0:0:
176,173,11835,5,2,1:2:0:0:
216,182,11999,1,2,2:2:0:0:
256,192,12163,1,2,1:2:0:0:
256,192,12491,5,2,1:2:0:0:
216,182,12654,1,2,2:2:0:0:
176,173,12818,1,2,1:2:0:0:
188,212,12982,1,2,1:2:0:0:
200,252,13146,1,2,1:2:0:0:
336,212,16097,5,2,1:2:0:0:
296,202,16261,1,2,2:2:0:0:
256,192,16425,1,2,1:2:0:0:
267,231,16589,5,0,0:0:0:0:
259,238,16671,1,0,0:0:0:0:
250,244,16753,1,2,1:2:0:0:
261,283,16917,1,2,1:2:0:0:
290,254,17081,5,2,1:2:0:0:
300,259,17163,1,0,0:0:0:0:
233,114,17654,5,0,0:0:0:0:
243,119,17736,1,2,1:2:0:0:
203,129,17900,5,2,2:2:0:0:
232,159,18064,1,2,1:2:0:0:
272,148,18228,1,2,1:2:0:0:
243,119,18392,1,2,1:2:0:0:
511,384,21507,5,0,1:1:0:0:
471,236,21671,1,0,1:1:0:0:
454,240,21752,1,0,0:0:0:0:
438,244,21834,1,0,0:0:0:0:
422,249,21916,1,0,0:0:0:0:
401,274,21999,5,10,1:2:0:0:
292,195,22163,1,2,2:2:0:0:
259,181,22245,1,2,2:2:0:0:
225,191,22327,1,2,1:2:0:0:
206,221,22409,1,0,0:0:0:0:
209,260,22491,1,2,2:2:0:0:
292,195,22654,5,10,2:2:0:0:
314,166,22736,1,0,0:0:0:0:
315,131,22818,1,2,2:2:0:0:
291,104,22900,1,2,2:2:0:0:
250,101,22982,1,2,1:2:0:0:
138,168,23146,1,2,2:2:0:0:
136,192,23228,1,2,2:2:0:0:
135,217,23310,1,2,1:2:0:0:
176,102,23474,1,2,2:2:0:0:
123,46,23638,5,2,1:2:0:0:
102,60,23720,1,2,2:2:0:0:
95,84,23802,1,2,2:2:0:0:
206,221,23966,1,10,1:2:0:0:
132,266,24130,5,2,1:2:0:0:
133,241,24212,1,2,2:2:0:0:
135,217,24294,1,2,1:2:0:0:
257,275,24458,1,2,2:2:0:0:
191,310,24622,5,10,1:2:0:0:
68,303,24786,1,2,2:2:0:0:
38,284,24868,1,2,2:2:0:0:
24,251,24950,1,2,1:2:0:0:
31,217,25031,1,0,0:0:0:0:
60,191,25113,1,2,2:2:0:0:
132,266,25277,5,10,1:2:0:0:
161,288,25359,1,2,2:2:0:0:
191,310,25441,1,2,1:2:0:0:
157,325,25523,1,2,2:2:0:0:
124,340,25605,1,2,1:2:0:0:
217,378,25769,5,2,2:2:0:0:
240,368,25851,1,2,2:2:0:0:
253,347,25933,1,10,1:2:0:0:
274,359,26015,1,0,0:0:0:0:
286,380,26097,1,2,2:2:0:0:
332,280,26261,5,2,1:2:0:0:
327,304,26343,1,2,2:2:0:0:
337,326,26425,1,2,2:2:0:0:
361,331,26507,1,0,0:0:0:0:
387,316,26589,1,10,1:2:0:0:
377,165,26753,5,2,1:2:0:0:
385,204,26835,1,0,0:0:0:0:
393,243,26917,1,2,1:2:0:0:
453,190,27081,1,2,2:2:0:0:
273,233,27244,1,10,1:2:0:0:
273,233,27408,5,2,2:2:0:0:
222,221,27490,1,0,0:0:0:0:
219,169,27572,1,2,1:2:0:0:
267,148,27654,1,2,2:2:0:0:
300,189,27736,1,2,2:2:0:0:
300,189,27899,5,10,1:2:0:0:
273,233,27981,1,0,0:0:0:0:
222,221,28063,1,2,1:2:0:0:
219,169,28145,1,2,2:2:0:0:
267,148,28227,1,2,1:2:0:0:
267,148,28391,5,2,2:2:0:0:
300,189,28473,1,0,0:0:0:0:
273,233,28555,1,10,1:2:0:0:
222,221,28637,1,2,2:2:0:0:
219,169,28719,1,2,2:2:0:0:
219,169,28883,5,2,1:2:0:0:
267,148,28965,1,0,0:0:0:0:
300,189,29047,1,2,2:2:0:0:
273,233,29129,1,2,2:2:0:0:
222,221,29211,1,10,1:2:0:0:
222,221,29375,5,2,1:2:0:0:
219,169,29457,1,0,0:0:0:0:
267,148,29539,1,2,1:2:0:0:
300,189,29621,1,2,2:2:0:0:
273,233,29703,1,2,2:2:0:0:
273,233,29867,5,10,1:2:0:0:
222,221,29949,1,0,0:0:0:0:
219,169,30030,1,2,2:2:0:0:
267,148,30112,1,2,2:2:0:0:
300,189,30194,1,2,1:2:0:0:
300,189,30358,5,2,2:2:0:0:
273,233,30440,1,0,0:0:0:0:
222,221,30522,1,10,1:2:0:0:
219,169,30604,1,2,2:2:0:0:
267,148,30686,1,2,1:2:0:0:
267,148,30850,5,2,1:2:0:0:
300,189,30932,1,0,0:0:0:0:
273,233,31014,1,2,2:2:0:0:
222,221,31096,1,2,2:2:0:0:
219,169,31178,1,10,1:2:0:0:
215,117,31260,1,2,2:2:0:0:
164,105,31342,1,2,2:2:0:0:
137,150,31424,1,2,2:2:0:0:
170,190,31506,1,2,1:2:0:0:
266,70,31752,5,2,2:2:0:0:
263,59,31834,1,8,1:2:0:0:
312,7,31998,1,0,1:1:0:0:
369,49,32162,1,0,1:1:0:0:
58,112,32491,5,10,1:2:0:0:
25,224,32654,1,2,2:2:0:0:
57,236,32736,1,2,2:2:0:0:
77,264,32818,1,2,1:2:0:0:
86,297,32900,1,0,0:0:0:0:
80,336,32982,1,2,2:2:0:0:
25,224,33146,5,10,1:2:0:0:
48,198,33228,1,2,2:2:0:0:
82,191,33310,1,2,1:2:0:0:
116,198,33392,1,2,2:2:0:0:
145,224,33474,1,2,1:2:0:0:
171,376,33638,1,2,2:2:0:0:
249,241,33802,1,10,1:2:0:0:
157,308,33966,5,2,2:2:0:0:
178,294,34048,1,2,2:2:0:0:
202,293,34130,1,2,1:2:0:0:
270,309,34294,1,2,2:2:0:0:
238,376,34458,5,10,1:2:0:0:
272,380,34540,1,0,0:0:0:0:
306,373,34622,1,2,1:2:0:0:
332,349,34704,1,2,2:2:0:0:
342,315,34786,1,2,1:2:0:0:
324,205,34950,1,2,2:2:0:0:
320,229,35031,1,0,0:0:0:0:
316,253,35113,5,10,1:2:0:0:
353,238,35195,1,0,0:0:0:0:
392,240,35277,1,2,2:2:0:0:
426,260,35359,1,0,0:0:0:0:
445,295,35441,1,2,1:2:0:0:
451,275,35523,1,2,2:2:0:0:
457,255,35605,1,2,2:2:0:0:
463,235,35687,1,0,0:0:0:0:
469,215,35769,1,10,1:2:0:0:
402,348,35933,5,2,1:2:0:0:
408,368,36015,1,2,2:2:0:0:
414,388,36097,1,2,1:2:0:0:
342,315,36261,1,2,2:2:0:0:
392,240,36425,5,10,1:2:0:0:
396,216,36507,1,2,2:2:0:0:
400,192,36588,1,2,2:2:0:0:
443,76,36753,1,2,1:2:0:0:
417,69,36835,1,2,2:2:0:0:
393,78,36917,1,2,2:2:0:0:
373,93,36999,1,0,0:0:0:0:
361,121,37081,1,10,1:2:0:0:
325,37,37245,5,2,1:2:0:0:
291,42,37327,1,0,0:0:0:0:
261,67,37409,1,2,1:2:0:0:
361,121,37572,1,2,2:2:0:0:
243,242,37736,5,10,1:2:0:0:
207,205,37818,1,2,2:2:0:0:
220,155,37900,1,2,2:2:0:0:
270,142,37982,1,2,2:2:0:0:
307,178,38064,1,2,1:2:0:0:
294,229,38146,1,2,2:2:0:0:
294,229,38228,5,2,2:2:0:0:
243,242,38310,1,2,2:2:0:0:
207,205,38392,1,10,1:2:0:0:
220,155,38474,1,2,2:2:0:0:
270,142,38556,1,2,1:2:0:0:
307,178,38638,1,2,2:2:0:0:
307,178,38720,5,2,1:2:0:0:
294,229,38802,1,2,2:2:0:0:
243,242,38884,1,2,2:2:0:0:
207,205,38966,1,2,2:2:0:0:
220,155,39048,1,10,1:2:0:0:
270,142,39130,1,2,2:2:0:0:
270,142,39212,5,2,2:2:0:0:
307,178,39294,1,2,2:2:0:0:
294,229,39376,1,2,1:2:0:0:
243,242,39458,1,2,2:2:0:0:
207,205,39540,1,2,2:2:0:0:
220,155,39622,1,2,2:2:0:0:
220,155,39704,5,10,1:2:0:0:
270,142,39786,1,2,2:2:0:0:
307,178,39868,1,2,1:2:0:0:
294,229,39950,1,2,2:2:0:0:
243,242,40031,1,2,1:2:0:0:
207,205,40113,1,2,2:2:0:0:
207,205,40195,5,2,2:2:0:0:
220,155,40277,1,2,2:2:0:0:
270,142,40359,1,10,1:2:0:0:
307,178,40441,1,2,2:2:0:0:
294,229,40523,1,2,2:2:0:0:
243,242,40605,1,2,2:2:0:0:
243,242,40687,5,2,1:2:0:0:
207,205,40769,1,2,2:2:0:0:
220,155,40851,1,2,2:2:0:0:
270,142,40933,1,2,2:2:0:0:
307,178,41015,1,10,1:2:0:0:
294,229,41097,1,2,2:2:0:0:
294,229,41179,5,2,1:2:0:0:
243,242,41261,1,2,2:2:0:0:
207,205,41343,1,2,1:2:0:0:
220,155,41425,1,2,2:2:0:0:
270,142,41507,1,2,2:2:0:0:
307,178,41589,1,2,2:2:0:0:
343,215,41670,1,10,1:2:0:0:
394,202,41752,1,2,2:2:0:0:
407,151,41834,1,2,2:2:0:0:
371,115,41916,1,2,2:2:0:0:
320,128,41998,1,2,1:2:0:0:
258,344,42245,5,0,0:0:0:0:
254,360,42327,1,8,1:2:0:0:
203,305,42491,1,2,1:2:0:0:
325,335,42654,1,2,1:2:0:0:
1,0,43966,5,0,1:1:0:0:
2,8,44048,1,0,0:0:0:0:
3,16,44130,1,0,0:0:0:0:
4,24,44212,1,0,0:0:0:0:
10,63,44294,5,10,1:2:0:0:
157,91,44458,1,2,2:2:0:0:
22,155,44622,1,2,1:2:0:0:
94,24,44786,1,2,2:2:0:0:
113,173,44950,5,10,1:2:0:0:
155,161,45031,1,0,1:1:0:0:
195,180,45113,1,2,1:2:0:0:
213,221,45195,1,2,2:2:0:0:
203,264,45277,1,2,1:2:0:0:
113,173,45441,5,2,2:2:0:0:
53,219,45605,1,10,1:2:0:0:
46,258,45687,1,2,1:2:0:0:
64,293,45769,1,2,1:2:0:0:
102,369,45933,5,2,1:2:0:0:
110,349,46015,1,2,1:2:0:0:
140,324,46097,1,2,1:2:0:0:
180,330,46179,2,0,P|191:339|202:353,1,25,2|0,1:2|0:0,0:0:0:0:
206,361,46261,1,10,1:2:0:0:
289,272,46425,5,2,1:2:0:0:
269,295,46507,1,2,2:2:0:0:
268,325,46589,1,2,1:2:0:0:
310,384,46753,1,2,2:2:0:0:
430,316,46917,5,10,1:2:0:0:
395,324,46999,1,0,0:0:0:0:
372,350,47081,1,2,2:2:0:0:
363,254,47245,1,2,1:2:0:0:
438,225,47409,1,2,2:2:0:0:
414,191,47491,1,0,0:0:0:0:
423,152,47572,1,10,1:2:0:0:
433,141,47654,1,2,2:2:0:0:
447,136,47736,1,2,1:2:0:0:
471,110,47818,1,2,2:2:0:0:
460,71,47900,1,2,1:2:0:0:
335,48,48064,5,2,2:2:0:0:
351,79,48146,1,2,2:2:0:0:
389,90,48228,1,10,1:2:0:0:
273,84,48392,1,2,2:2:0:0:
201,81,48556,1,2,1:2:0:0:
204,64,48638,1,2,2:2:0:0:
207,47,48720,1,2,2:2:0:0:
210,30,48802,1,2,2:2:0:0:
216,0,48884,1,10,1:2:0:0:
51,30,49048,5,2,1:2:0:0:
91,30,49130,1,0,0:0:0:0:
119,57,49212,1,2,1:2:0:0:
127,90,49294,1,0,0:0:0:0:
118,118,49376,1,2,2:2:0:0:
147,227,49540,1,10,1:2:0:0:
272,150,49704,5,2,2:2:0:0:
300,194,49786,1,2,2:2:0:0:
268,234,49868,1,2,1:2:0:0:
219,216,49950,1,2,2:2:0:0:
221,164,50032,1,2,2:2:0:0:
221,164,50195,5,10,1:2:0:0:
219,216,50277,1,2,2:2:0:0:
268,234,50359,1,2,1:2:0:0:
300,194,50441,1,2,2:2:0:0:
272,150,50523,1,2,1:2:0:0:
272,150,50687,5,2,2:2:0:0:
300,194,50769,1,2,2:2:0:0:
268,234,50851,1,10,1:2:0:0:
219,216,50933,1,2,2:2:0:0:
221,164,51015,1,2,2:2:0:0:
221,164,51178,5,2,1:2:0:0:
219,216,51260,1,2,2:2:0:0:
268,234,51342,1,2,2:2:0:0:
300,194,51424,1,2,2:2:0:0:
272,150,51506,1,10,1:2:0:0:
272,150,51671,5,2,1:2:0:0:
300,194,51753,1,2,2:2:0:0:
268,234,51835,1,2,1:2:0:0:
219,216,51917,1,2,2:2:0:0:
221,164,51999,1,2,2:2:0:0:
221,164,52162,5,10,1:2:0:0:
219,216,52244,1,2,2:2:0:0:
268,234,52326,1,2,2:2:0:0:
300,194,52408,1,2,2:2:0:0:
272,150,52490,1,2,1:2:0:0:
272,150,52654,5,2,2:2:0:0:
300,194,52736,1,2,2:2:0:0:
268,234,52818,1,10,1:2:0:0:
219,216,52900,1,2,2:2:0:0:
221,164,52982,1,2,1:2:0:0:
221,164,53145,5,2,1:2:0:0:
219,216,53227,1,2,2:2:0:0:
268,234,53309,1,2,2:2:0:0:
300,194,53392,1,2,2:2:0:0:
272,150,53473,1,10,1:2:0:0:
379,176,53638,5,2,2:2:0:0:
385,200,53720,1,2,2:2:0:0:
378,224,53802,1,2,1:2:0:0:
294,350,54048,1,0,0:0:0:0:
296,335,54130,5,8,1:2:0:0:
365,359,54294,1,0,1:1:0:0:
434,383,54458,1,0,1:1:0:0:
224,317,54704,1,0,0:0:0:0:
226,332,54786,5,10,1:2:0:0:
160,355,54950,1,2,2:2:0:0:
97,324,55113,1,2,1:2:0:0:
157,204,55277,1,2,2:2:0:0:
103,250,55441,5,10,1:2:0:0:
81,229,55523,1,2,2:2:0:0:
73,199,55605,1,2,1:2:0:0:
76,169,55687,1,0,0:0:0:0:
96,140,55769,1,2,1:2:0:0:
57,42,55933,5,2,2:2:0:0:
26,57,56015,1,2,2:2:0:0:
8,81,56097,1,10,1:2:0:0:
0,111,56179,1,0,0:0:0:0:
9,141,56261,1,2,2:2:0:0:
124,73,56425,1,2,1:2:0:0:
143,80,56507,1,0,0:0:0:0:
162,87,56589,1,2,2:2:0:0:
298,33,56753,5,10,1:2:0:0:
205,29,56917,1,2,1:2:0:0:
217,44,56999,1,2,2:2:0:0:
230,60,57081,1,2,1:2:0:0:
300,109,57245,5,2,2:2:0:0:
285,122,57327,1,0,0:0:0:0:
278,146,57409,1,10,1:2:0:0:
353,162,57572,1,2,2:2:0:0:
371,144,57654,1,2,2:2:0:0:
390,140,57736,1,2,1:2:0:0:
298,33,57900,5,2,2:2:0:0:
424,3,58064,1,10,1:2:0:0:
372,63,58228,1,2,1:2:0:0:
465,158,58392,5,2,1:2:0:0:
471,176,58474,1,2,2:2:0:0:
477,194,58556,1,2,2:2:0:0:
459,200,58638,1,2,2:2:0:0:
430,210,58720,1,10,1:2:0:0:
330,298,58884,1,2,2:2:0:0:
399,276,59048,5,2,1:2:0:0:
405,301,59130,1,0,0:0:0:0:
396,325,59212,1,2,2:2:0:0:
220,351,59376,5,10,1:2:0:0:
289,363,59540,1,0,0:0:0:0:
318,368,59622,1,0,0:0:0:0:
347,373,59704,1,2,1:2:0:0:
274,149,59950,1,2,2:2:0:0:
227,155,60031,5,2,1:2:0:0:
211,199,60113,1,2,2:2:0:0:
239,235,60195,1,2,1:2:0:0:
285,229,60277,1,2,2:2:0:0:
302,185,60359,1,2,1:2:0:0:
274,149,60441,1,2,2:2:0:0:
302,185,60523,5,2,2:2:0:0:
285,229,60605,1,2,2:2:0:0:
239,235,60687,1,2,1:2:0:0:
211,199,60769,1,2,2:2:0:0:
227,155,60851,1,2,1:2:0:0:
274,149,60933,1,2,2:2:0:0:
227,155,61015,5,2,1:2:0:0:
211,199,61097,1,2,2:2:0:0:
239,235,61179,1,2,2:2:0:0:
285,229,61261,1,2,2:2:0:0:
302,185,61343,1,2,1:2:0:0:
274,149,61425,1,2,2:2:0:0:
302,185,61507,5,2,1:2:0:0:
285,229,61589,1,2,2:2:0:0:
239,235,61671,1,2,1:2:0:0:
211,199,61753,1,2,2:2:0:0:
227,155,61835,1,2,2:2:0:0:
274,149,61917,1,2,2:2:0:0:
227,155,61999,5,2,1:2:0:0:
211,199,62081,1,2,2:2:0:0:
239,235,62163,1,2,1:2:0:0:
285,229,62245,1,2,2:2:0:0:
302,185,62327,1,2,1:2:0:0:
274,149,62409,1,2,2:2:0:0:
302,185,62491,5,2,2:2:0:0:
285,229,62573,1,2,2:2:0:0:
239,235,62655,1,2,1:2:0:0:
211,199,62737,1,2,2:2:0:0:
227,155,62819,1,2,2:2:0:0:
274,149,62901,1,2,2:2:0:0:
227,155,62982,5,2,1:2:0:0:
211,199,63064,1,2,2:2:0:0:
239,235,63146,1,2,2:2:0:0:
285,229,63228,1,2,2:2:0:0:
302,185,63310,1,2,1:2:0:0:
274,149,63392,1,2,2:2:0:0:
302,185,63474,5,2,1:2:0:0:
285,229,63556,1,2,2:2:0:0:
239,235,63638,1,2,1:2:0:0:
211,199,63720,1,2,2:2:0:0:
227,155,63802,1,2,2:2:0:0:
139,228,63966,5,2,1:2:0:0:
132,246,64048,1,2,2:2:0:0:
135,265,64130,1,2,2:2:0:0:
143,282,64212,1,0,0:0:0:0:
159,293,64294,1,2,1:2:0:0:
65,357,64540,5,2,2:2:0:0:
63,344,64622,1,0,1:1:0:0:
7,299,64786,1,2,1:2:0:0:
48,240,64950,1,2,1:2:0:0:
512,0,66261,5,12,1:1:0:0:
256,128,66589,1,10,1:2:0:0:
512,384,66917,1,10,1:2:0:0:
256,200,67245,5,10,1:2:0:0:
0,384,67572,1,10,1:2:0:0:
256,272,67900,1,10,1:2:0:0:
0,160,68228,5,10,1:2:0:0:
72,144,68392,1,2,2:2:0:0:
91,232,68556,1,10,1:2:0:0:
19,248,68720,1,2,2:2:0:0:
0,160,68884,1,10,1:2:0:0:
320,160,69212,5,8,1:2:0:0:
320,160,69376,1,2,2:2:0:0:
256,200,69540,1,10,1:2:0:0:
136,0,69868,1,10,1:2:0:0:
158,87,70031,1,2,2:2:0:0:
223,25,70195,1,10,1:2:0:0:
320,232,70523,5,10,1:2:0:0:
136,192,70851,1,10,1:2:0:0:
312,304,71179,1,10,1:2:0:0:
384,296,71343,1,2,2:2:0:0:
456,288,71507,1,14,1:1:0:0:
0,80,71835,5,10,1:2:0:0:
256,352,72163,1,10,1:2:0:0:
448,216,72491,1,10,1:2:0:0:
440,144,72654,1,2,2:2:0:0:
432,72,72818,1,10,1:2:0:0:
256,192,73146,5,10,1:2:0:0:
202,89,73310,1,2,2:2:0:0:
305,138,73474,1,10,1:2:0:0:
192,160,73638,1,2,2:2:0:0:
272,76,73802,1,10,1:2:0:0:
32,240,74130,1,8,1:2:0:0:
32,240,74458,5,10,1:2:0:0:
104,208,74622,1,2,2:2:0:0:
167,254,74786,1,10,1:2:0:0:
158,332,74950,1,2,2:2:0:0:
87,363,75114,1,10,1:2:0:0:
24,317,75277,1,2,2:2:0:0:
32,240,75441,5,10,1:2:0:0:
104,208,75605,1,2,2:2:0:0:
167,254,75769,1,10,1:2:0:0:
158,332,75933,1,2,2:2:0:0:
87,363,76097,1,10,1:2:0:0:
24,317,76261,5,2,2:2:0:0:
257,286,76425,1,10,1:2:0:0:
226,53,76589,1,2,2:2:0:0:
459,22,76753,1,14,1:1:0:0:
34,165,77081,5,10,2:2:0:0:
43,94,77244,1,2,0:1:0:0:
247,192,77409,1,10,1:2:0:0:
256,121,77572,1,2,2:1:0:0:
105,174,77736,5,10,1:2:0:0:
114,103,77900,1,2,0:1:0:0:
318,201,78064,1,10,1:2:0:0:
327,130,78228,1,2,2:1:0:0:
176,183,78391,5,10,1:2:0:0:
185,112,78556,1,2,0:1:0:0:
389,210,78720,5,10,1:2:0:0:
398,139,78883,1,2,2:1:0:0:
256,121,79048,1,10,1:2:0:0:
247,192,79212,1,2,2:1:0:0:
389,210,79375,1,10,1:2:0:0:
225,375,79704,5,8,1:2:0:0:
203,306,79868,1,2,2:1:0:0:
65,350,80031,1,10,1:2:0:0:
65,350,80195,1,2,2:1:0:0:
272,284,80359,5,10,1:2:0:0:
294,353,80523,1,2,2:1:0:0:
432,309,80686,1,10,1:2:0:0:
432,309,80851,1,2,0:1:0:0:
272,284,81015,1,10,1:2:0:0:
272,284,81179,1,2,0:1:0:0:
122,293,81343,1,10,1:2:0:0:
122,293,81507,1,2,0:1:0:0:
192,237,81671,5,10,1:2:0:0:
357,253,81835,1,2,2:1:0:0:
487,384,81999,1,14,1:1:0:0:
465,174,82327,5,10,1:2:0:0:
246,186,82491,1,2,0:1:0:0:
392,178,82654,1,10,1:2:0:0:
392,178,82818,1,2,2:1:0:0:
98,120,82982,5,10,1:2:0:0:
243,113,83145,1,2,2:1:0:0:
246,186,83310,1,10,1:2:0:0:
246,186,83474,1,2,0:1:0:0:
170,117,83638,5,10,1:2:0:0:
173,190,83802,1,2,2:1:0:0:
316,109,83966,1,10,1:2:0:0:
319,182,84130,1,2,2:1:0:0:
170,117,84294,1,10,1:2:0:0:
482,126,84621,5,8,1:2:0:0:
482,126,84950,1,10,1:2:0:0:
463,197,85113,1,2,2:1:0:0:
411,107,85277,1,10,1:2:0:0:
392,178,85441,1,2,2:1:0:0:
482,126,85605,1,10,1:2:0:0:
463,197,85768,1,2,2:1:0:0:
411,107,85932,1,10,1:2:0:0:
392,178,86096,1,2,2:1:0:0:
443,276,86261,5,10,1:2:0:0:
424,347,86425,1,2,2:1:0:0:
389,338,86507,1,2,3:2:0:0:
353,328,86589,1,10,1:2:0:0:
363,292,86671,1,2,3:0:0:0:
372,257,86753,1,2,1:1:0:0:
408,267,86835,1,2,3:0:0:0:
443,276,86917,1,10,1:2:0:0:
294,363,87081,1,2,1:1:0:0:
234,324,87245,5,2,1:2:0:0:
292,285,87409,1,0,1:1:0:0:
236,208,87572,1,0,1:1:0:0:
235,216,87654,1,0,1:1:0:0:
234,224,87736,1,0,1:1:0:0:
233,232,87818,1,0,1:1:0:0:
231,251,87900,5,0,1:1:0:0:
68,295,88228,2,0,P|59:136|168:209,1,359.999989013672,0|8,1:1|1:2,0:0:0:0:
131,264,90359,1,0,1:1:0:0:
131,264,90523,5,0,1:1:0:0:
38,164,90851,2,0,P|171:76|162:207,1,359.999989013672,8|8,1:2|1:2,0:0:0:0:
96,203,92982,1,0,1:1:0:0:
96,203,93146,5,0,1:1:0:0:
138,72,93474,2,0,P|280:143|162:200,1,359.999989013672,8|8,1:2|1:2,0:0:0:0:
133,141,95605,1,0,1:1:0:0:
133,141,95769,5,0,1:1:0:0:
287,141,96097,2,0,P|255:296|169:197,1,359.999989013672,8|8,1:2|1:2,0:0:0:0:
219,154,98228,1,0,1:1:0:0:
245,331,98392,5,0,1:1:0:0:
245,331,98720,2,0,P|277:176|363:275,1,359.999989013672,8|8,1:2|1:2,0:0:0:0:
313,318,100851,1,0,1:1:0:0:
364,270,101015,5,0,1:1:0:0:
303,151,101343,2,0,P|458:183|359:269,1,359.999989013672,8|8,1:2|1:2,0:0:0:0:
316,219,103474,1,0,1:1:0:0:
364,270,103638,5,0,1:1:0:0:
463,180,103966,2,0,P|472:338|363:264,1,359.999989013672,8|8,1:2|1:2,0:0:0:0:
400,210,106097,1,0,1:1:0:0:
364,270,106261,5,0,1:1:0:0:
495,242,106589,2,0,P|423:383|366:264,1,359.999989013672,8|8,1:2|2:2,0:0:0:0:
363,269,108720,1,0,2:2:0:0:
0,192,110195,5,0,1:1:0:0:
69,123,110359,1,0,0:0:0:0:
66,140,110441,1,2,2:2:0:0:
63,157,110523,5,10,1:2:0:0:
102,152,110605,1,0,0:0:0:0:
138,168,110687,1,2,2:2:0:0:
153,202,110769,1,2,2:2:0:0:
152,237,110851,1,2,1:2:0:0:
138,236,110933,1,2,2:2:0:0:
98,233,111015,5,2,2:2:0:0:
62,252,111097,1,2,2:2:0:0:
46,288,111179,1,10,1:2:0:0:
49,325,111261,1,2,1:2:0:0:
66,355,111343,1,2,1:2:0:0:
96,337,111425,1,2,2:2:0:0:
130,345,111507,1,2,1:2:0:0:
229,250,111671,5,2,2:2:0:0:
212,281,111753,1,2,2:2:0:0:
195,312,111835,1,10,1:2:0:0:
213,342,111917,1,0,0:0:0:0:
231,372,111999,1,2,1:2:0:0:
229,250,112163,5,2,1:2:0:0:
258,231,112245,1,2,1:2:0:0:
288,213,112327,1,2,1:2:0:0:
319,230,112409,1,0,0:0:0:0:
350,247,112491,2,0,L|379:264,2,25,10|0|0,1:2|1:0|1:0,0:0:0:0:
367,215,112654,1,2,1:2:0:0:
384,184,112736,1,2,2:2:0:0:
353,167,112818,1,2,1:2:0:0:
291,299,112982,1,2,2:2:0:0:
431,339,113146,5,10,1:2:0:0:
362,383,113310,1,2,2:2:0:0:
352,365,113392,1,2,2:2:0:0:
353,345,113474,1,2,1:2:0:0:
502,343,113638,5,2,2:2:0:0:
506,323,113720,1,2,2:2:0:0:
510,303,113802,1,10,1:2:0:0:
479,285,113884,1,2,2:2:0:0:
464,253,113966,1,2,1:2:0:0:
466,218,114048,1,2,2:2:0:0:
490,186,114130,1,2,1:2:0:0:
416,90,114294,5,2,2:2:0:0:
434,106,114376,1,2,2:2:0:0:
442,134,114458,1,10,1:2:0:0:
490,44,114622,1,2,2:2:0:0:
346,80,114786,1,2,1:2:0:0:
373,160,114950,5,2,2:2:0:0:
375,183,115031,1,2,2:2:0:0:
362,215,115113,1,10,1:2:0:0:
346,80,115277,1,2,1:2:0:0:
342,63,115359,1,0,0:0:0:0:
336,38,115441,1,2,1:2:0:0:
261,261,115605,1,2,2:2:0:0:
261,247,115687,1,2,2:2:0:0:
261,233,115769,5,10,1:2:0:0:
214,210,115851,1,0,0:0:0:0:
223,159,115933,1,2,2:2:0:0:
275,150,116015,1,2,2:2:0:0:
297,198,116097,1,2,1:2:0:0:
261,233,116179,1,2,2:2:0:0:
261,233,116261,5,2,2:2:0:0:
214,210,116343,1,0,0:0:0:0:
223,159,116425,1,10,1:2:0:0:
275,150,116507,1,2,2:2:0:0:
297,198,116589,1,2,1:2:0:0:
261,233,116671,1,2,2:2:0:0:
261,233,116753,5,2,1:2:0:0:
214,210,116835,1,0,0:0:0:0:
223,159,116917,1,2,2:2:0:0:
275,150,116999,1,2,2:2:0:0:
297,198,117081,1,10,1:2:0:0:
261,233,117163,1,2,2:2:0:0:
261,233,117245,5,2,2:2:0:0:
214,210,117327,1,0,0:0:0:0:
223,159,117409,1,2,1:2:0:0:
275,150,117491,1,2,2:2:0:0:
297,198,117573,1,2,2:2:0:0:
261,233,117655,1,2,2:2:0:0:
261,233,117736,5,10,1:2:0:0:
214,210,117818,1,0,0:0:0:0:
223,159,117900,1,2,1:2:0:0:
275,150,117982,1,2,2:2:0:0:
297,198,118064,1,2,1:2:0:0:
261,233,118146,1,2,2:2:0:0:
261,233,118228,5,2,2:2:0:0:
214,210,118310,1,0,0:0:0:0:
223,159,118392,1,10,1:2:0:0:
275,150,118474,1,2,2:2:0:0:
297,198,118556,1,2,2:2:0:0:
261,233,118638,1,2,2:2:0:0:
261,233,118720,5,2,1:2:0:0:
214,210,118802,1,0,0:0:0:0:
223,159,118884,1,2,2:2:0:0:
275,150,118966,1,2,2:2:0:0:
297,198,119048,1,10,1:2:0:0:
261,233,119130,1,2,2:2:0:0:
261,233,119212,5,2,1:2:0:0:
182,366,119376,1,2,1:2:0:0:
98,237,119540,1,2,2:2:0:0:
71,193,119622,1,0,0:0:0:0:
105,152,119704,1,10,1:2:0:0:
153,173,119786,1,0,0:0:0:0:
149,225,119868,1,2,2:2:0:0:
145,277,119950,1,2,2:2:0:0:
193,297,120031,1,2,1:2:0:0:
57,376,120277,5,0,0:0:0:0:
52,362,120359,1,8,1:2:0:0:
0,316,120523,1,0,1:1:0:0:
33,255,120687,1,0,1:1:0:0:
74,18,120974,6,0,P|80:28|84:41,1,25,0|10,1:0|1:2,0:0:0:0:
162,8,121179,1,2,2:2:0:0:
156,35,121261,1,2,2:2:0:0:
172,60,121343,1,2,1:2:0:0:
205,69,121425,1,0,0:0:0:0:
240,50,121507,1,2,2:2:0:0:
227,152,121671,5,10,1:2:0:0:
246,136,121753,1,0,0:0:0:0:
271,135,121835,1,2,1:2:0:0:
292,147,121917,1,2,2:2:0:0:
302,175,121999,1,2,1:2:0:0:
311,71,122163,5,2,2:2:0:0:
326,51,122245,1,2,2:2:0:0:
341,31,122327,1,10,1:2:0:0:
364,40,122409,1,2,2:2:0:0:
387,49,122490,5,2,2:2:0:0:
405,74,122572,1,0,0:0:0:0:
425,99,122654,1,2,1:2:0:0:
384,216,122818,1,2,2:2:0:0:
382,203,122900,1,2,2:2:0:0:
377,173,122982,5,10,1:2:0:0:
407,172,123064,1,0,0:0:0:0:
433,186,123146,1,2,1:2:0:0:
450,210,123228,1,2,2:2:0:0:
458,243,123310,1,2,1:2:0:0:
334,274,123474,5,2,2:2:0:0:
344,290,123556,1,0,0:0:0:0:
368,296,123638,1,10,1:2:0:0:
437,347,123802,1,2,2:2:0:0:
446,331,123884,1,2,2:2:0:0:
440,307,123966,1,2,1:2:0:0:
374,367,124130,5,2,2:2:0:0:
342,382,124212,1,2,2:2:0:0:
307,374,124294,1,10,1:2:0:0:
230,260,124458,1,2,1:2:0:0:
259,279,124540,1,2,2:2:0:0:
270,311,124622,1,2,1:2:0:0:
222,356,124731,5,2,0:0:0:0:
167,322,124840,5,2,0:0:0:0:
119,367,124949,5,10,1:2:0:0:
42,263,125113,1,2,2:2:0:0:
40,279,125195,1,2,2:2:0:0:
39,296,125277,1,2,1:2:0:0:
110,280,125441,1,2,2:2:0:0:
111,263,125523,1,2,2:2:0:0:
113,238,125605,5,10,1:2:0:0:
71,134,125769,1,2,1:2:0:0:
38,147,125851,1,0,1:0:0:0:
66,169,125933,1,0,1:0:0:0:
276,132,126178,1,2,2:2:0:0:
276,147,126261,5,2,1:2:0:0:
300,188,126343,1,0,0:0:0:0:
278,229,126425,1,2,2:2:0:0:
230,229,126507,1,2,2:2:0:0:
207,192,126589,1,2,1:2:0:0:
229,149,126671,1,2,2:2:0:0:
276,147,126753,5,2,2:2:0:0:
300,188,126835,1,0,0:0:0:0:
278,229,126917,1,2,1:2:0:0:
230,229,126999,1,2,2:2:0:0:
207,192,127081,1,2,1:2:0:0:
229,149,127163,1,2,2:2:0:0:
276,147,127245,5,2,1:2:0:0:
300,188,127327,1,0,0:0:0:0:
278,229,127409,1,2,2:2:0:0:
230,229,127491,1,2,2:2:0:0:
207,192,127572,1,2,1:2:0:0:
229,149,127654,1,2,2:2:0:0:
276,147,127736,5,2,2:2:0:0:
300,188,127819,1,0,0:0:0:0:
278,229,127899,1,2,1:2:0:0:
230,229,127981,1,2,2:2:0:0:
207,192,128063,1,2,2:2:0:0:
229,149,128145,1,2,2:2:0:0:
276,147,128228,5,2,1:2:0:0:
300,188,128310,1,0,0:0:0:0:
278,229,128392,1,2,1:2:0:0:
230,229,128474,1,2,2:2:0:0:
207,192,128555,1,2,2:2:0:0:
229,149,128638,1,2,2:2:0:0:
276,147,128720,5,2,2:2:0:0:
300,188,128802,1,0,0:0:0:0:
278,229,128884,1,2,1:2:0:0:
230,229,128966,1,2,2:2:0:0:
207,192,129048,1,2,2:2:0:0:
229,149,129130,1,2,2:2:0:0:
276,147,129212,5,2,1:2:0:0:
300,188,129294,1,0,0:0:0:0:
278,229,129376,1,2,2:2:0:0:
230,229,129458,1,2,2:2:0:0:
207,192,129540,1,2,1:2:0:0:
229,149,129622,1,2,2:2:0:0:
276,147,129704,5,2,1:2:0:0:
300,188,129786,1,0,0:0:0:0:
278,229,129868,1,2,1:2:0:0:
230,229,129950,1,2,2:2:0:0:
207,192,130032,1,2,1:2:0:0:
229,149,130114,1,2,2:2:0:0:
252,107,130195,1,2,1:2:0:0:
229,68,130277,1,2,2:2:0:0:
180,68,130359,1,2,2:2:0:0:
158,111,130441,1,0,0:0:0:0:
183,150,130523,1,2,1:2:0:0:
99,68,130687,5,0,1:1:0:0:
76,144,130851,1,0,1:1:0:0:
126,200,131015,1,2,2:2:0:0:
99,262,131179,1,2,1:2:0:0:
413,122,131917,5,0,1:1:0:0:
481,213,132163,1,2,1:2:0:0:
436,317,132409,2,0,P|422:306|419:288,1,25,0|0,1:0|1:0,0:0:0:0:
420,248,132491,5,2,1:2:0:0:
301,216,132736,1,0,0:0:0:0:
223,268,132928,5,0,0:0:0:0:
265,300,133037,1,0,0:0:0:0:
246,349,133146,1,0,0:0:0:0:
166,339,133310,5,0,1:1:0:0:
172,219,133556,1,0,0:0:0:0:
93,309,133802,5,0,1:1:0:0:
28,207,134048,1,0,0:0:0:0:
101,150,134239,5,0,0:0:0:0:
120,100,134348,1,0,0:0:0:0:
77,133,134458,1,0,0:0:0:0:
16,80,134622,5,0,1:1:0:0:
123,27,134868,1,0,0:0:0:0:
225,88,135113,5,0,1:1:0:0:
171,195,135359,1,0,0:0:0:0:
223,272,135551,5,0,0:0:0:0:
239,221,135660,1,0,0:0:0:0:
292,216,135769,1,0,0:0:0:0:
250,154,135933,5,0,1:1:0:0:
364,190,136179,1,0,0:0:0:0:
302,293,136425,5,0,1:1:0:0:
191,340,136671,1,0,0:0:0:0:
132,267,136862,5,0,0:0:0:0:
80,278,136971,1,0,0:0:0:0:
91,330,137081,1,0,0:0:0:0:
12,314,137245,5,0,1:1:0:0:
62,205,137491,1,0,0:0:0:0:
178,178,137736,5,0,1:1:0:0:
292,216,137982,1,0,0:0:0:0:
244,134,138174,5,0,0:0:0:0:
288,105,138283,1,0,0:0:0:0:
324,143,138392,1,0,0:0:0:0:
356,69,138556,5,0,1:1:0:0:
419,170,138802,1,0,0:0:0:0:
351,269,139048,5,0,1:1:0:0:
463,226,139294,1,0,0:0:0:0:
415,306,139485,5,0,0:0:0:0:
467,300,139594,1,0,0:0:0:0:
420,327,139704,1,0,0:0:0:0:
340,338,139868,5,0,1:1:0:0:
238,275,140113,1,0,0:0:0:0:
157,364,140359,5,0,1:1:0:0:
169,244,140605,1,0,0:0:0:0:
82,207,140797,5,0,0:0:0:0:
113,163,140906,1,0,0:0:0:0:
167,162,141015,1,0,0:0:0:0:
234,204,141179,5,0,1:1:0:0:
186,93,141425,1,0,0:0:0:0:
66,108,141671,5,0,1:1:0:0:
9,213,141917,1,0,0:0:0:0:
45,298,142108,5,0,0:0:0:0:
96,285,142217,1,0,0:0:0:0:
43,275,142327,1,0,0:0:0:0:
22,362,142491,5,0,1:1:0:0:
155,346,142736,1,0,0:0:0:0:
301,378,142982,5,0,1:1:0:0:
266,357,143064,1,0,0:0:0:0:
254,318,143146,1,0,0:0:0:0:
263,279,143228,1,0,0:0:0:0:
297,258,143310,1,8,2:1:0:0:
365,346,143474,1,0,1:1:0:0:
297,258,143638,1,0,1:1:0:0:
365,346,143802,1,0,1:1:0:0:
374,317,143884,1,0,0:0:0:0:
361,289,143966,1,8,2:1:0:0:
394,168,144130,1,0,0:0:0:0:
394,168,144212,1,0,0:0:0:0:
394,168,144294,1,0,1:1:0:0:
362,143,144376,1,0,0:0:0:0:
322,137,144458,1,0,0:0:0:0:
285,154,144540,1,0,0:0:0:0:
273,192,144622,1,8,2:1:0:0:
242,91,144786,1,0,1:1:0:0:
273,192,144950,1,0,1:1:0:0:
242,91,145113,1,0,1:1:0:0:
259,66,145195,1,0,0:0:0:0:
288,59,145277,1,8,2:1:0:0:
119,104,145441,1,0,0:0:0:0:
119,104,145523,1,0,0:0:0:0:
119,104,145605,1,0,1:1:0:0:
157,111,145687,1,0,0:0:0:0:
186,137,145769,1,0,0:0:0:0:
201,174,145851,1,0,0:0:0:0:
192,213,145933,1,8,2:1:0:0:
57,138,146097,1,0,1:1:0:0:
192,213,146261,1,0,1:1:0:0:
57,138,146425,1,0,1:1:0:0:
41,112,146507,1,0,0:0:0:0:
47,82,146589,1,8,2:1:0:0:
128,246,146753,1,0,0:0:0:0:
128,246,146835,1,0,0:0:0:0:
128,246,146917,1,0,1:1:0:0:
102,215,146999,1,0,0:0:0:0:
62,209,147081,1,0,0:0:0:0:
24,221,147163,1,0,0:0:0:0:
0,253,147245,1,8,2:1:0:0:
63,350,147409,1,0,1:1:0:0:
0,253,147572,1,0,1:1:0:0:
63,350,147736,1,0,1:1:0:0:
55,321,147818,1,0,0:0:0:0:
66,293,147900,1,8,2:1:0:0:
139,371,148064,1,0,0:0:0:0:
139,371,148146,1,0,0:0:0:0:
139,371,148228,1,0,1:1:0:0:
151,333,148310,1,0,0:0:0:0:
181,306,148392,1,0,0:0:0:0:
213,282,148474,1,0,0:0:0:0:
221,242,148556,1,8,2:1:0:0:
292,329,148720,1,0,1:1:0:0:
221,242,148884,1,0,1:1:0:0:
254,370,149048,1,0,1:1:0:0:
280,355,149130,1,0,0:0:0:0:
292,329,149212,1,8,2:1:0:0:
290,206,149376,1,0,0:0:0:0:
290,206,149458,1,0,0:0:0:0:
290,206,149540,1,0,1:1:0:0:
328,195,149622,1,0,0:0:0:0:
366,205,149704,1,0,0:0:0:0:
388,237,149786,1,0,0:0:0:0:
389,276,149868,1,8,2:1:0:0:
465,191,150031,1,0,1:1:0:0:
389,276,150195,1,0,1:1:0:0:
471,246,150359,1,0,1:1:0:0:
478,217,150441,1,0,0:0:0:0:
465,191,150523,1,8,2:1:0:0:
408,138,150687,1,0,0:0:0:0:
408,138,150769,1,0,0:0:0:0:
408,138,150851,1,0,1:1:0:0:
372,118,150933,1,0,0:0:0:0:
349,84,151015,1,0,0:0:0:0:
354,43,151097,1,0,0:0:0:0:
383,16,151179,1,8,2:1:0:0:
243,95,151343,1,0,1:1:0:0:
383,16,151507,1,0,1:1:0:0:
291,128,151671,1,0,1:1:0:0:
273,103,151753,1,0,0:0:0:0:
243,95,151835,1,8,2:1:0:0:
290,0,151999,1,0,0:0:0:0:
290,0,152081,1,0,0:0:0:0:
290,0,152163,1,0,1:1:0:0:
250,3,152245,1,0,0:0:0:0:
213,19,152327,1,0,0:0:0:0:
187,49,152409,1,0,0:0:0:0:
148,59,152491,1,8,2:1:0:0:
215,164,152654,1,0,1:1:0:0:
72,230,152818,1,0,1:1:0:0:
72,230,152982,5,0,1:1:0:0:
68,209,153064,1,0,0:0:0:0:
63,179,153146,1,8,2:1:0:0:
156,216,153309,1,0,0:0:0:0:
151,246,153391,1,0,0:0:0:0:
146,276,153474,5,0,1:1:0:0:
114,300,153556,1,0,0:0:0:0:
107,339,153638,1,0,0:0:0:0:
69,326,153720,1,0,0:0:0:0:
69,326,153802,1,8,2:1:0:0:
177,372,153966,1,0,1:1:0:0:
30,335,154130,1,0,1:1:0:0:
177,372,154294,1,0,1:1:0:0:
198,350,154376,1,0,0:0:0:0:
205,321,154458,1,8,2:1:0:0:
293,358,154622,1,0,0:0:0:0:
286,338,154704,1,0,0:0:0:0:
291,318,154786,1,0,1:1:0:0:
320,290,154868,1,0,0:0:0:0:
358,283,154950,1,0,0:0:0:0:
393,300,155031,1,0,0:0:0:0:
407,336,155113,1,8,2:1:0:0:
342,211,155277,1,0,1:1:0:0:
407,336,155441,1,0,1:1:0:0:
342,211,155605,1,0,1:1:0:0:
328,184,155687,1,0,0:0:0:0:
337,155,155769,1,8,2:1:0:0:
429,211,155933,1,0,0:0:0:0:
439,226,156015,1,0,0:0:0:0:
442,245,156097,1,0,1:1:0:0:
474,220,156179,1,0,0:0:0:0:
489,183,156261,1,0,0:0:0:0:
486,142,156343,1,0,0:0:0:0:
486,142,156425,1,8,2:1:0:0:
318,85,156589,1,0,1:1:0:0:
462,108,156753,1,0,1:1:0:0:
318,85,156917,1,0,1:1:0:0:
343,69,156999,1,0,0:0:0:0:
373,69,157081,1,8,2:1:0:0:
273,140,157245,1,0,0:0:0:0:
255,130,157327,1,0,0:0:0:0:
237,120,157409,1,0,1:1:0:0:
214,86,157491,1,0,0:0:0:0:
177,70,157572,1,0,0:0:0:0:
137,77,157654,1,0,0:0:0:0:
110,107,157736,1,8,2:1:0:0:
205,189,157900,1,0,1:1:0:0:
110,107,158064,1,0,1:1:0:0:
205,189,158228,1,0,1:1:0:0:
178,174,158310,1,0,0:0:0:0:
148,171,158392,1,8,2:1:0:0:
44,145,158556,1,0,0:0:0:0:
56,160,158638,1,0,0:0:0:0:
56,179,158720,1,0,1:1:0:0:
46,217,158802,1,0,0:0:0:0:
30,253,158884,1,0,0:0:0:0:
46,289,158966,1,0,0:0:0:0:
46,289,159048,1,8,2:1:0:0:
184,303,159212,1,0,1:1:0:0:
76,315,159376,1,0,1:1:0:0:
184,303,159540,1,0,1:1:0:0:
171,275,159622,1,0,0:0:0:0:
143,263,159704,1,8,2:1:0:0:
135,359,159868,1,0,0:0:0:0:
153,368,159950,1,0,0:0:0:0:
171,377,160031,1,0,1:1:0:0:
209,367,160113,1,0,0:0:0:0:
248,375,160195,1,0,0:0:0:0:
286,365,160277,1,0,0:0:0:0:
286,365,160359,1,8,2:1:0:0:
273,237,160523,1,0,1:1:0:0:
325,373,160687,1,0,1:1:0:0:
273,237,160851,1,0,1:1:0:0:
274,268,160933,1,0,0:0:0:0:
260,294,161015,1,8,2:1:0:0:
363,249,161179,1,0,0:0:0:0:
353,267,161261,1,0,0:0:0:0:
350,287,161343,1,0,1:1:0:0:
388,277,161425,1,0,0:0:0:0:
426,267,161507,1,0,0:0:0:0:
436,305,161589,1,0,0:0:0:0:
436,305,161671,1,8,2:1:0:0:
447,193,161835,1,0,1:1:0:0:
446,343,161999,1,0,1:1:0:0:
447,193,162163,1,0,1:1:0:0:
475,202,162245,1,0,0:0:0:0:
489,228,162327,1,8,2:1:0:0:
386,150,162491,1,0,0:0:0:0:
379,131,162572,1,0,0:0:0:0:
372,112,162654,1,0,1:1:0:0:
404,88,162736,1,0,0:0:0:0:
416,49,162818,1,0,0:0:0:0:
390,18,162900,1,0,0:0:0:0:
350,25,162982,1,8,2:1:0:0:
486,34,163146,1,0,1:1:0:0:
350,25,163310,1,0,1:1:0:0:
478,90,163474,1,0,1:1:0:0:
493,64,163556,1,0,0:0:0:0:
486,34,163638,1,8,2:1:0:0:
450,174,163802,1,0,0:0:0:0:
447,193,163884,1,0,0:0:0:0:
256,192,164211,12,0,165277,0:0:0:0:
0,0,186261,5,12,1:1:0:0:
256,128,186589,1,10,1:2:0:0:
0,384,186917,1,10,1:2:0:0:
256,200,187245,5,10,1:2:0:0:
512,384,187572,1,10,1:2:0:0:
256,272,187900,1,10,1:2:0:0:
400,200,188228,5,10,1:2:0:0:
416,128,188392,1,2,2:2:0:0:
352,90,188556,1,10,1:2:0:0:
416,128,188720,1,2,2:2:0:0:
400,200,188884,1,10,1:2:0:0:
112,256,189212,5,8,1:2:0:0:
112,256,189376,1,2,2:2:0:0:
144,192,189540,1,10,1:2:0:0:
40,32,189868,1,10,1:2:0:0:
56,104,190031,1,2,2:2:0:0:
128,88,190195,1,10,1:2:0:0:
168,304,190523,5,10,1:2:0:0:
384,264,190851,1,10,1:2:0:0:
384,264,191015,1,2,2:2:0:0:
313,215,191179,1,10,1:2:0:0:
362,145,191343,1,2,2:2:0:0:
432,193,191507,1,14,1:1:0:0:
0,304,191835,5,10,1:2:0:0:
256,384,192163,1,10,1:2:0:0:
512,304,192491,1,10,1:2:0:0:
480,368,192654,1,2,2:2:0:0:
416,336,192818,1,10,1:2:0:0:
160,304,193146,5,10,1:2:0:0:
208,248,193310,1,2,2:2:0:0:
352,304,193474,1,10,1:2:0:0:
304,248,193638,1,2,2:2:0:0:
256,304,193802,1,10,1:2:0:0:
256,104,194130,1,8,1:2:0:0:
256,32,194458,5,10,1:2:0:0:
256,174,194622,1,2,2:2:0:0:
318,67,194786,1,10,1:2:0:0:
195,138,194950,1,2,2:2:0:0:
318,138,195114,1,10,1:2:0:0:
195,67,195277,1,2,2:2:0:0:
256,174,195441,5,10,1:2:0:0:
256,32,195605,1,2,2:2:0:0:
318,138,195769,1,10,1:2:0:0:
195,67,195933,1,2,2:2:0:0:
318,67,196097,1,10,1:2:0:0:
195,138,196261,5,2,2:2:0:0:
429,201,196425,1,10,1:2:0:0:
258,373,196589,1,2,2:2:0:0:
24,310,196753,1,14,1:1:0:0:
256,104,197081,5,10,1:2:0:0:
318,138,197245,1,2,0:1:0:0:
90,199,197409,5,10,1:2:0:0:
28,165,197573,1,2,2:1:0:0:
256,104,197736,5,10,1:2:0:0:
318,138,197900,1,2,0:1:0:0:
90,199,198064,5,10,1:2:0:0:
28,165,198228,1,2,0:1:0:0:
256,104,198392,5,10,1:2:0:0:
318,138,198556,1,2,2:1:0:0:
152,233,198719,5,10,1:2:0:0:
90,199,198884,1,2,2:1:0:0:
204,169,199048,1,10,1:2:0:0:
266,203,199212,1,2,2:1:0:0:
256,104,199376,1,10,1:2:0:0:
256,384,199704,5,8,1:2:0:0:
277,318,199868,1,2,2:1:0:0:
139,366,200031,1,10,1:2:0:0:
139,366,200195,1,2,2:1:0:0:
98,306,200359,1,10,1:2:0:0:
233,259,200523,1,2,2:1:0:0:
346,329,200687,5,10,1:2:0:0:
346,329,200850,1,2,0:1:0:0:
233,190,201015,1,10,1:2:0:0:
233,190,201179,1,2,0:1:0:0:
98,306,201343,1,10,1:2:0:0:
98,306,201507,1,2,2:1:0:0:
296,224,201671,5,10,1:2:0:0:
54,246,201835,1,2,2:1:0:0:
155,25,201999,1,14,1:1:0:0:
512,304,202327,5,10,1:2:0:0:
496,232,202491,1,2,0:1:0:0:
326,96,202654,5,10,1:2:0:0:
342,168,202818,1,2,0:1:0:0:
512,304,202982,5,10,1:2:0:0:
419,200,203146,1,2,2:1:0:0:
326,96,203310,1,10,1:2:0:0:
326,96,203474,1,2,0:1:0:0:
326,96,203638,5,10,1:2:0:0:
342,168,203802,1,2,2:1:0:0:
496,232,203965,1,10,1:2:0:0:
512,304,204129,1,2,2:1:0:0:
419,200,204294,1,10,1:2:0:0:
93,184,204622,5,8,1:2:0:0:
93,184,204949,1,10,1:2:0:0:
138,125,205113,1,2,2:1:0:0:
150,229,205277,1,10,1:2:0:0:
195,170,205441,1,2,2:1:0:0:
93,184,205605,1,10,1:2:0:0:
138,125,205768,1,2,2:1:0:0:
150,229,205932,1,10,1:2:0:0:
195,170,206096,1,2,2:1:0:0:
186,60,206261,5,10,1:2:0:0:
232,4,206425,1,2,2:1:0:0:
260,24,206506,1,2,3:0:0:0:
290,48,206589,1,10,1:2:0:0:
266,76,206670,1,2,3:0:0:0:
245,105,206753,1,2,2:1:0:0:
186,60,206916,1,10,1:2:0:0:
76,73,207081,1,2,1:1:0:0:
54,75,207163,1,2,0:0:0:0:
9,82,207244,1,14,1:1:0:0:
234,370,207572,5,10,1:2:0:0:
187,293,207736,1,2,2:1:0:0:
168,334,207818,1,2,2:2:0:0:
125,349,207900,1,10,1:2:0:0:
247,256,208064,1,2,2:1:0:0:
397,361,208228,1,10,1:2:0:0:
330,219,208392,5,2,2:1:0:0:
323,263,208474,1,2,2:2:0:0:
350,299,208556,1,10,1:2:0:0:
368,286,208638,1,0,0:0:0:0:
389,294,208720,1,2,2:1:0:0:
407,281,208802,1,2,2:2:0:0:
428,289,208884,1,10,1:2:0:0:
448,193,209048,5,2,2:1:0:0:
435,171,209130,1,2,2:2:0:0:
460,183,209212,1,10,1:2:0:0:
280,166,209376,1,2,2:1:0:0:
426,103,209540,5,10,1:2:0:0:
329,115,209704,1,2,2:1:0:0:
348,130,209786,1,2,2:2:0:0:
367,145,209868,1,10,1:2:0:0:
389,40,210031,1,2,2:1:0:0:
255,97,210195,5,10,1:2:0:0:
142,10,210359,1,2,2:1:0:0:
176,39,210441,1,2,2:2:0:0:
184,83,210523,1,10,1:2:0:0:
161,122,210605,1,0,0:0:0:0:
118,137,210687,1,2,2:1:0:0:
17,233,210850,5,10,1:2:0:0:
21,197,210932,1,2,2:2:0:0:
25,161,211014,1,2,2:1:0:0:
53,181,211096,1,2,2:2:0:0:
82,203,211178,1,10,1:2:0:0:
105,348,211342,5,2,2:1:0:0:
109,312,211424,1,0,0:0:0:0:
112,277,211506,1,10,1:2:0:0:
79,291,211588,1,0,0:0:0:0:
46,306,211670,1,2,2:1:0:0:
182,300,211835,5,10,1:2:0:0:
256,192,211999,1,2,2:1:0:0:
475,258,212163,1,10,1:2:0:0:
407,384,212326,5,2,2:1:0:0:
426,343,212409,1,0,0:0:0:0:
407,301,212491,1,14,1:1:0:0:
330,300,212654,1,2,2:1:0:0:
256,192,212818,12,0,213453,0:0:0:0:
256,192,213474,5,10,1:2:0:0:
256,280,213638,1,2,2:1:0:0:
256,280,213720,1,2,2:2:0:0:
256,192,213802,12,0,214436,0:0:0:0:
256,192,214458,5,10,1:2:0:0:
168,192,214622,1,2,2:1:0:0:
168,192,214704,1,2,2:2:0:0:
256,192,214786,12,0,215420,0:0:0:0:
256,192,215441,5,10,1:2:0:0:
256,104,215605,1,2,2:1:0:0:
256,104,215687,1,2,2:2:0:0:
256,192,215769,12,0,216404,0:0:0:0:
256,192,216425,5,10,1:2:0:0:
344,192,216589,1,2,2:1:0:0:
344,192,216671,1,2,2:2:0:0:
300,170,216752,1,10,1:2:0:0:
234,236,216917,5,2,2:1:0:0:
256,280,216999,1,2,2:2:0:0:
259,266,217081,1,10,1:2:0:0:
277,312,217163,1,0,0:0:0:0:
76,192,217409,1,8,1:2:0:0:
76,192,217572,1,2,2:1:0:0:
163,65,217736,1,12,1:1:0:0:
341,348,218064,5,10,1:2:0:0:
216,364,218228,1,2,2:1:0:0:
180,335,218310,1,2,2:2:0:0:
185,289,218392,1,10,1:2:0:0:
150,260,218474,1,0,0:0:0:0:
155,214,218556,1,2,2:1:0:0:
180,335,218720,5,10,1:2:0:0:
140,356,218802,1,2,2:2:0:0:
94,355,218884,1,2,2:1:0:0:
63,322,218966,1,2,2:2:0:0:
58,276,219048,1,10,1:2:0:0:
254,304,219212,1,2,2:1:0:0:
207,162,219376,5,10,1:2:0:0:
289,101,219540,1,2,2:1:0:0:
256,87,219622,1,0,0:0:0:0:
223,100,219704,1,10,1:2:0:0:
203,128,219786,1,0,0:0:0:0:
207,162,219868,1,2,2:1:0:0:
114,14,220031,5,10,1:2:0:0:
51,39,220195,1,2,2:1:0:0:
57,68,220277,1,2,2:2:0:0:
64,98,220359,1,10,1:2:0:0:
106,112,220441,1,0,0:0:0:0:
133,147,220523,1,2,2:1:0:0:
21,181,220687,5,10,1:2:0:0:
154,217,220851,1,2,2:1:0:0:
129,222,220933,1,2,2:2:0:0:
104,227,221015,1,10,1:2:0:0:
132,192,221097,1,2,2:2:0:0:
133,147,221179,1,2,2:1:0:0:
106,112,221261,1,0,0:0:0:0:
64,98,221343,1,10,1:2:0:0:
34,253,221507,5,2,2:1:0:0:
42,281,221589,1,2,2:2:0:0:
66,297,221671,1,10,1:2:0:0:
178,286,221835,1,2,2:1:0:0:
281,331,221999,1,10,1:2:0:0:
259,351,222080,1,2,2:2:0:0:
253,381,222163,1,2,2:1:0:0:
253,381,222327,5,10,1:2:0:0:
259,351,222409,1,2,2:2:0:0:
281,331,222491,1,2,2:1:0:0:
309,323,222572,1,2,2:2:0:0:
353,331,222654,1,10,1:2:0:0:
375,184,222818,5,2,2:1:0:0:
405,150,222900,1,0,0:0:0:0:
450,149,222982,1,14,1:1:0:0:
408,251,223146,1,2,2:1:0:0:
275,239,223310,5,10,1:2:0:0:
222,232,223392,1,2,2:2:0:0:
202,184,223474,1,2,2:1:0:0:
234,142,223556,1,2,2:2:0:0:
287,149,223638,1,10,1:2:0:0:
287,149,223719,1,2,2:2:0:0:
307,197,223802,5,2,2:1:0:0:
275,239,223883,1,2,2:2:0:0:
222,232,223966,1,10,1:2:0:0:
202,184,224047,1,2,2:2:0:0:
234,142,224129,1,2,2:1:0:0:
234,142,224211,1,2,2:2:0:0:
287,149,224294,5,10,1:2:0:0:
307,197,224375,1,2,2:2:0:0:
275,239,224457,1,2,2:1:0:0:
222,232,224540,1,2,2:2:0:0:
202,184,224621,1,10,1:2:0:0:
202,184,224703,1,2,2:2:0:0:
234,142,224785,5,2,2:1:0:0:
287,149,224868,1,2,2:2:0:0:
307,197,224950,1,10,1:2:0:0:
275,239,225032,1,2,2:2:0:0:
222,232,225114,1,2,2:1:0:0:
222,232,225196,1,2,2:2:0:0:
202,184,225277,5,10,1:2:0:0:
234,142,225359,1,2,2:2:0:0:
287,149,225441,1,2,2:1:0:0:
307,197,225523,1,2,2:2:0:0:
275,239,225604,1,10,1:2:0:0:
275,239,225687,1,2,2:2:0:0:
222,232,225768,5,2,2:1:0:0:
202,184,225850,1,2,2:2:0:0:
234,142,225933,1,10,1:2:0:0:
287,149,226014,1,2,2:2:0:0:
307,197,226096,1,2,2:1:0:0:
307,197,226179,1,2,2:2:0:0:
275,239,226260,5,10,1:2:0:0:
222,232,226342,1,2,2:2:0:0:
202,184,226425,1,2,2:1:0:0:
234,142,226507,1,2,2:2:0:0:
287,149,226589,1,10,1:2:0:0:
287,149,226671,1,2,2:2:0:0:
307,197,226752,5,2,2:1:0:0:
275,239,226834,1,2,2:2:0:0:
222,232,226917,1,10,1:2:0:0:
202,184,226998,1,2,2:2:0:0:
234,142,227080,1,2,2:1:0:0:
287,149,227163,1,2,2:2:0:0:
340,156,227244,1,10,1:2:0:0:
372,114,227327,1,2,2:2:0:0:
352,66,227408,1,10,2:1:0:0:
299,59,227490,1,10,2:2:0:0:
267,101,227572,1,10,1:2:0:0:
259,77,227654,5,10,0:2:0:0:
361,251,227899,1,0,1:0:0:0:
297,315,228064,1,2,2:1:0:0:
348,368,228228,1,2,1:2:0:0:
