osu file format v14

[General]
AudioFilename: audio.mp3
AudioLeadIn: 0
PreviewTime: 672
Countdown: 0
SampleSet: Soft
StackLeniency: 0.7
Mode: 0
LetterboxInBreaks: 0
WidescreenStoryboard: 0

[Editor]
DistanceSpacing: 1.5
BeatDivisor: 4
GridSize: 4
TimelineZoom: 1.6

[Metadata]
Title:Awake
TitleUnicode:Awake
Artist:Iwasaki taku
ArtistUnicode:岩崎琢
Creator:Vanilla Vat
Version:kyuukyoku seibutsu
Source:ジョジョの奇妙な冒険
Tags:ジョジョの奇妙な冒険
BeatmapID:1065109
BeatmapSetID:500432

[Difficulty]
HPDrainRate:7
CircleSize:4.2
OverallDifficulty:7.5
ApproachRate:9
SliderMultiplier:1.4
SliderTickRate:1

[Events]
//Background and Video events
0,0,"7921715_p0.jpg",0,0
//Break Periods
2,131539,140072
//Storyboard Layer 0 (Background)
//Storyboard Layer 1 (Fail)
//Storyboard Layer 2 (Pass)
//Storyboard Layer 3 (Foreground)
//Storyboard Sound Samples

[TimingPoints]
2006,333.333333333333,4,2,0,50,1,0
3339,-90.9090909090909,4,2,0,50,0,0
8839,-133.333333333333,4,2,0,50,0,0
9172,-90.9090909090909,4,2,0,50,0,0
14172,-133.333333333333,4,2,0,50,0,0
14505,-90.9090909090909,4,2,0,50,0,0
17672,-133.333333333333,4,2,0,50,0,0
18005,-90.9090909090909,4,2,0,50,0,0
19339,-133.333333333333,4,2,0,50,0,0
19672,-90.9090909090909,4,2,0,50,0,0
35505,-133.333333333333,4,2,0,50,0,0
35839,-90.9090909090909,4,2,0,50,0,0
56672,-100,4,2,0,50,0,0
78005,-83.3333333333333,4,2,0,50,0,1
99339,-76.9230769230769,4,2,0,50,0,0
131339,-100,4,2,0,50,0,0
140672,-90.9090909090909,4,2,0,50,0,0
142005,-83.3333333333333,4,2,0,50,0,1
184672,-90.9090909090909,4,2,0,50,0,0

[HitObjects]
120,268,2005,5,0,0:0:0:0:
204,328,2172,1,0,0:0:0:0:
236,340,2255,1,0,0:0:0:0:
272,336,2339,1,0,0:0:0:0:
368,296,2505,1,0,0:0:0:0:
328,200,2672,1,0,0:0:0:0:
232,240,2839,1,0,0:0:0:0:
328,200,3005,1,0,0:0:0:0:
340,56,3339,5,0,0:0:0:0:
388,116,3505,1,0,0:0:0:0:
400,152,3589,1,0,0:0:0:0:
400,192,3672,1,0,0:0:0:0:
348,248,3839,1,0,0:0:0:0:
448,192,4005,1,0,0:0:0:0:
332,192,4172,1,0,0:0:0:0:
272,96,4339,1,0,0:0:0:0:
156,96,4505,1,0,0:0:0:0:
244,172,4672,1,0,0:0:0:0:
256,172,4755,1,0,0:0:0:0:
268,172,4838,1,0,0:0:0:0:
280,172,4921,1,0,0:0:0:0:
292,172,5005,1,0,0:0:0:0:
304,172,5088,1,0,0:0:0:0:
316,172,5172,1,0,0:0:0:0:
328,172,5255,1,0,0:0:0:0:
340,172,5339,2,0,P|356:232|340:256,1,77.0000023498536
328,316,5672,2,0,L|408:316,1,77.0000023498536
404,200,6005,5,0,0:0:0:0:
352,96,6172,1,0,0:0:0:0:
164,232,6505,1,0,0:0:0:0:
304,172,6839,1,0,0:0:0:0:
272,152,6922,1,0,0:0:0:0:
240,132,7005,1,0,0:0:0:0:
144,68,7172,1,0,0:0:0:0:
84,168,7339,1,0,0:0:0:0:
200,164,7505,1,0,0:0:0:0:
100,108,7672,1,0,0:0:0:0:
144,216,7839,1,0,0:0:0:0:
224,132,8005,1,0,0:0:0:0:
376,304,8339,1,0,0:0:0:0:
308,220,8672,5,0,0:0:0:0:
256,220,8839,2,0,L|144:220,1,105.000004005432
152,144,9339,1,0,0:0:0:0:
224,84,9505,1,0,0:0:0:0:
316,96,9672,1,0,0:0:0:0:
364,176,9839,1,0,0:0:0:0:
340,264,10005,5,0,0:0:0:0:
324,284,10089,1,0,0:0:0:0:
308,292,10172,1,0,0:0:0:0:
292,296,10255,1,0,0:0:0:0:
280,296,10339,1,0,0:0:0:0:
268,296,10422,1,0,0:0:0:0:
256,296,10505,1,0,0:0:0:0:
244,296,10589,1,0,0:0:0:0:
232,296,10672,2,0,P|200:256|208:236,1,77.0000023498536
244,208,11005,1,0,0:0:0:0:
164,84,11172,1,0,0:0:0:0:
276,116,11339,5,0,0:0:0:0:
308,228,11505,1,0,0:0:0:0:
80,256,11839,1,0,0:0:0:0:
40,148,12005,1,0,0:0:0:0:
272,172,12339,1,0,0:0:0:0:
156,188,12506,1,0,0:0:0:0:
132,80,12672,6,0,L|256:60,2,115.50000352478
246,61,13339,1,0,0:0:0:0:
324,148,13505,1,0,0:0:0:0:
328,264,13672,1,0,0:0:0:0:
432,216,13839,1,0,0:0:0:0:
324,148,14005,5,0,0:0:0:0:
272,148,14172,2,0,L|156:148,1,105.000004005432
164,224,14672,1,0,0:0:0:0:
300,224,14839,1,0,0:0:0:0:
228,312,15005,1,0,0:0:0:0:
344,312,15172,1,0,0:0:0:0:
228,312,15339,5,0,0:0:0:0:
216,312,15422,1,0,0:0:0:0:
204,312,15505,1,0,0:0:0:0:
192,312,15589,1,0,0:0:0:0:
180,312,15672,1,0,0:0:0:0:
168,312,15755,1,0,0:0:0:0:
156,312,15839,1,0,0:0:0:0:
144,312,15922,1,0,0:0:0:0:
132,312,16005,2,0,L|132:224,1,77.0000023498536
248,236,16339,1,0,0:0:0:0:
188,140,16505,1,0,0:0:0:0:
304,140,16672,6,0,L|424:140,2,115.50000352478
419,140,17339,1,0,0:0:0:0:
420,224,17672,2,0,L|304:224,1,105.000004005432
372,324,18172,1,0,0:0:0:0:
315,224,18339,1,0,0:0:0:0:
320,108,18505,1,0,0:0:0:0:
220,168,18672,1,0,0:0:0:0:
392,320,19005,5,0,0:0:0:0:
392,204,19172,1,0,0:0:0:0:
380,204,19255,1,0,0:0:0:0:
368,204,19339,2,0,L|244:204,1,105.000004005432
308,96,19839,1,0,0:0:0:0:
263,204,20005,1,0,0:0:0:0:
188,116,20172,1,0,0:0:0:0:
140,220,20339,1,0,0:0:0:0:
188,116,20505,1,0,0:0:0:0:
268,200,20672,1,0,0:0:0:0:
276,208,20755,1,0,0:0:0:0:
284,216,20839,1,0,0:0:0:0:
292,224,20922,1,0,0:0:0:0:
300,232,21005,1,0,0:0:0:0:
308,240,21089,1,0,0:0:0:0:
316,248,21172,1,0,0:0:0:0:
324,256,21255,1,0,0:0:0:0:
332,264,21339,2,0,P|400:240|364:180,1,154.000004699707
272,124,21839,5,0,0:0:0:0:
160,92,22005,2,0,L|72:72,1,77.0000023498536
308,136,22505,2,0,L|396:116,1,77.0000023498536
276,324,23005,1,0,0:0:0:0:
196,240,23172,1,0,0:0:0:0:
276,156,23339,6,0,L|396:156,2,115.50000352478
336,256,24005,1,0,0:0:0:0:
391,156,24172,1,0,0:0:0:0:
332,56,24339,1,0,0:0:0:0:
320,56,24422,1,0,0:0:0:0:
308,56,24505,1,0,0:0:0:0:
296,56,24589,1,0,0:0:0:0:
284,56,24672,6,0,L|188:56,1,77.0000023498536
128,140,25005,2,0,L|216:140,1,77.0000023498536
264,240,25339,2,0,L|352:240,1,77.0000023498536
404,140,25672,1,0,0:0:0:0:
288,140,25839,1,0,0:0:0:0:
172,140,26005,1,0,0:0:0:0:
160,140,26089,1,0,0:0:0:0:
148,140,26172,1,0,0:0:0:0:
136,148,26255,1,0,0:0:0:0:
128,160,26339,1,0,0:0:0:0:
124,180,26422,1,0,0:0:0:0:
128,200,26505,1,0,0:0:0:0:
148,216,26589,1,0,0:0:0:0:
176,216,26672,1,0,0:0:0:0:
292,220,26839,5,0,0:0:0:0:
408,216,27005,1,0,0:0:0:0:
292,220,27172,1,0,0:0:0:0:
292,104,27339,1,0,0:0:0:0:
176,104,27505,1,0,0:0:0:0:
136,108,27589,1,0,0:0:0:0:
104,132,27672,1,0,0:0:0:0:
72,244,27839,2,0,L|172:244,1,77.0000023498536
232,324,28172,2,0,L|332:324,1,77.0000023498536
408,264,28505,5,0,0:0:0:0:
444,152,28672,1,0,0:0:0:0:
332,188,28839,5,0,0:0:0:0:
337,70,29006,1,0,0:0:0:0:
244,140,29172,5,0,0:0:0:0:
218,24,29339,1,0,0:0:0:0:
448,48,29672,1,0,0:0:0:0:
252,172,30005,6,0,P|236:220|188:260,2,115.50000352478
260,56,30672,2,0,P|296:92|352:88,1,77.0000023498536
348,208,31005,2,0,P|327:254|351:305,1,77.0000023498536
228,328,31339,1,0,0:0:0:0:
228,316,31422,1,0,0:0:0:0:
224,304,31505,1,0,0:0:0:0:
216,296,31589,1,0,0:0:0:0:
208,288,31672,1,0,0:0:0:0:
200,280,31755,1,0,0:0:0:0:
188,276,31839,1,0,0:0:0:0:
176,272,31922,1,0,0:0:0:0:
164,268,32005,2,0,P|208:248|148:184,1,154.000004699707
164,178,32505,1,0,0:0:0:0:
276,200,32672,5,0,0:0:0:0:
244,88,32839,1,0,0:0:0:0:
52,210,33172,5,0,0:0:0:0:
164,178,33339,1,0,0:0:0:0:
388,124,33672,5,0,0:0:0:0:
420,236,33839,1,0,0:0:0:0:
308,208,34005,2,0,L|264:96,2,115.50000352478
276,320,34672,1,0,0:0:0:0:
168,356,34839,1,0,0:0:0:0:
76,288,35005,1,0,0:0:0:0:
100,176,35172,1,0,0:0:0:0:
208,140,35339,5,0,0:0:0:0:
260,140,35505,2,0,L|372:140,1,105.000004005432
280,216,36005,2,0,L|192:216,1,77.0000023498536
164,104,36339,2,0,L|76:104,1,77.0000023498536
119,216,36672,5,0,0:0:0:0:
131,216,36755,1,0,0:0:0:0:
143,216,36839,1,0,0:0:0:0:
155,216,36922,1,0,0:0:0:0:
167,216,37005,1,0,0:0:0:0:
179,216,37089,1,0,0:0:0:0:
191,216,37172,1,0,0:0:0:0:
203,216,37255,1,0,0:0:0:0:
216,216,37339,2,0,L|300:216,1,77.0000023498536
372,132,37672,2,0,L|295:132,1,77.0000023498536
180,132,38005,5,0,0:0:0:0:
64,132,38172,1,0,0:0:0:0:
52,132,38255,1,0,0:0:0:0:
40,132,38339,1,0,0:0:0:0:
136,196,38505,1,0,0:0:0:0:
40,260,38672,2,0,L|112:320,1,77.0000023498536
136,196,39005,2,0,L|195:146,1,77.0000023498536
304,104,39339,1,0,0:0:0:0:
420,104,39505,1,0,0:0:0:0:
304,104,39672,1,0,0:0:0:0:
420,104,39839,1,0,0:0:0:0:
308,104,40005,2,0,L|184:104,2,115.50000352478
424,104,40672,5,0,0:0:0:0:
360,200,40839,1,0,0:0:0:0:
352,208,40922,1,0,0:0:0:0:
344,216,41005,1,0,0:0:0:0:
268,304,41172,1,0,0:0:0:0:
232,192,41339,2,0,L|152:172,1,77.0000023498536
228,80,41672,2,0,L|320:104,1,77.0000023498536
332,216,42005,5,0,0:0:0:0:
320,213,42089,1,0,0:0:0:0:
307,210,42172,1,0,0:0:0:0:
295,207,42255,1,0,0:0:0:0:
283,205,42339,1,0,0:0:0:0:
270,202,42422,1,0,0:0:0:0:
258,199,42505,1,0,0:0:0:0:
248,196,42589,1,0,0:0:0:0:
236,192,42672,1,0,0:0:0:0:
256,192,42839,12,0,44339,0:0:0:0:
212,264,44672,5,0,0:0:0:0:
320,220,44839,1,0,0:0:0:0:
340,188,44922,1,0,0:0:0:0:
344,148,45005,1,0,0:0:0:0:
284,48,45172,1,0,0:0:0:0:
200,180,45339,1,0,0:0:0:0:
124,48,45505,1,0,0:0:0:0:
256,124,45672,1,0,0:0:0:0:
120,196,45839,1,0,0:0:0:0:
152,308,46005,5,0,0:0:0:0:
240,232,46172,2,0,L|328:152,2,115.50000352478
325,154,46839,1,0,0:0:0:0:
356,264,47005,1,0,0:0:0:0:
440,184,47172,1,0,0:0:0:0:
404,76,47339,5,0,0:0:0:0:
396,68,47422,1,0,0:0:0:0:
388,60,47505,1,0,0:0:0:0:
376,56,47589,1,0,0:0:0:0:
364,52,47672,1,0,0:0:0:0:
352,52,47755,1,0,0:0:0:0:
340,52,47839,1,0,0:0:0:0:
328,52,47922,1,0,0:0:0:0:
316,52,48005,1,0,0:0:0:0:
200,52,48172,1,0,0:0:0:0:
256,152,48339,1,0,0:0:0:0:
140,148,48505,1,0,0:0:0:0:
144,159,48589,1,0,0:0:0:0:
149,171,48672,1,0,0:0:0:0:
192,280,48839,5,0,0:0:0:0:
272,200,49005,1,0,0:0:0:0:
300,312,49172,2,0,L|356:244,1,77.0000023498536
352,136,49505,2,0,L|408:68,1,77.0000023498536
352,136,49839,1,0,0:0:0:0:
240,112,50005,5,0,0:0:0:0:
124,112,50172,1,0,0:0:0:0:
240,112,50339,1,0,0:0:0:0:
124,112,50505,1,0,0:0:0:0:
184,212,50672,5,0,0:0:0:0:
68,212,50839,1,0,0:0:0:0:
184,212,51006,1,0,0:0:0:0:
68,212,51172,1,0,0:0:0:0:
124,312,51339,6,0,L|248:312,2,115.50000352478
239,312,52005,1,0,0:0:0:0:
288,208,52172,1,0,0:0:0:0:
404,208,52339,1,0,0:0:0:0:
348,108,52506,1,0,0:0:0:0:
232,108,52672,5,0,0:0:0:0:
220,108,52755,1,0,0:0:0:0:
208,108,52839,1,0,0:0:0:0:
196,108,52922,1,0,0:0:0:0:
184,108,53005,1,0,0:0:0:0:
172,108,53089,1,0,0:0:0:0:
160,108,53172,1,0,0:0:0:0:
148,108,53255,1,0,0:0:0:0:
136,108,53339,1,0,0:0:0:0:
128,224,53505,1,0,0:0:0:0:
232,172,53672,1,0,0:0:0:0:
136,104,53839,1,0,0:0:0:0:
232,172,54005,5,0,0:0:0:0:
128,228,54172,1,0,0:0:0:0:
240,252,54339,1,0,0:0:0:0:
140,312,54506,1,0,0:0:0:0:
252,336,54672,5,0,0:0:0:0:
356,280,54839,1,0,0:0:0:0:
244,256,55006,1,0,0:0:0:0:
344,200,55173,1,0,0:0:0:0:
236,160,55339,1,0,0:0:0:0:
128,200,55505,1,0,0:0:0:0:
114,234,55589,1,0,0:0:0:0:
126,269,55672,1,0,0:0:0:0:
236,308,55839,1,0,0:0:0:0:
284,204,56005,1,0,0:0:0:0:
400,204,56172,1,0,0:0:0:0:
284,204,56339,1,0,0:0:0:0:
400,204,56505,1,0,0:0:0:0:
312,288,56672,5,0,0:0:0:0:
304,284,56755,1,0,0:0:0:0:
296,280,56838,1,0,0:0:0:0:
288,272,56921,1,0,0:0:0:0:
284,264,57005,1,0,0:0:0:0:
288,160,57172,1,0,0:0:0:0:
192,208,57339,1,0,0:0:0:0:
204,104,57505,1,0,0:0:0:0:
212,100,57589,1,0,0:0:0:0:
220,96,57672,1,0,0:0:0:0:
228,92,57755,1,0,0:0:0:0:
236,88,57839,1,0,0:0:0:0:
244,84,57922,1,0,0:0:0:0:
252,80,58005,1,0,0:0:0:0:
352,64,58172,5,0,0:0:0:0:
360,68,58255,1,0,0:0:0:0:
368,76,58339,1,0,0:0:0:0:
292,148,58505,1,0,0:0:0:0:
392,172,58672,1,0,0:0:0:0:
320,248,58839,1,0,0:0:0:0:
220,224,59005,1,0,0:0:0:0:
212,220,59089,1,0,0:0:0:0:
204,216,59172,1,0,0:0:0:0:
136,132,59339,5,0,0:0:0:0:
132,124,59422,1,0,0:0:0:0:
132,112,59505,1,0,0:0:0:0:
136,100,59589,1,0,0:0:0:0:
140,92,59672,1,0,0:0:0:0:
228,36,59839,1,0,0:0:0:0:
332,52,60005,1,0,0:0:0:0:
340,56,60089,1,0,0:0:0:0:
348,64,60172,1,0,0:0:0:0:
380,164,60339,1,0,0:0:0:0:
381,172,60422,1,0,0:0:0:0:
378,183,60505,1,0,0:0:0:0:
372,192,60589,1,0,0:0:0:0:
364,200,60672,1,0,0:0:0:0:
264,232,60839,5,0,0:0:0:0:
288,128,61005,1,0,0:0:0:0:
184,152,61172,1,0,0:0:0:0:
176,144,61255,1,0,0:0:0:0:
164,140,61339,1,0,0:0:0:0:
68,180,61505,1,0,0:0:0:0:
80,284,61672,1,0,0:0:0:0:
84,292,61755,1,0,0:0:0:0:
92,300,61839,1,0,0:0:0:0:
100,308,61922,1,0,0:0:0:0:
108,312,62005,5,0,0:0:0:0:
116,316,62089,1,0,0:0:0:0:
128,316,62172,1,0,0:0:0:0:
140,316,62255,1,0,0:0:0:0:
152,316,62339,1,0,0:0:0:0:
256,316,62505,5,0,0:0:0:0:
212,220,62672,1,0,0:0:0:0:
316,232,62839,1,0,0:0:0:0:
324,224,62922,1,0,0:0:0:0:
328,212,63005,1,0,0:0:0:0:
340,108,63172,1,0,0:0:0:0:
244,64,63339,1,0,0:0:0:0:
156,120,63505,1,0,0:0:0:0:
152,128,63589,1,0,0:0:0:0:
148,136,63672,1,0,0:0:0:0:
216,216,63839,1,0,0:0:0:0:
212,224,63923,1,0,0:0:0:0:
208,232,64006,1,0,0:0:0:0:
160,324,64172,1,0,0:0:0:0:
264,324,64339,5,0,0:0:0:0:
276,324,64422,1,0,0:0:0:0:
288,324,64505,1,0,0:0:0:0:
300,324,64589,1,0,0:0:0:0:
312,324,64672,5,0,0:0:0:0:
324,324,64755,1,0,0:0:0:0:
336,324,64839,1,0,0:0:0:0:
348,324,64922,1,0,0:0:0:0:
360,324,65005,1,0,0:0:0:0:
464,320,65172,1,0,0:0:0:0:
412,228,65339,5,0,0:0:0:0:
432,124,65505,1,0,0:0:0:0:
332,156,65672,1,0,0:0:0:0:
236,116,65839,1,0,0:0:0:0:
228,124,65922,1,0,0:0:0:0:
224,132,66005,1,0,0:0:0:0:
196,232,66172,1,0,0:0:0:0:
260,316,66339,1,0,0:0:0:0:
308,224,66505,1,0,0:0:0:0:
312,216,66589,1,0,0:0:0:0:
316,208,66672,1,0,0:0:0:0:
336,104,66839,1,0,0:0:0:0:
236,140,67005,5,0,0:0:0:0:
228,144,67089,1,0,0:0:0:0:
220,148,67172,1,0,0:0:0:0:
212,152,67255,1,0,0:0:0:0:
204,156,67339,5,0,0:0:0:0:
196,160,67422,1,0,0:0:0:0:
188,164,67505,1,0,0:0:0:0:
180,168,67589,1,0,0:0:0:0:
172,172,67672,1,0,0:0:0:0:
84,228,67839,5,0,0:0:0:0:
116,328,68005,1,0,0:0:0:0:
120,336,68089,1,0,0:0:0:0:
128,344,68172,1,0,0:0:0:0:
136,348,68255,1,0,0:0:0:0:
144,352,68339,1,0,0:0:0:0:
156,352,68422,1,0,0:0:0:0:
168,352,68505,1,0,0:0:0:0:
180,352,68589,1,0,0:0:0:0:
192,352,68672,1,0,0:0:0:0:
248,264,68839,5,0,0:0:0:0:
260,264,68922,1,0,0:0:0:0:
272,264,69005,1,0,0:0:0:0:
316,168,69172,5,0,0:0:0:0:
328,168,69255,1,0,0:0:0:0:
340,168,69338,1,0,0:0:0:0:
444,168,69505,1,0,0:0:0:0:
420,272,69672,1,0,0:0:0:0:
416,280,69755,1,0,0:0:0:0:
408,288,69839,1,0,0:0:0:0:
400,292,69922,1,0,0:0:0:0:
388,296,70005,5,0,0:0:0:0:
376,296,70089,1,0,0:0:0:0:
364,296,70172,1,0,0:0:0:0:
352,296,70255,1,0,0:0:0:0:
340,296,70339,1,0,0:0:0:0:
236,276,70505,1,0,0:0:0:0:
228,272,70589,1,0,0:0:0:0:
220,268,70672,1,0,0:0:0:0:
128,216,70839,1,0,0:0:0:0:
220,168,71005,5,0,0:0:0:0:
228,160,71089,1,0,0:0:0:0:
232,152,71172,1,0,0:0:0:0:
236,140,71255,1,0,0:0:0:0:
236,128,71339,1,0,0:0:0:0:
184,36,71505,1,0,0:0:0:0:
112,116,71672,1,0,0:0:0:0:
216,132,71839,1,0,0:0:0:0:
208,140,71922,1,0,0:0:0:0:
200,148,72005,1,0,0:0:0:0:
132,228,72172,1,0,0:0:0:0:
236,248,72339,5,0,0:0:0:0:
246,250,72422,1,0,0:0:0:0:
258,252,72505,1,0,0:0:0:0:
271,255,72589,1,0,0:0:0:0:
282,257,72672,5,0,0:0:0:0:
294,260,72755,1,0,0:0:0:0:
306,262,72839,1,0,0:0:0:0:
317,265,72922,1,0,0:0:0:0:
329,267,73005,1,0,0:0:0:0:
432,280,73172,1,0,0:0:0:0:
388,184,73339,1,0,0:0:0:0:
380,180,73422,1,0,0:0:0:0:
372,176,73505,1,0,0:0:0:0:
288,112,73672,5,0,0:0:0:0:
296,104,73755,1,0,0:0:0:0:
304,96,73839,1,0,0:0:0:0:
312,88,73922,1,0,0:0:0:0:
320,80,74005,1,0,0:0:0:0:
224,40,74172,5,0,0:0:0:0:
188,44,74255,1,0,0:0:0:0:
156,60,74339,1,0,0:0:0:0:
96,148,74505,1,0,0:0:0:0:
200,132,74672,1,0,0:0:0:0:
248,224,74839,1,0,0:0:0:0:
172,296,75005,1,0,0:0:0:0:
136,288,75089,1,0,0:0:0:0:
108,264,75172,1,0,0:0:0:0:
100,228,75255,1,0,0:0:0:0:
104,220,75339,5,0,0:0:0:0:
108,212,75422,1,0,0:0:0:0:
112,204,75505,1,0,0:0:0:0:
116,196,75589,1,0,0:0:0:0:
120,188,75672,1,0,0:0:0:0:
176,96,75839,5,0,0:0:0:0:
280,96,76005,1,0,0:0:0:0:
232,188,76172,1,0,0:0:0:0:
336,188,76339,1,0,0:0:0:0:
352,220,76422,1,0,0:0:0:0:
348,256,76505,1,0,0:0:0:0:
328,284,76589,1,0,0:0:0:0:
296,300,76672,1,0,0:0:0:0:
192,292,76839,5,0,0:0:0:0:
164,272,76922,1,0,0:0:0:0:
152,240,77005,1,0,0:0:0:0:
172,136,77172,1,0,0:0:0:0:
256,200,77339,1,0,0:0:0:0:
356,172,77505,1,0,0:0:0:0:
368,140,77589,1,0,0:0:0:0:
364,104,77672,1,0,0:0:0:0:
344,76,77755,1,0,0:0:0:0:
316,56,77839,1,0,0:0:0:0:
280,48,77922,1,0,0:0:0:0:
240,48,78005,6,0,L|144:48,1,83.9999974365235
160,176,78339,2,0,L|64:176,1,83.9999974365235
180,248,78672,1,0,0:0:0:0:
308,248,78839,1,0,0:0:0:0:
248,136,79005,1,0,0:0:0:0:
376,136,79172,1,0,0:0:0:0:
432,240,79339,5,0,0:0:0:0:
432,252,79422,1,0,0:0:0:0:
428,264,79505,1,0,0:0:0:0:
424,276,79589,1,0,0:0:0:0:
420,284,79672,1,0,0:0:0:0:
412,292,79755,1,0,0:0:0:0:
400,300,79839,1,0,0:0:0:0:
388,304,79922,1,0,0:0:0:0:
376,308,80005,2,0,L|288:308,1,83.9999974365235
332,188,80339,1,0,0:0:0:0:
208,212,80505,1,0,0:0:0:0:
332,188,80672,5,0,0:0:0:0:
244,96,80839,1,0,0:0:0:0:
233,85,80922,1,0,0:0:0:0:
223,75,81005,1,0,0:0:0:0:
312,168,81172,1,0,0:0:0:0:
188,148,81339,1,0,0:0:0:0:
256,252,81505,1,0,0:0:0:0:
132,232,81672,1,0,0:0:0:0:
180,348,81839,1,0,0:0:0:0:
304,320,82005,5,0,0:0:0:0:
248,208,82172,1,0,0:0:0:0:
256,196,82255,1,0,0:0:0:0:
264,184,82339,2,0,L|292:144,1,41.9999987182618
324,72,82505,1,0,0:0:0:0:
312,72,82589,1,0,0:0:0:0:
300,72,82672,2,0,L|244:72,1,41.9999987182618
176,72,82839,1,0,0:0:0:0:
96,168,83005,1,0,0:0:0:0:
220,192,83172,1,0,0:0:0:0:
176,72,83339,5,0,0:0:0:0:
300,96,83505,1,0,0:0:0:0:
308,104,83589,1,0,0:0:0:0:
316,112,83672,2,0,L|332:160,1,41.9999987182618
312,228,83839,2,0,L|280:268,1,41.9999987182618
276,272,84005,1,0,0:0:0:0:
156,308,84172,5,0,0:0:0:0:
147,299,84255,1,0,0:0:0:0:
138,291,84339,1,0,0:0:0:0:
52,200,84505,1,0,0:0:0:0:
180,204,84672,1,0,0:0:0:0:
192,200,84755,1,0,0:0:0:0:
204,192,84839,1,0,0:0:0:0:
216,184,84922,1,0,0:0:0:0:
228,176,85005,1,0,0:0:0:0:
236,168,85089,1,0,0:0:0:0:
244,156,85172,1,0,0:0:0:0:
252,144,85255,1,0,0:0:0:0:
256,132,85339,2,0,P|296:168|336:176,1,83.9999974365235
328,300,85672,2,0,P|378:280|403:248,1,83.9999974365235
452,144,86005,5,0,0:0:0:0:
364,56,86172,1,0,0:0:0:0:
352,56,86255,1,0,0:0:0:0:
340,56,86339,1,0,0:0:0:0:
216,56,86505,1,0,0:0:0:0:
160,220,86672,1,0,0:0:0:0:
156,232,86755,1,0,0:0:0:0:
152,244,86839,1,0,0:0:0:0:
132,120,87005,5,0,0:0:0:0:
246,250,87172,1,0,0:0:0:0:
254,259,87255,1,0,0:0:0:0:
262,269,87339,1,0,0:0:0:0:
136,120,87505,5,0,0:0:0:0:
324,212,87672,1,0,0:0:0:0:
152,332,87839,1,0,0:0:0:0:
244,144,88005,1,0,0:0:0:0:
368,312,88172,1,0,0:0:0:0:
172,232,88339,1,0,0:0:0:0:
380,196,88505,1,0,0:0:0:0:
236,44,88672,5,0,0:0:0:0:
132,116,88839,1,0,0:0:0:0:
124,124,88922,1,0,0:0:0:0:
116,132,89005,1,0,0:0:0:0:
32,228,89172,1,0,0:0:0:0:
160,228,89339,2,0,L|252:228,1,83.9999974365235
316,124,89672,2,0,L|224:124,1,83.9999974365235
104,120,90005,5,0,0:0:0:0:
108,132,90089,1,0,0:0:0:0:
116,144,90172,1,0,0:0:0:0:
128,152,90256,1,0,0:0:0:0:
140,156,90339,1,0,0:0:0:0:
152,156,90422,1,0,0:0:0:0:
164,156,90506,1,0,0:0:0:0:
176,156,90589,1,0,0:0:0:0:
188,156,90672,1,0,0:0:0:0:
316,156,90839,1,0,0:0:0:0:
316,276,91005,1,0,0:0:0:0:
188,276,91172,1,0,0:0:0:0:
192,148,91339,6,0,L|288:148,1,83.9999974365235
404,148,91672,2,0,L|336:260,2,125.999996154785
408,136,92255,1,0,0:0:0:0:
408,124,92339,1,0,0:0:0:0:
308,48,92505,1,0,0:0:0:0:
180,48,92672,1,0,0:0:0:0:
308,52,92839,1,0,0:0:0:0:
208,128,93005,1,0,0:0:0:0:
336,128,93172,1,0,0:0:0:0:
348,128,93255,1,0,0:0:0:0:
360,128,93339,2,0,L|444:128,1,83.9999974365235
356,220,93672,2,0,L|272:220,1,83.9999974365235
144,224,94005,5,0,0:0:0:0:
144,96,94172,1,0,0:0:0:0:
156,96,94255,1,0,0:0:0:0:
168,96,94339,1,0,0:0:0:0:
292,96,94505,1,0,0:0:0:0:
376,192,94672,2,0,L|468:192,1,83.9999974365235
400,304,95005,2,0,L|308:304,1,83.9999974365235
188,304,95339,5,0,0:0:0:0:
176,304,95422,1,0,0:0:0:0:
164,304,95505,1,0,0:0:0:0:
152,304,95589,1,0,0:0:0:0:
140,304,95672,1,0,0:0:0:0:
128,304,95755,1,0,0:0:0:0:
116,304,95839,1,0,0:0:0:0:
104,304,95922,1,0,0:0:0:0:
92,304,96005,2,0,L|92:216,1,83.9999974365235
168,120,96339,2,0,L|168:32,1,83.9999974365235
288,72,96672,5,0,0:0:0:0:
292,200,96839,1,0,0:0:0:0:
292,200,97005,1,0,0:0:0:0:
404,256,97172,5,0,0:0:0:0:
298,328,97339,1,0,0:0:0:0:
298,328,97505,1,0,0:0:0:0:
212,236,97672,5,0,0:0:0:0:
336,204,97839,1,0,0:0:0:0:
244,116,98005,1,0,0:0:0:0:
288,256,98172,5,0,0:0:0:0:
312,132,98339,1,0,0:0:0:0:
192,168,98505,1,0,0:0:0:0:
405,192,98672,1,0,0:0:0:0:
106,192,98839,1,0,0:0:0:0:
405,192,99005,1,0,0:0:0:0:
106,192,99172,1,0,0:0:0:0:
216,276,99339,6,0,P|283:272|343:170,1,181.999991668702
312,56,100005,1,0,0:0:0:0:
404,316,100339,1,0,0:0:0:0:
156,200,100672,1,0,0:0:0:0:
408,100,101005,1,0,0:0:0:0:
264,332,101339,1,0,0:0:0:0:
328,68,101672,1,0,0:0:0:0:
100,216,102005,6,0,P|116:300|224:312,1,181.999991668702
276,60,102672,6,0,P|359:82|376:167,1,181.999991668702
148,316,103339,1,0,0:0:0:0:
272,72,103672,1,0,0:0:0:0:
244,208,103839,1,0,0:0:0:0:
216,340,104005,1,0,0:0:0:0:
201,66,104338,1,0,0:0:0:0:
292,324,104672,6,0,L|484:324,1,181.999991668702
220,224,105339,2,0,L|38:224,1,181.999991668702
248,48,106005,1,0,0:0:0:0:
360,300,106339,1,0,0:0:0:0:
100,216,106672,1,0,0:0:0:0:
368,264,107005,2,0,P|377:220|366:176,1,90.9999958343508
276,72,107338,1,0,0:0:0:0:
360,332,107672,2,0,P|260:332|200:236,1,181.999991668702
316,248,108339,2,0,P|268:196|324:116,1,181.999991668702
460,124,108839,5,0,0:0:0:0:
392,240,109005,1,0,0:0:0:0:
322,116,109172,1,0,0:0:0:0:
256,236,109339,5,0,0:0:0:0:
176,128,109505,1,0,0:0:0:0:
312,144,109672,1,0,0:0:0:0:
240,28,109839,1,0,0:0:0:0:
376,32,110005,5,0,0:0:0:0:
311,300,110339,1,0,0:0:0:0:
166,67,110672,1,0,0:0:0:0:
432,121,111005,1,0,0:0:0:0:
185,237,111339,1,0,0:0:0:0:
382,50,111672,1,0,0:0:0:0:
108,52,112005,2,0,P|100:120|204:132,1,181.999991668702
396,328,112672,6,0,P|404:260|300:248,1,181.999991668702
60,344,113339,1,0,0:0:0:0:
188,104,113672,1,0,0:0:0:0:
320,340,114005,2,0,P|356:304|360:264,1,90.9999958343508
224,248,114339,5,0,0:0:0:0:
184,120,114505,1,0,0:0:0:0:
88,216,114672,1,0,0:0:0:0:
220,176,114839,1,0,0:0:0:0:
128,76,115005,1,0,0:0:0:0:
160,208,115172,1,0,0:0:0:0:
260,116,115339,5,0,0:0:0:0:
444,320,115672,1,0,0:0:0:0:
192,220,116005,1,0,0:0:0:0:
460,164,116339,2,0,P|444:114|396:82,1,90.9999958343508
288,36,116672,1,0,0:0:0:0:
156,64,116839,1,0,0:0:0:0:
100,188,117005,1,0,0:0:0:0:
236,176,117172,1,0,0:0:0:0:
184,300,117339,5,0,0:0:0:0:
172,164,117505,1,0,0:0:0:0:
296,224,117672,1,0,0:0:0:0:
288,88,117839,1,0,0:0:0:0:
172,164,118005,5,0,0:0:0:0:
400,316,118339,1,0,0:0:0:0:
324,56,118672,1,0,0:0:0:0:
240,316,119005,2,0,L|268:228,1,90.9999958343508
304,96,119339,5,0,0:0:0:0:
176,136,119505,1,0,0:0:0:0:
304,96,119672,1,0,0:0:0:0:
176,136,119838,1,0,0:0:0:0:
276,228,120005,5,0,0:0:0:0:
148,268,120171,1,0,0:0:0:0:
276,228,120338,1,0,0:0:0:0:
148,268,120504,1,0,0:0:0:0:
164,132,120672,6,0,P|256:176|280:264,1,181.999991668702
464,44,121339,1,0,0:0:0:0:
281,246,121672,1,0,0:0:0:0:
80,60,122005,1,0,0:0:0:0:
184,312,122339,1,0,0:0:0:0:
192,40,122672,1,0,0:0:0:0:
296,292,123006,1,0,0:0:0:0:
440,60,123339,6,0,L|248:60,1,181.999991668702
40,224,124005,2,0,L|232:224,1,181.999991668702
360,224,124505,1,0,0:0:0:0:
288,108,124672,2,0,P|248:68|112:100,1,181.999991668702
40,180,125172,1,0,0:0:0:0:
120,292,125339,2,0,P|188:312|188:224,1,181.999991668702
76,152,125839,1,0,0:0:0:0:
200,96,126005,5,0,0:0:0:0:
336,332,126339,1,0,0:0:0:0:
88,220,126672,1,0,0:0:0:0:
357,191,127006,1,0,0:0:0:0:
124,52,127339,1,0,0:0:0:0:
116,324,127672,1,0,0:0:0:0:
260,92,128005,1,0,0:0:0:0:
408,320,128339,6,0,L|320:272,1,90.9999958343508
212,208,128672,1,0,0:0:0:0:
200,200,128755,1,0,0:0:0:0:
188,192,128839,1,0,0:0:0:0:
176,184,128922,1,0,0:0:0:0:
164,176,129005,1,0,0:0:0:0:
48,104,129172,1,0,0:0:0:0:
40,240,129339,5,0,0:0:0:0:
112,292,129450,1,0,0:0:0:0:
204,296,129561,1,0,0:0:0:0:
284,256,129672,2,0,L|332:192,2,60.6666638895672
372,128,130005,5,0,0:0:0:0:
300,76,130116,1,0,0:0:0:0:
208,72,130227,1,0,0:0:0:0:
128,112,130338,2,0,L|80:176,2,60.6666638895672
40,236,130672,5,0,0:0:0:0:
100,236,130783,1,0,0:0:0:0:
160,236,130894,1,0,0:0:0:0:
220,236,131005,1,0,0:0:0:0:
280,236,131117,1,0,0:0:0:0:
340,236,131228,1,0,0:0:0:0:
388,236,131339,5,0,0:0:0:0:
140,296,140672,5,0,0:0:0:0:
208,332,140839,1,0,0:0:0:0:
248,336,140922,1,0,0:0:0:0:
284,328,141005,1,0,0:0:0:0:
344,280,141172,1,0,0:0:0:0:
272,248,141339,1,0,0:0:0:0:
240,228,141422,1,0,0:0:0:0:
224,192,141505,1,0,0:0:0:0:
224,152,141589,1,0,0:0:0:0:
244,120,141672,1,0,0:0:0:0:
276,100,141755,1,0,0:0:0:0:
316,100,141839,1,0,0:0:0:0:
348,124,141922,1,0,0:0:0:0:
360,164,142005,5,0,0:0:0:0:
324,284,142172,1,0,0:0:0:0:
232,196,142339,1,0,0:0:0:0:
324,284,142505,1,0,0:0:0:0:
204,320,142672,1,0,0:0:0:0:
104,248,142839,1,0,0:0:0:0:
96,236,142922,1,0,0:0:0:0:
92,224,143005,1,0,0:0:0:0:
92,212,143089,1,0,0:0:0:0:
96,200,143172,1,0,0:0:0:0:
156,88,143339,5,0,0:0:0:0:
280,88,143505,1,0,0:0:0:0:
284,216,143672,1,0,0:0:0:0:
156,216,143839,1,0,0:0:0:0:
156,88,144005,2,0,L|264:88,2,83.9999974365235
144,88,144422,1,0,0:0:0:0:
132,92,144505,1,0,0:0:0:0:
120,100,144589,1,0,0:0:0:0:
112,112,144672,1,0,0:0:0:0:
112,240,144839,5,0,0:0:0:0:
220,304,145005,2,0,L|308:304,1,83.9999974365235
364,192,145339,2,0,L|452:192,1,83.9999974365235
384,84,145672,1,0,0:0:0:0:
372,84,145755,1,0,0:0:0:0:
360,84,145839,1,0,0:0:0:0:
348,84,145922,1,0,0:0:0:0:
336,84,146005,1,0,0:0:0:0:
208,84,146172,1,0,0:0:0:0:
196,84,146255,1,0,0:0:0:0:
184,84,146339,1,0,0:0:0:0:
96,172,146505,1,0,0:0:0:0:
132,292,146672,5,0,0:0:0:0:
136,304,146755,1,0,0:0:0:0:
144,312,146839,1,0,0:0:0:0:
156,320,146922,1,0,0:0:0:0:
168,324,147005,1,0,0:0:0:0:
180,324,147089,1,0,0:0:0:0:
192,324,147172,1,0,0:0:0:0:
204,324,147255,1,0,0:0:0:0:
216,324,147339,2,0,L|312:324,1,83.9999974365235
212,236,147672,2,0,L|116:236,1,83.9999974365235
196,128,148005,2,0,L|280:128,1,83.9999974365235
292,128,148255,1,0,0:0:0:0:
304,128,148339,1,0,0:0:0:0:
316,132,148422,1,0,0:0:0:0:
324,140,148505,1,0,0:0:0:0:
332,152,148589,1,0,0:0:0:0:
332,164,148672,1,0,0:0:0:0:
252,260,148839,5,0,0:0:0:0:
196,148,149005,1,0,0:0:0:0:
320,164,149172,1,0,0:0:0:0:
264,52,149339,1,0,0:0:0:0:
320,164,149505,1,0,0:0:0:0:
268,280,149672,1,0,0:0:0:0:
256,288,149755,1,0,0:0:0:0:
244,296,149839,1,0,0:0:0:0:
232,304,149922,1,0,0:0:0:0:
220,312,150005,5,0,0:0:0:0:
156,204,150172,1,0,0:0:0:0:
272,204,150339,1,0,0:0:0:0:
216,100,150505,5,0,0:0:0:0:
332,108,150672,1,0,0:0:0:0:
272,204,150839,1,0,0:0:0:0:
213,304,151005,5,0,0:0:0:0:
204,315,151089,1,0,0:0:0:0:
196,327,151172,1,0,0:0:0:0:
189,340,151255,1,0,0:0:0:0:
181,352,151339,1,0,0:0:0:0:
57,344,151505,1,0,0:0:0:0:
55,333,151589,1,0,0:0:0:0:
53,321,151672,1,0,0:0:0:0:
29,195,151839,1,0,0:0:0:0:
140,228,152005,5,0,0:0:0:0:
153,229,152089,1,0,0:0:0:0:
164,230,152172,1,0,0:0:0:0:
176,226,152255,1,0,0:0:0:0:
186,219,152339,1,0,0:0:0:0:
196,212,152422,1,0,0:0:0:0:
203,202,152505,1,0,0:0:0:0:
208,189,152589,1,0,0:0:0:0:
212,176,152672,6,0,L|212:88,1,83.9999974365235
340,92,153005,1,0,0:0:0:0:
340,220,153172,1,0,0:0:0:0:
336,92,153339,1,0,0:0:0:0:
220,44,153505,1,0,0:0:0:0:
208,44,153589,1,0,0:0:0:0:
196,44,153672,1,0,0:0:0:0:
184,48,153755,1,0,0:0:0:0:
172,52,153839,1,0,0:0:0:0:
104,156,154005,5,0,0:0:0:0:
232,156,154172,1,0,0:0:0:0:
104,156,154339,1,0,0:0:0:0:
232,156,154506,1,0,0:0:0:0:
172,232,154672,1,0,0:0:0:0:
300,232,154839,1,0,0:0:0:0:
236,340,155005,1,0,0:0:0:0:
224,340,155089,1,0,0:0:0:0:
212,340,155172,1,0,0:0:0:0:
200,340,155255,1,0,0:0:0:0:
188,340,155339,5,0,0:0:0:0:
164,216,155505,1,0,0:0:0:0:
284,252,155672,1,0,0:0:0:0:
252,128,155839,1,0,0:0:0:0:
164,216,156005,1,0,0:0:0:0:
132,96,156172,1,0,0:0:0:0:
44,188,156339,5,0,0:0:0:0:
44,200,156422,1,0,0:0:0:0:
48,212,156505,1,0,0:0:0:0:
56,224,156589,1,0,0:0:0:0:
68,232,156672,1,0,0:0:0:0:
184,180,156839,1,0,0:0:0:0:
192,188,156922,1,0,0:0:0:0:
204,192,157005,1,0,0:0:0:0:
320,140,157172,1,0,0:0:0:0:
444,164,157339,5,0,0:0:0:0:
444,176,157422,1,0,0:0:0:0:
440,188,157505,1,0,0:0:0:0:
436,200,157589,1,0,0:0:0:0:
432,212,157672,2,0,P|392:256|348:256,1,83.9999974365235
248,232,158005,2,0,P|204:192|204:148,1,83.9999974365235
268,64,158339,2,0,L|368:64,1,83.9999974365235
276,164,158672,2,0,L|176:164,1,83.9999974365235
180,164,158922,1,0,0:0:0:0:
168,168,159005,1,0,0:0:0:0:
156,176,159089,1,0,0:0:0:0:
148,188,159172,1,0,0:0:0:0:
144,200,159255,1,0,0:0:0:0:
144,212,159339,5,0,0:0:0:0:
268,212,159505,1,0,0:0:0:0:
320,108,159672,1,0,0:0:0:0:
196,108,159838,1,0,0:0:0:0:
268,212,160005,1,0,0:0:0:0:
316,108,160172,1,0,0:0:0:0:
428,168,160339,1,0,0:0:0:0:
432,180,160422,1,0,0:0:0:0:
432,192,160505,1,0,0:0:0:0:
428,204,160589,1,0,0:0:0:0:
424,216,160672,5,0,0:0:0:0:
316,280,160839,1,0,0:0:0:0:
316,280,161005,1,0,0:0:0:0:
316,152,161172,5,0,0:0:0:0:
206,90,161339,1,0,0:0:0:0:
206,90,161505,1,0,0:0:0:0:
92,140,161672,5,0,0:0:0:0:
88,152,161755,1,0,0:0:0:0:
88,164,161839,1,0,0:0:0:0:
92,176,161922,1,0,0:0:0:0:
100,184,162005,1,0,0:0:0:0:
224,208,162172,1,0,0:0:0:0:
228,220,162255,1,0,0:0:0:0:
232,232,162339,1,0,0:0:0:0:
280,348,162505,1,0,0:0:0:0:
368,256,162672,5,0,0:0:0:0:
372,244,162755,1,0,0:0:0:0:
376,232,162839,1,0,0:0:0:0:
376,220,162922,1,0,0:0:0:0:
372,208,163005,1,0,0:0:0:0:
368,196,163089,1,0,0:0:0:0:
360,184,163172,1,0,0:0:0:0:
352,176,163255,1,0,0:0:0:0:
340,168,163339,5,0,0:0:0:0:
220,140,163505,1,0,0:0:0:0:
252,264,163672,1,0,0:0:0:0:
128,232,163839,1,0,0:0:0:0:
256,264,164005,1,0,0:0:0:0:
356,188,164172,1,0,0:0:0:0:
343,185,164255,1,0,0:0:0:0:
331,182,164339,1,0,0:0:0:0:
318,179,164422,1,0,0:0:0:0:
306,177,164505,1,0,0:0:0:0:
294,174,164589,1,0,0:0:0:0:
281,171,164672,1,0,0:0:0:0:
400,212,164839,5,0,0:0:0:0:
360,92,165005,1,0,0:0:0:0:
236,64,165172,1,0,0:0:0:0:
132,136,165339,1,0,0:0:0:0:
256,136,165505,1,0,0:0:0:0:
256,264,165672,1,0,0:0:0:0:
244,264,165755,1,0,0:0:0:0:
232,264,165839,1,0,0:0:0:0:
220,264,165922,1,0,0:0:0:0:
208,264,166005,5,0,0:0:0:0:
80,264,166172,1,0,0:0:0:0:
80,136,166339,1,0,0:0:0:0:
80,264,166505,1,0,0:0:0:0:
80,136,166672,1,0,0:0:0:0:
188,200,166839,1,0,0:0:0:0:
312,204,167005,5,0,0:0:0:0:
324,204,167089,1,0,0:0:0:0:
336,204,167172,1,0,0:0:0:0:
348,204,167255,1,0,0:0:0:0:
360,204,167339,1,0,0:0:0:0:
360,328,167505,1,0,0:0:0:0:
348,328,167589,1,0,0:0:0:0:
336,328,167672,1,0,0:0:0:0:
256,232,167839,1,0,0:0:0:0:
176,328,168005,5,0,0:0:0:0:
164,324,168089,1,0,0:0:0:0:
152,316,168172,1,0,0:0:0:0:
144,304,168255,1,0,0:0:0:0:
140,292,168339,1,0,0:0:0:0:
140,280,168422,1,0,0:0:0:0:
144,268,168505,1,0,0:0:0:0:
152,256,168589,1,0,0:0:0:0:
164,248,168672,5,0,0:0:0:0:
292,248,168839,1,0,0:0:0:0:
292,124,169005,1,0,0:0:0:0:
164,124,169172,1,0,0:0:0:0:
292,128,169339,1,0,0:0:0:0:
416,132,169505,1,0,0:0:0:0:
420,144,169589,1,0,0:0:0:0:
424,156,169672,1,0,0:0:0:0:
424,168,169755,1,0,0:0:0:0:
420,180,169839,1,0,0:0:0:0:
416,192,169922,1,0,0:0:0:0:
408,204,170005,5,0,0:0:0:0:
320,296,170172,1,0,0:0:0:0:
256,188,170339,1,0,0:0:0:0:
160,268,170505,1,0,0:0:0:0:
120,148,170672,1,0,0:0:0:0:
212,236,170839,1,0,0:0:0:0:
248,116,171005,5,0,0:0:0:0:
252,104,171089,1,0,0:0:0:0:
256,92,171172,1,0,0:0:0:0:
260,80,171255,1,0,0:0:0:0:
264,68,171339,1,0,0:0:0:0:
388,84,171505,1,0,0:0:0:0:
316,188,171672,1,0,0:0:0:0:
320,120,171839,1,0,0:0:0:0:
434,168,172005,1,0,0:0:0:0:
337,249,172172,1,0,0:0:0:0:
308,124,172339,5,0,0:0:0:0:
300,116,172422,1,0,0:0:0:0:
288,108,172505,1,0,0:0:0:0:
276,104,172589,1,0,0:0:0:0:
264,104,172672,1,0,0:0:0:0:
140,120,172839,1,0,0:0:0:0:
132,128,172922,1,0,0:0:0:0:
128,140,173005,1,0,0:0:0:0:
124,268,173172,1,0,0:0:0:0:
240,320,173339,5,0,0:0:0:0:
252,320,173422,1,0,0:0:0:0:
264,320,173505,1,0,0:0:0:0:
276,320,173589,1,0,0:0:0:0:
288,320,173672,1,0,0:0:0:0:
300,320,173755,1,0,0:0:0:0:
312,320,173839,1,0,0:0:0:0:
324,320,173922,1,0,0:0:0:0:
336,320,174005,5,0,0:0:0:0:
336,192,174172,1,0,0:0:0:0:
444,256,174339,1,0,0:0:0:0:
444,132,174505,1,0,0:0:0:0:
336,68,174672,1,0,0:0:0:0:
408,136,174839,1,0,0:0:0:0:
416,148,174922,1,0,0:0:0:0:
420,160,175005,1,0,0:0:0:0:
420,172,175089,1,0,0:0:0:0:
416,184,175172,1,0,0:0:0:0:
356,296,175339,5,0,0:0:0:0:
232,296,175505,1,0,0:0:0:0:
228,168,175672,1,0,0:0:0:0:
356,168,175839,1,0,0:0:0:0:
356,296,176005,2,0,L|248:296,2,83.9999974365235
368,296,176422,1,0,0:0:0:0:
380,292,176505,1,0,0:0:0:0:
392,284,176589,1,0,0:0:0:0:
400,272,176672,1,0,0:0:0:0:
400,144,176839,5,0,0:0:0:0:
292,80,177005,2,0,L|204:80,1,83.9999974365235
148,192,177339,2,0,L|60:192,1,83.9999974365235
128,300,177672,1,0,0:0:0:0:
140,300,177755,1,0,0:0:0:0:
152,300,177839,1,0,0:0:0:0:
164,300,177922,1,0,0:0:0:0:
176,300,178005,1,0,0:0:0:0:
304,300,178172,1,0,0:0:0:0:
316,300,178255,1,0,0:0:0:0:
328,300,178339,1,0,0:0:0:0:
416,212,178505,1,0,0:0:0:0:
380,92,178672,5,0,0:0:0:0:
376,80,178755,1,0,0:0:0:0:
368,72,178839,1,0,0:0:0:0:
356,64,178922,1,0,0:0:0:0:
344,60,179005,1,0,0:0:0:0:
332,60,179089,1,0,0:0:0:0:
320,60,179172,1,0,0:0:0:0:
308,60,179255,1,0,0:0:0:0:
296,60,179339,2,0,L|200:60,1,83.9999974365235
300,148,179672,2,0,L|396:148,1,83.9999974365235
316,256,180005,2,0,L|232:256,1,83.9999974365235
220,256,180255,1,0,0:0:0:0:
208,256,180339,1,0,0:0:0:0:
196,252,180422,1,0,0:0:0:0:
188,244,180505,1,0,0:0:0:0:
180,232,180589,1,0,0:0:0:0:
180,220,180672,1,0,0:0:0:0:
260,124,180839,5,0,0:0:0:0:
316,236,181005,1,0,0:0:0:0:
192,220,181172,1,0,0:0:0:0:
248,332,181339,1,0,0:0:0:0:
192,220,181505,1,0,0:0:0:0:
244,104,181672,1,0,0:0:0:0:
256,96,181755,1,0,0:0:0:0:
268,88,181839,1,0,0:0:0:0:
280,80,181922,1,0,0:0:0:0:
292,72,182005,5,0,0:0:0:0:
356,180,182172,1,0,0:0:0:0:
240,180,182339,1,0,0:0:0:0:
296,284,182505,5,0,0:0:0:0:
180,276,182672,1,0,0:0:0:0:
240,180,182839,1,0,0:0:0:0:
298,79,183005,5,0,0:0:0:0:
307,68,183089,1,0,0:0:0:0:
315,56,183172,1,0,0:0:0:0:
322,43,183255,1,0,0:0:0:0:
330,31,183339,1,0,0:0:0:0:
454,39,183505,1,0,0:0:0:0:
456,50,183589,1,0,0:0:0:0:
458,62,183672,1,0,0:0:0:0:
482,188,183839,1,0,0:0:0:0:
372,152,184005,5,0,0:0:0:0:
360,152,184089,1,0,0:0:0:0:
348,154,184172,1,0,0:0:0:0:
336,158,184255,1,0,0:0:0:0:
326,165,184339,1,0,0:0:0:0:
316,172,184422,1,0,0:0:0:0:
309,182,184505,1,0,0:0:0:0:
304,195,184589,1,0,0:0:0:0:
300,208,184672,6,0,L|300:288,1,77.0000023498536
184,284,185005,2,0,L|184:192,1,77.0000023498536
184,92,185339,1,0,0:0:0:0:
80,144,185505,1,0,0:0:0:0:
68,180,185589,1,0,0:0:0:0:
72,220,185672,1,0,0:0:0:0:
88,256,185755,1,0,0:0:0:0:
116,284,185839,1,0,0:0:0:0:
148,304,185922,1,0,0:0:0:0:
188,308,186005,5,0,0:0:0:0:
204,192,186172,1,0,0:0:0:0:
300,260,186339,1,0,0:0:0:0:
316,144,186505,1,0,0:0:0:0:
216,84,186672,2,0,L|124:84,1,77.0000023498536
48,156,187005,5,0,0:0:0:0:
52,196,187089,1,0,0:0:0:0:
72,228,187172,1,0,0:0:0:0:
100,252,187255,1,0,0:0:0:0:
136,264,187339,1,0,0:0:0:0:
176,156,187505,1,0,0:0:0:0:
292,156,187672,1,0,0:0:0:0:
224,248,187839,1,0,0:0:0:0:
340,248,188005,1,0,0:0:0:0:
276,344,188172,1,0,0:0:0:0:
392,344,188338,5,0,0:0:0:0:
428,324,188422,1,0,0:0:0:0:
452,292,188505,1,0,0:0:0:0:
460,252,188589,1,0,0:0:0:0:
456,212,188672,2,0,P|436:160|412:136,1,77.0000023498536
392,120,188922,1,0,0:0:0:0:
360,100,189005,2,0,P|308:80|276:80,1,77.0000023498536
172,100,189339,5,0,0:0:0:0:
140,120,189422,1,0,0:0:0:0:
116,152,189505,1,0,0:0:0:0:
116,192,189589,1,0,0:0:0:0:
148,172,189672,1,0,0:0:0:0:
188,168,189755,1,0,0:0:0:0:
224,180,189839,1,0,0:0:0:0:
248,212,189922,1,0,0:0:0:0:
248,252,190005,5,0,0:0:0:0:
356,212,190172,1,0,0:0:0:0:
340,328,190339,1,0,0:0:0:0:
300,220,190505,1,0,0:0:0:0:
412,252,190672,1,0,0:0:0:0:
420,176,190839,1,0,0:0:0:0:
412,140,190922,1,0,0:0:0:0:
388,108,191005,1,0,0:0:0:0:
356,84,191089,1,0,0:0:0:0:
320,68,191172,1,0,0:0:0:0:
280,64,191255,1,0,0:0:0:0:
240,68,191339,5,0,0:0:0:0:
144,132,191505,1,0,0:0:0:0:
252,180,191672,1,0,0:0:0:0:
156,248,191839,1,0,0:0:0:0:
204,144,192005,1,0,0:0:0:0:
88,152,192172,1,0,0:0:0:0:
60,224,192339,1,0,0:0:0:0:
64,264,192422,1,0,0:0:0:0:
88,296,192505,1,0,0:0:0:0:
124,316,192589,1,0,0:0:0:0:
164,320,192672,5,0,0:0:0:0:
172,204,192839,1,0,0:0:0:0:
268,268,193005,1,0,0:0:0:0:
152,260,193172,1,0,0:0:0:0:
220,164,193339,1,0,0:0:0:0:
104,152,193505,1,0,0:0:0:0:
168,68,193672,5,0,0:0:0:0:
180,68,193755,1,0,0:0:0:0:
192,68,193839,1,0,0:0:0:0:
204,68,193922,1,0,0:0:0:0:
216,68,194005,1,0,0:0:0:0:
332,68,194172,1,0,0:0:0:0:
344,72,194255,1,0,0:0:0:0:
352,80,194339,1,0,0:0:0:0:
412,180,194505,1,0,0:0:0:0:
296,180,194672,5,0,0:0:0:0:
284,180,194755,1,0,0:0:0:0:
272,180,194839,1,0,0:0:0:0:
260,180,194922,1,0,0:0:0:0:
248,180,195005,1,0,0:0:0:0:
236,180,195089,1,0,0:0:0:0:
224,180,195172,1,0,0:0:0:0:
212,180,195255,1,0,0:0:0:0:
