osu file format v14

[General]
AudioFilename: audio.mp3
AudioLeadIn: 0
PreviewTime: -1
Countdown: 0
SampleSet: None
StackLeniency: 0.7
Mode: 0
LetterboxInBreaks: 0
WidescreenStoryboard: 0

[Editor]
DistanceSpacing: 1
BeatDivisor: 4
GridSize: 32
TimelineZoom: 1.4

[Metadata]
Title:Kinpaku
TitleUnicode:Kinpaku
Artist:Iwasaki Taku
ArtistUnicode:Iwasaki Taku
Creator:Trashokahn
Version:Extra
Source:Akame Ga Kill OST
Tags:Anime Akame Japan Iwasaki
BeatmapID:1430843
BeatmapSetID:676512

[Difficulty]
HPDrainRate:6
CircleSize:4
OverallDifficulty:8.5
ApproachRate:9
SliderMultiplier:1.4
SliderTickRate:1

[Events]
//Background and Video events
0,0,"Akame Ga Kill.jpg",0,0
//Break Periods
2,33179,42879
//Storyboard Layer 0 (Background)
//Storyboard Layer 1 (Fail)
//Storyboard Layer 2 (Pass)
//Storyboard Layer 3 (Foreground)
//Storyboard Sound Samples

[TimingPoints]
979.976901962514,333.333333333333,4,2,0,45,1,0
42896,-71.4285714285714,4,2,0,45,0,0
47396,-71.4285714285714,4,2,0,5,0,0
47563,-71.4285714285714,4,2,0,45,0,0
54479,-62.5,4,2,0,45,0,0

[Colours]
Combo1 : 255,255,0
Combo2 : 164,32,240
Combo3 : 37,185,239
Combo4 : 23,209,116
Combo5 : 226,45,124
Combo6 : 26,116,242

[HitObjects]
256,192,813,5,0,0:0:0:0:
288,160,979,1,0,0:0:0:0:
256,64,1313,1,0,0:0:0:0:
160,128,1646,1,0,0:0:0:0:
160,192,1813,1,0,0:0:0:0:
192,224,1979,1,0,0:0:0:0:
288,288,2313,5,0,0:0:0:0:
384,224,2646,1,0,0:0:0:0:
288,160,2979,1,0,0:0:0:0:
289,103,3146,1,0,0:0:0:0:
288,216,3313,1,0,0:0:0:0:
212,220,3479,5,0,0:0:0:0:
213,163,3646,1,0,0:0:0:0:
212,276,3979,1,0,0:0:0:0:
368,163,4313,5,0,0:0:0:0:
369,106,4480,1,0,0:0:0:0:
368,219,4647,1,0,0:0:0:0:
369,106,4979,2,0,P|322:64|280:106,1,105
283,106,5313,2,0,P|330:64|372:106,1,105
369,106,5646,5,0,0:0:0:0:
370,163,5813,1,0,0:0:0:0:
369,50,5980,1,0,0:0:0:0:
281,107,6146,1,0,0:0:0:0:
457,105,6313,1,0,0:0:0:0:
283,283,6646,1,0,0:0:0:0:
459,281,6979,5,0,0:0:0:0:
371,282,7146,1,0,0:0:0:0:
283,283,7313,1,0,0:0:0:0:
283,283,7646,2,0,P|330:325|372:283,1,105
369,283,7980,2,0,P|322:325|280:283,1,105
283,283,8313,5,0,0:0:0:0:
224,196,8479,1,0,0:0:0:0:
311,137,8646,1,0,0:0:0:0:
370,224,8813,1,0,0:0:0:0:
283,283,8979,2,0,P|235:287|172:275,1,105
132,251,9313,2,0,P|95:219|59:166,1,105
62,173,9646,1,0,0:0:0:0:
192,39,9813,1,0,0:0:0:0:
326,169,9979,6,0,P|363:138|362:109,1,70
282,234,10313,2,0,P|245:265|246:294,1,70
375,236,10646,2,0,P|412:205|411:176,1,70
331,301,10980,2,0,P|294:332|295:361,1,70
292,350,11313,5,0,0:0:0:0:
260,318,11479,1,0,0:0:0:0:
260,254,11646,1,0,0:0:0:0:
448,64,11979,1,0,0:0:0:0:
64,256,12313,1,0,0:0:0:0:
65,199,12480,1,0,0:0:0:0:
64,312,12647,1,0,0:0:0:0:
448,320,12979,5,0,0:0:0:0:
448,320,13313,1,0,0:0:0:0:
64,128,13646,1,0,0:0:0:0:
65,185,13813,1,0,0:0:0:0:
64,72,13980,1,0,0:0:0:0:
153,186,14146,5,0,0:0:0:0:
154,129,14313,1,0,0:0:0:0:
153,242,14646,1,0,0:0:0:0:
250,245,14979,5,0,0:0:0:0:
306,213,15146,1,0,0:0:0:0:
318,170,15312,1,0,0:0:0:0:
220,47,15646,2,0,P|172:43|109:55,1,105
69,79,15980,2,0,P|32:111|-4:164,1,105
24,270,16313,5,0,0:0:0:0:
78,332,16479,1,0,0:0:0:0:
167,357,16646,1,0,0:0:0:0:
256,332,16813,1,0,0:0:0:0:
310,269,16979,1,0,0:0:0:0:
403,172,17313,1,0,0:0:0:0:
474,65,17646,2,0,P|506:96|506:128,2,70
422,112,18313,2,0,P|375:70|333:112,1,105
336,112,18647,2,0,P|383:70|425:112,1,105
422,112,18979,5,0,0:0:0:0:
359,174,19146,1,0,0:0:0:0:
297,237,19313,1,0,0:0:0:0:
235,174,19479,1,0,0:0:0:0:
173,237,19646,1,0,0:0:0:0:
448,64,19979,5,0,0:0:0:0:
64,256,20313,1,0,0:0:0:0:
65,199,20480,1,0,0:0:0:0:
64,312,20647,1,0,0:0:0:0:
448,64,20979,1,0,0:0:0:0:
64,256,21313,1,0,0:0:0:0:
283,283,21646,5,0,0:0:0:0:
224,196,21812,1,0,0:0:0:0:
311,137,21979,1,0,0:0:0:0:
370,224,22146,1,0,0:0:0:0:
283,283,22312,2,0,P|235:287|172:275,1,105
132,251,22646,2,0,P|95:219|59:166,1,105
46,97,22979,2,0,P|48:51|72:30,2,70
132,251,23646,5,0,0:0:0:0:
195,85,23979,1,0,0:0:0:0:
133,249,24313,5,0,0:0:0:0:
267,66,24479,1,0,0:0:0:0:
266,292,24646,1,0,0:0:0:0:
134,109,24813,1,0,0:0:0:0:
350,180,24979,1,0,0:0:0:0:
133,249,25313,1,0,0:0:0:0:
350,180,25646,6,0,P|403:191|426:192,2,70
289,240,26313,2,0,P|239:224|195:197,1,105
195,197,26646,2,0,P|236:170|297:152,1,105
296,152,26979,1,0,0:0:0:0:
297,80,27146,1,0,0:0:0:0:
296,222,27313,1,0,0:0:0:0:
201,227,27479,5,0,0:0:0:0:
202,154,27646,1,0,0:0:0:0:
201,297,27979,1,0,0:0:0:0:
201,297,28313,5,0,0:0:0:0:
326,227,28479,1,0,0:0:0:0:
202,153,28646,1,0,0:0:0:0:
202,153,28979,6,0,B|157:153|158:196|228:196,1,105
310,153,29313,2,0,B|355:153|354:196|284:196,1,105
311,297,29646,5,0,0:0:0:0:
186,227,29812,1,0,0:0:0:0:
310,153,29979,1,0,0:0:0:0:
187,371,30146,1,0,0:0:0:0:
186,227,30313,1,0,0:0:0:0:
310,153,30646,1,0,0:0:0:0:
310,153,30979,6,0,L|310:50,2,70
310,153,31646,2,0,L|400:205,1,105
310,153,31979,2,0,L|219:205,1,105
219,305,32313,5,0,0:0:0:0:
120,206,32479,1,0,0:0:0:0:
219,107,32646,1,0,0:0:0:0:
317,206,32813,1,0,0:0:0:0:
219,305,32979,1,0,0:0:0:0:
64,64,43479,6,0,B|101:63|100:83|166:79,1,97.9999970092774
131,80,43979,1,0,0:0:0:0:
380,80,44313,1,0,0:0:0:0:
254,295,44479,1,0,0:0:0:0:
131,80,44646,1,0,0:0:0:0:
7,294,44979,5,0,0:0:0:0:
504,295,45313,1,0,0:0:0:0:
256,32,45647,5,0,0:0:0:0:
69,217,45813,1,0,0:0:0:0:
332,129,45980,1,0,0:0:0:0:
160,330,46147,1,0,0:0:0:0:
391,201,46313,1,0,0:0:0:0:
69,217,46479,5,0,0:0:0:0:
327,68,46646,1,0,0:0:0:0:
327,366,46812,1,0,0:0:0:0:
155,68,46979,1,0,0:0:0:0:
155,365,47146,1,0,0:0:0:0:
412,217,47313,2,0,L|285:217,1,97.9999970092774
69,217,47646,5,0,0:0:0:0:
371,119,47813,1,0,0:0:0:0:
184,376,47979,1,0,0:0:0:0:
185,59,48146,1,0,0:0:0:0:
371,315,48313,1,0,0:0:0:0:
69,217,48479,1,0,0:0:0:0:
371,119,48646,1,0,0:0:0:0:
184,376,48813,6,0,B|183:339|203:340|199:274,1,97.9999970092774
222,45,49313,1,0,0:0:0:0:
222,45,49646,1,0,0:0:0:0:
280,347,49813,1,0,0:0:0:0:
453,93,49979,1,0,0:0:0:0:
69,217,50313,5,0,0:0:0:0:
448,320,50646,5,0,0:0:0:0:
320,96,50979,5,0,0:0:0:0:
64,224,51146,1,0,0:0:0:0:
480,320,51313,1,0,0:0:0:0:
320,96,51479,5,0,0:0:0:0:
64,224,51646,1,0,0:0:0:0:
480,320,51813,1,0,0:0:0:0:
320,96,51979,5,0,0:0:0:0:
64,224,52146,1,0,0:0:0:0:
480,320,52313,1,0,0:0:0:0:
122,56,52479,1,0,0:0:0:0:
378,200,52646,6,0,B|415:199|414:219|480:215,1,97.9999970092774
448,64,52979,5,0,0:0:0:0:
191,250,53146,1,0,0:0:0:0:
368,6,53313,5,0,0:0:0:0:
270,308,53479,1,0,0:0:0:0:
270,6,53646,5,0,0:0:0:0:
368,308,53813,1,0,0:0:0:0:
191,64,53979,5,0,0:0:0:0:
448,251,54146,1,0,0:0:0:0:
161,157,54313,5,0,0:0:0:0:
161,157,54646,1,0,0:0:0:0:
160,256,54979,2,0,B|224:224|256:255|256:255|275:237|275:237|297:249,2,112
40,299,55646,2,0,B|64:225|34:191|96:128,1,168
99,115,55979,2,0,B|175:98|189:55|275:77,1,168
278,94,56313,5,0,0:0:0:0:
278,205,56479,1,0,0:0:0:0:
277,313,56646,1,0,0:0:0:0:
278,205,56813,1,0,0:0:0:0:
278,94,56979,1,0,0:0:0:0:
7,294,57313,1,0,0:0:0:0:
504,295,57647,5,0,0:0:0:0:
396,105,57813,1,0,0:0:0:0:
288,295,57979,1,0,0:0:0:0:
180,105,58312,1,0,0:0:0:0:
510,297,58646,1,0,0:0:0:0:
7,294,58979,5,0,0:0:0:0:
115,104,59146,1,0,0:0:0:0:
223,294,59312,1,0,0:0:0:0:
331,104,59479,1,0,0:0:0:0:
7,294,59646,1,0,0:0:0:0:
7,294,59979,1,0,0:0:0:0:
256,32,60313,5,0,0:0:0:0:
160,160,60479,1,0,0:0:0:0:
352,160,60646,1,0,0:0:0:0:
352,160,60979,2,0,B|216:94|381:119,1,168
160,160,61313,2,0,B|296:94|131:119,1,168
256,160,61646,5,0,0:0:0:0:
256,256,61813,1,0,0:0:0:0:
256,64,61979,1,0,0:0:0:0:
352,256,62146,5,0,0:0:0:0:
352,352,62313,1,0,0:0:0:0:
352,160,62646,1,0,0:0:0:0:
160,160,62979,5,0,0:0:0:0:
160,64,63146,1,0,0:0:0:0:
160,256,63313,1,0,0:0:0:0:
256,256,63646,6,0,B|256:191|194:129|129:192,1,168
256,256,63979,2,0,B|256:191|318:129|383:192,1,168
256,128,64313,5,0,0:0:0:0:
256,192,64479,1,0,0:0:0:0:
256,256,64646,1,0,0:0:0:0:
256,63,64813,1,0,0:0:0:0:
256,320,64979,1,0,0:0:0:0:
256,192,65313,1,0,0:0:0:0:
367,128,65646,1,0,0:0:0:0:
256,320,65813,1,0,0:0:0:0:
145,128,65980,1,0,0:0:0:0:
352,245,66313,6,0,B|216:179|381:204,1,168
160,245,66647,2,0,B|296:179|131:204,1,168
96,160,66979,5,0,0:0:0:0:
256,64,67146,1,0,0:0:0:0:
416,160,67313,1,0,0:0:0:0:
256,256,67479,1,0,0:0:0:0:
96,160,67646,1,0,0:0:0:0:
256,352,67979,5,0,0:0:0:0:
256,32,68313,1,0,0:0:0:0:
256,96,68479,1,0,0:0:0:0:
256,160,68646,1,0,0:0:0:0:
32,192,68979,5,0,0:0:0:0:
480,192,69313,1,0,0:0:0:0:
256,288,69646,5,0,0:0:0:0:
256,224,69813,1,0,0:0:0:0:
256,352,69979,1,0,0:0:0:0:
160,224,70146,5,0,0:0:0:0:
160,288,70313,1,0,0:0:0:0:
160,160,70646,1,0,0:0:0:0:
160,160,70979,5,0,0:0:0:0:
256,352,71146,1,0,0:0:0:0:
352,160,71313,1,0,0:0:0:0:
208,256,71646,5,0,0:0:0:0:
256,160,71979,1,0,0:0:0:0:
304,256,72313,5,0,0:0:0:0:
208,64,72479,1,0,0:0:0:0:
112,256,72646,1,0,0:0:0:0:
400,64,72813,1,0,0:0:0:0:
304,256,72979,1,0,0:0:0:0:
208,64,73313,1,0,0:0:0:0:
112,256,73646,2,0,B|171:295|160:338|160:338|185:346|185:346|186:371,2,112
256,192,74313,2,0,P|194:159|256:97,1,168
273,94,74646,2,0,P|319:153|256:192,1,168
321,350,74979,5,0,0:0:0:0:
134,289,75146,1,0,0:0:0:0:
134,93,75313,1,0,0:0:0:0:
321,32,75479,1,0,0:0:0:0:
436,191,75646,1,0,0:0:0:0:
321,350,75979,1,0,0:0:0:0:
224,160,76313,1,0,0:0:0:0:
256,192,76479,1,0,0:0:0:0:
288,160,76646,1,0,0:0:0:0:
256,32,76979,2,0,P|161:64|175:104,1,168
256,32,77313,2,0,P|351:64|337:104,1,168
297,218,77646,5,0,0:0:0:0:
223,154,77812,1,0,0:0:0:0:
276,237,77979,1,0,0:0:0:0:
248,142,78146,1,0,0:0:0:0:
248,241,78313,1,0,0:0:0:0:
276,146,78479,1,0,0:0:0:0:
223,229,78646,1,0,0:0:0:0:
297,165,78813,1,0,0:0:0:0:
208,206,78980,1,0,0:0:0:0:
305,192,79146,1,0,0:0:0:0:
208,178,79313,6,0,B|237:228|237:228|254:189|254:189|270:211,1,112
305,192,79646,5,0,0:0:0:0:
204,251,79813,1,0,0:0:0:0:
204,133,79979,1,0,0:0:0:0:
300,212,80146,1,0,0:0:0:0:
183,223,80313,1,0,0:0:0:0:
233,116,80479,1,0,0:0:0:0:
287,229,80646,1,0,0:0:0:0:
173,204,80813,2,0,B|234:115|305:164|304:162|304:162|338:100,1,224
