osu file format v14

[General]
AudioFilename: audio.mp3
AudioLeadIn: 0
PreviewTime: 84650
Countdown: 0
SampleSet: Normal
StackLeniency: 0.7
Mode: 0
LetterboxInBreaks: 0
WidescreenStoryboard: 0

[Editor]
DistanceSpacing: 1
BeatDivisor: 2
GridSize: 8
TimelineZoom: 0.8

[Metadata]
Title:Comical 3
TitleUnicode:コミカル3
Artist:Iwasaki Taku
ArtistUnicode:岩崎 琢
Creator:anneasparagus
Version:Normal
Source:Mahouka Koukou no Rettousei The Irregular at Magic High School
Tags:Mahouka Koukou no Rettousei The Irregular at Magic High School 魔法科高校の劣等生
BeatmapID:1465262
BeatmapSetID:692493

[Difficulty]
HPDrainRate:4
CircleSize:4
OverallDifficulty:4
ApproachRate:5
SliderMultiplier:1.4
SliderTickRate:2

[Events]
//Background and Video events
0,0,"mahouka bg.png",0,0
//Break Periods
//Storyboard Layer 0 (Background)
//Storyboard Layer 1 (Fail)
//Storyboard Layer 2 (Pass)
//Storyboard Layer 3 (Foreground)
//Storyboard Sound Samples

[TimingPoints]
650,500,4,1,0,100,1,0
4900,-100,4,1,0,100,0,0
8650,-100,4,1,0,100,0,0
16650,-100,4,1,0,100,0,0
32650,-100,4,1,0,100,0,0
40650,-100,4,1,0,100,0,0
44650,-100,4,1,0,100,0,0
52650,-100,4,1,0,100,0,0
68650,-100,4,1,0,100,0,0
76650,-100,4,1,0,100,0,0
84650,-100,4,1,0,100,0,0
100650,-100,4,1,0,100,0,0
116650,-100,4,1,0,100,0,0

[Colours]
Combo1 : 255,100,255
Combo2 : 100,205,255
Combo3 : 55,255,155
Combo4 : 128,128,255

[HitObjects]
256,296,4900,5,0,2:2:0:0:
256,296,5400,1,0,2:2:0:0:
144,192,5900,1,0,2:2:0:0:
144,192,6400,1,0,2:2:0:0:
256,84,6900,1,0,2:2:0:0:
256,84,7400,1,0,2:2:0:0:
368,192,7900,1,0,2:2:0:0:
368,192,8400,1,0,2:2:0:0:
332,44,8650,6,0,P|468:168|468:172,1,210,0|0,2:2|2:2,2:2:0:0:
448,276,9900,1,0,2:2:0:0:
448,276,10150,1,0,2:2:0:0:
180,340,10650,6,0,P|44:216|44:212,1,210,0|0,2:2|2:2,2:2:0:0:
64,108,11900,1,0,2:2:0:0:
64,108,12150,1,0,2:2:0:0:
332,44,12650,6,0,P|468:168|468:172,1,210,0|0,2:2|2:2,2:2:0:0:
448,276,13900,1,0,2:2:0:0:
448,276,14150,1,0,2:2:0:0:
180,340,14650,6,0,P|44:216|44:212,1,210,0|0,2:2|2:2,2:2:0:0:
64,108,15900,1,0,2:2:0:0:
64,108,16150,1,0,2:2:0:0:
124,224,16650,5,0,2:2:0:0:
204,148,17150,2,0,L|320:244,1,140,0|0,2:2|2:2,2:2:0:0:
348,272,17900,1,0,2:2:0:0:
384,308,18150,1,0,2:2:0:0:
444,216,18650,5,0,2:2:0:0:
383,157,19150,2,0,L|276:68,2,140,0|0|0,2:2|2:2|2:2,2:2:0:0:
448,208,20650,5,0,2:2:0:0:
368,284,21150,2,0,L|252:188,1,140,0|0,2:2|2:2,2:2:0:0:
224,160,21900,1,0,2:2:0:0:
188,124,22150,1,0,2:2:0:0:
64,166,22650,5,0,2:2:0:0:
124,224,23150,2,0,L|231:313,2,140,0|0|0,2:2|2:2|2:2,2:2:0:0:
124,224,24650,5,0,2:2:0:0:
204,148,25150,2,0,L|320:244,1,140,0|0,2:2|2:2,2:2:0:0:
348,272,25900,1,0,2:2:0:0:
384,308,26150,1,0,2:2:0:0:
444,216,26650,5,0,2:2:0:0:
383,157,27150,2,0,L|276:68,2,140,0|0|0,2:2|2:2|2:2,2:2:0:0:
328,336,28400,5,0,2:2:0:0:
380,264,28900,2,0,B|434:206|437:203|437:203,2,70,0|0|0,2:2|2:2|2:2,2:2:0:0:
192,264,29650,5,0,2:2:0:0:
256,192,30150,2,0,B|310:134|313:131|313:131,2,70,0|0|0,2:2|2:2|2:2,2:2:0:0:
64,192,30900,5,0,2:2:0:0:
112,120,31400,2,0,B|166:62|169:59|169:59,2,70,0|0|0,2:2|2:2|2:2,2:2:0:0:
180,192,32650,6,0,P|223:125|180:195,1,490,0|0,2:2|2:2,2:2:0:0:
311,261,34650,5,0,2:2:0:0:
236,278,34900,5,0,2:2:0:0:
176,230,35150,5,0,2:2:0:0:
176,153,35400,5,0,2:2:0:0:
236,105,35650,5,0,2:2:0:0:
311,122,35900,5,0,2:2:0:0:
344,192,36150,5,0,2:2:0:0:
280,268,36650,6,0,P|275:112|276:269,1,490,0|0,2:2|2:2,2:2:0:0:
178,186,38650,5,0,2:2:0:0:
209,249,38900,5,0,2:2:0:0:
277,264,39150,5,0,2:2:0:0:
331,221,39400,5,0,2:2:0:0:
332,151,39650,5,0,2:2:0:0:
277,107,39900,5,0,2:2:0:0:
208,122,40150,5,0,2:2:0:0:
256,192,40650,5,0,2:2:0:0:
316,157,41150,6,0,B|332:148|196:228,1,140,0|0,2:2|2:2,2:2:0:0:
256,192,42150,1,0,2:2:0:0:
196,156,42650,6,0,P|332:236|332:236,1,140,0|0,2:2|2:2,2:2:0:0:
256,192,43650,1,0,2:2:0:0:
280,268,44650,6,0,P|275:112|276:269,1,490,0|0,2:2|2:2,2:2:0:0:
336,192,46650,5,0,2:2:0:0:
306,128,46900,5,0,2:2:0:0:
238,113,47150,5,0,2:2:0:0:
183,157,47400,5,0,2:2:0:0:
183,227,47650,5,0,2:2:0:0:
238,270,47900,5,0,2:2:0:0:
306,255,48150,5,0,2:2:0:0:
306,255,48650,5,0,2:2:0:0:
238,270,48900,5,0,2:2:0:0:
183,227,49150,5,0,2:2:0:0:
183,157,49400,5,0,2:2:0:0:
238,113,49650,5,0,2:2:0:0:
306,128,49900,5,0,2:2:0:0:
336,192,50150,5,0,2:2:0:0:
184,192,50650,5,0,2:2:0:0:
256,120,50900,1,0,2:2:0:0:
328,192,51150,1,0,2:2:0:0:
256,264,51400,1,0,2:2:0:0:
256,264,51650,1,0,2:2:0:0:
124,224,52650,5,0,2:2:0:0:
204,148,53150,2,0,L|320:244,1,140,0|0,2:2|2:2,2:2:0:0:
348,272,53900,1,0,2:2:0:0:
384,308,54150,1,0,2:2:0:0:
444,216,54650,5,0,2:2:0:0:
383,157,55150,2,0,L|276:68,2,140,0|0|0,2:2|2:2|2:2,2:2:0:0:
448,208,56650,5,0,2:2:0:0:
368,284,57150,2,0,L|252:188,1,140,0|0,2:2|2:2,2:2:0:0:
224,160,57900,1,0,2:2:0:0:
188,124,58150,1,0,2:2:0:0:
64,166,58650,5,0,2:2:0:0:
124,224,59150,2,0,L|231:313,2,140,0|0|0,2:2|2:2|2:2,2:2:0:0:
168,104,60650,5,0,2:2:0:0:
168,204,61150,2,0,B|168:284|168:288|168:288,2,70,0|0|0,2:2|2:2|2:2,2:2:0:0:
338,104,61900,5,0,2:2:0:0:
338,204,62150,2,0,B|338:284|338:288|338:288,2,70,0|0|0,2:2|2:2|2:2,2:2:0:0:
280,52,62900,5,0,2:2:0:0:
338,104,63150,2,0,L|445:193,2,140,0|0|0,2:2|2:2|2:2,2:2:0:0:
168,104,64650,5,0,2:2:0:0:
168,204,65150,2,0,B|168:284|168:288|168:288,2,70,0|0|0,2:2|2:2|2:2,2:2:0:0:
338,104,65900,5,0,2:2:0:0:
338,204,66150,2,0,B|338:284|338:288|338:288,2,70,0|0|0,2:2|2:2|2:2,2:2:0:0:
232,52,66900,5,0,2:2:0:0:
174,104,67150,2,0,L|67:193,2,140,0|0|0,2:2|2:2|2:2,2:2:0:0:
332,44,68650,6,0,P|468:168|468:172,1,210,0|0,2:2|2:2,2:2:0:0:
448,276,69900,1,0,2:2:0:0:
448,276,70150,1,0,2:2:0:0:
180,340,70650,6,0,P|44:216|44:212,1,210,0|0,2:2|2:2,2:2:0:0:
64,108,71900,1,0,2:2:0:0:
64,108,72150,1,0,2:2:0:0:
280,268,72650,6,0,P|275:112|276:269,1,490,0|0,2:2|2:2,2:2:0:0:
344,197,74650,5,0,2:2:0:0:
307,264,74900,5,0,2:2:0:0:
231,277,75150,5,0,2:2:0:0:
173,225,75400,5,0,2:2:0:0:
178,148,75650,5,0,2:2:0:0:
241,104,75900,5,0,2:2:0:0:
315,126,76150,5,0,2:2:0:0:
228,40,76650,5,0,2:2:0:0:
156,84,77150,2,0,B|172:75|36:155,1,140,0|0,2:2|2:2,2:2:0:0:
288,120,78150,5,0,2:2:0:0:
204,168,78650,2,0,B|220:159|84:239,1,140,0|0,2:2|2:2,2:2:0:0:
84,316,79650,5,0,2:2:0:0:
84,316,80150,1,0,2:2:0:0:
256,192,80650,5,0,2:2:0:0:
316,157,81150,6,0,B|332:148|196:228,1,140,0|0,2:2|2:2,2:2:0:0:
256,192,82150,1,0,2:2:0:0:
196,156,82650,6,0,P|332:236|332:236,1,140,0|0,2:2|2:2,2:2:0:0:
392,240,83650,6,0,P|346:336|330:257,1,210,0|0,2:2|2:2,2:2:0:0:
255,280,84650,5,0,2:2:0:0:
186,246,84900,5,0,2:2:0:0:
169,171,85150,5,0,2:2:0:0:
218,111,85400,5,0,2:2:0:0:
295,112,85650,5,0,2:2:0:0:
342,172,85900,5,0,2:2:0:0:
324,247,86150,5,0,2:2:0:0:
238,269,86400,6,0,P|264:110|256:271,1,490,0|0,2:2|2:2,2:2:0:0:
188,340,88650,6,0,P|52:215|51:211,1,210,0|0,2:2|2:2,2:2:0:0:
88,104,89900,1,0,2:2:0:0:
88,104,90150,1,0,2:2:0:0:
332,44,90650,6,0,P|468:168|468:172,1,210,0|0,2:2|2:2,2:2:0:0:
448,276,91900,1,0,2:2:0:0:
448,276,92150,1,0,2:2:0:0:
216,184,92650,6,0,P|71:112|223:167,1,490,0|0,2:2|2:2,2:2:0:0:
292,208,94650,6,0,P|436:279|284:224,1,490,0|0,2:2|2:2,2:2:0:0:
180,340,96900,6,0,P|44:216|44:212,1,210,0|0,2:2|2:2,2:2:0:0:
64,108,98150,1,0,2:2:0:0:
64,108,98400,1,0,2:2:0:0:
184,192,98900,5,0,2:2:0:0:
256,120,99150,1,0,2:2:0:0:
328,192,99400,1,0,2:2:0:0:
256,264,99650,1,0,2:2:0:0:
256,264,99900,1,0,2:2:0:0:
124,224,100650,5,0,2:2:0:0:
204,148,101150,2,0,L|320:244,1,140,0|0,2:2|2:2,2:2:0:0:
348,272,101900,1,0,2:2:0:0:
384,308,102150,1,0,2:2:0:0:
444,216,102650,5,0,2:2:0:0:
383,157,103150,2,0,L|276:68,2,140,0|0|0,2:2|2:2|2:2,2:2:0:0:
448,208,104650,5,0,2:2:0:0:
368,284,105150,2,0,L|252:188,1,140,0|0,2:2|2:2,2:2:0:0:
224,160,105900,1,0,2:2:0:0:
188,124,106150,1,0,2:2:0:0:
56,160,106650,5,0,2:2:0:0:
116,218,107150,2,0,L|223:307,2,140,0|0|0,2:2|2:2|2:2,2:2:0:0:
124,224,108650,5,0,2:2:0:0:
204,148,109150,2,0,L|320:244,1,140,0|0,2:2|2:2,2:2:0:0:
348,272,109900,1,0,2:2:0:0:
384,308,110150,1,0,2:2:0:0:
444,216,110650,5,0,2:2:0:0:
383,157,111150,2,0,L|276:68,2,140,0|0|0,2:2|2:2|2:2,2:2:0:0:
328,336,112400,5,0,2:2:0:0:
380,264,112900,2,0,B|434:206|437:203|437:203,2,70,0|0|0,2:2|2:2|2:2,2:2:0:0:
192,264,113650,5,0,2:2:0:0:
256,192,114150,2,0,B|310:134|313:131|313:131,2,70,0|0|0,2:2|2:2|2:2,2:2:0:0:
64,192,114900,5,0,2:2:0:0:
112,120,115400,2,0,B|166:62|169:59|169:59,2,70,0|0|0,2:2|2:2|2:2,2:2:0:0:
332,44,116650,6,0,P|468:168|468:172,1,210,0|0,2:2|2:2,2:2:0:0:
448,276,117900,1,0,2:2:0:0:
448,276,118150,1,0,2:2:0:0:
180,340,118650,6,0,P|44:216|44:212,1,210,0|0,2:2|2:2,2:2:0:0:
64,108,119900,1,0,2:2:0:0:
64,108,120150,1,0,2:2:0:0:
241,216,120650,5,0,0:0:0:0:
241,167,120900,1,0,0:0:0:0:
284,192,121150,1,0,0:0:0:0:
175,191,121650,5,0,2:2:0:0:
191,144,121900,5,0,2:2:0:0:
230,115,122150,5,0,2:2:0:0:
279,115,122400,5,0,2:2:0:0:
319,144,122650,5,0,2:2:0:0:
334,191,122900,5,0,2:2:0:0:
256,192,123650,1,0,0:0:0:0:
339,125,124650,6,0,P|157:233|356:160,1,630,0|0,2:2|2:2,2:2:0:0:
228,140,125150,1,0,0:0:0:0:
256,248,126150,1,0,0:0:0:0:
256,192,127150,1,0,2:2:0:0:
256,192,128150,1,0,2:2:0:0:
356,160,128900,6,0,P|208:284|352:148,1,630,0|0,2:2|2:2,2:2:0:0:
280,232,129150,1,0,0:0:0:0:
200,176,130150,1,0,0:0:0:0:
256,128,130650,1,0,0:0:0:0:
260,196,131150,1,0,0:0:0:0:
260,196,131650,1,0,2:2:0:0:
256,192,132150,12,0,133150,2:2:0:0:
