osu file format v14

[General]
AudioFilename: audio.mp3
AudioLeadIn: 0
PreviewTime: 112673
Countdown: 0
SampleSet: Soft
StackLeniency: 0.7
Mode: 0
LetterboxInBreaks: 0
WidescreenStoryboard: 0

[Editor]
DistanceSpacing: 1.1
BeatDivisor: 4
GridSize: 8
TimelineZoom: 2.059999

[Metadata]
Title:ONE-MAN CIRCUS
TitleUnicode:ワンマン・サーカス
Artist:Iwami Takashi
ArtistUnicode:岩見陸
Creator:dkblaze
Version:Yasai's NORMAL
Source:
Tags:Yasaija 714 Yasai Captain Asuka_- Little CloudSplash16 gazimal nautzz Kowari nanahoshi kangengakudan FujuniseikouyuuP ナナホシ管弦楽団 wanman oneman sakasu sākasu Japanese rock jrock j-rock
BeatmapID:2100620
BeatmapSetID:971598

[Difficulty]
HPDrainRate:4
CircleSize:3.5
OverallDifficulty:4
ApproachRate:5
SliderMultiplier:1.1
SliderTickRate:1

[Events]
//Background and Video events
0,0,"BG.jpg",0,0
//Break Periods
2,142952,146552
//Storyboard Layer 0 (Background)
//Storyboard Layer 1 (Fail)
//Storyboard Layer 2 (Pass)
//Storyboard Layer 3 (Foreground)
//Storyboard Layer 4 (Overlay)
//Storyboard Sound Samples

[TimingPoints]
1502,312.5,4,2,10,40,1,0
2752,-100,4,2,10,40,0,0
7439,-100,4,2,10,60,0,0
7752,-100,4,2,10,75,0,0
12752,-100,4,2,10,70,0,0
42752,-100,4,2,10,80,0,1
52752,-100,4,2,10,75,0,0
62752,-100,4,2,10,70,0,0
82752,-100,4,2,10,80,0,1
92439,-100,4,2,10,80,0,0
92752,-100,4,2,10,80,0,1
92908,-100,4,2,10,50,0,1
93064,-100,4,2,10,80,0,1
93142,-100,4,2,10,50,0,1
93377,-100,4,2,10,80,0,1
93455,-100,4,2,10,50,0,1
93689,-100,4,2,10,80,0,1
93767,-100,4,2,10,50,0,1
94002,-100,4,2,10,80,0,1
94158,-100,4,2,10,50,0,1
94314,-100,4,2,10,80,0,1
94392,-100,4,2,10,50,0,1
94627,-100,4,2,10,80,0,1
94705,-100,4,2,10,50,0,1
94939,-100,4,2,10,80,0,1
95252,-100,4,2,10,80,0,1
95330,-100,4,2,10,50,0,1
95564,-100,4,2,10,80,0,1
95642,-100,4,2,10,50,0,1
95877,-100,4,2,10,80,0,1
95955,-100,4,2,10,50,0,1
96189,-100,4,2,10,80,0,1
96267,-100,4,2,10,50,0,1
96502,-100,4,2,10,80,0,1
96658,-100,4,2,10,50,0,1
96814,-100,4,2,10,80,0,1
96970,-100,4,2,10,50,0,1
97127,-100,4,2,10,80,0,1
97283,-100,4,2,10,50,0,1
97439,-100,4,2,10,80,0,1
97517,-100,4,2,10,50,0,1
97752,-100,4,2,10,80,0,1
97908,-100,4,2,10,50,0,1
98064,-100,4,2,10,80,0,1
98142,-100,4,2,10,50,0,1
98377,-100,4,2,10,80,0,1
98455,-100,4,2,10,50,0,1
98689,-100,4,2,10,80,0,1
98767,-100,4,2,10,50,0,1
99002,-100,4,2,10,80,0,1
99158,-100,4,2,10,50,0,1
99314,-100,4,2,10,80,0,1
99392,-100,4,2,10,50,0,1
99627,-100,4,2,10,80,0,1
99705,-100,4,2,10,50,0,1
99939,-100,4,2,10,80,0,1
100252,-100,4,2,10,80,0,1
100330,-100,4,2,10,50,0,1
100564,-100,4,2,10,80,0,1
100642,-100,4,2,10,50,0,1
100877,-100,4,2,10,80,0,1
100955,-100,4,2,10,50,0,1
101189,-100,4,2,10,80,0,1
101267,-100,4,2,10,50,0,1
101502,-100,4,2,10,80,0,1
101580,-100,4,2,10,60,0,1
101814,-100,4,2,10,80,0,1
101892,-100,4,2,10,60,0,1
102439,-100,4,2,10,80,0,1
102752,-100,4,2,10,80,0,0
112283,-100,4,2,10,90,0,0
112752,-100,4,2,10,30,0,0
113533,-100,4,2,10,70,0,0
113845,-100,4,2,10,80,0,0
115252,-100,4,2,10,80,0,1
132439,-100,4,2,10,80,0,0
132752,-100,4,2,10,80,0,0
132908,-100,4,2,10,50,0,0
133064,-100,4,2,10,80,0,0
133142,-100,4,2,10,50,0,0
133377,-100,4,2,10,80,0,0
133455,-100,4,2,10,50,0,0
133689,-100,4,2,10,80,0,0
133767,-100,4,2,10,50,0,0
134002,-100,4,2,10,80,0,0
134158,-100,4,2,10,50,0,0
134314,-100,4,2,10,80,0,0
134392,-100,4,2,10,50,0,0
134627,-100,4,2,10,80,0,0
134705,-100,4,2,10,50,0,0
134939,-100,4,2,10,80,0,0
135252,-100,4,2,10,80,0,0
135330,-100,4,2,10,50,0,0
135564,-100,4,2,10,80,0,0
135642,-100,4,2,10,50,0,0
135877,-100,4,2,10,80,0,0
135955,-100,4,2,10,50,0,0
136189,-100,4,2,10,80,0,0
136267,-100,4,2,10,50,0,0
136502,-100,4,2,10,80,0,0
136658,-100,4,2,10,50,0,0
136814,-100,4,2,10,80,0,0
136970,-100,4,2,10,50,0,0
137127,-100,4,2,10,80,0,0
137283,-100,4,2,10,50,0,0
137439,-100,4,2,10,80,0,0
137517,-100,4,2,10,50,0,0
137752,-100,4,2,10,80,0,0
137908,-100,4,2,10,50,0,0
138064,-100,4,2,10,80,0,0
138142,-100,4,2,10,50,0,0
138377,-100,4,2,10,80,0,0
138455,-100,4,2,10,50,0,0
138689,-100,4,2,10,80,0,0
138767,-100,4,2,10,50,0,0
139002,-100,4,2,10,80,0,0
139158,-100,4,2,10,50,0,0
139314,-100,4,2,10,80,0,0
139392,-100,4,2,10,50,0,0
139627,-100,4,2,10,80,0,0
139705,-100,4,2,10,50,0,0
139939,-100,4,2,10,80,0,0
140252,-100,4,2,10,80,0,0
140330,-100,4,2,10,50,0,0
140564,-100,4,2,10,80,0,0
140642,-100,4,2,10,50,0,0
140877,-100,4,2,10,80,0,0
140955,-100,4,2,10,50,0,0
141189,-100,4,2,10,80,0,0
141267,-100,4,2,10,50,0,0
141502,-100,4,2,10,80,0,0
142752,-100,4,2,10,70,0,0
147752,-100,4,2,10,80,0,0

[Colours]
Combo1 : 28,200,166
Combo2 : 225,182,22
Combo3 : 37,180,108

[HitObjects]
48,85,7752,6,0,P|85:124|147:138,1,110,6|10,3:2|0:0,0:0:0:0:
190,108,8220,1,10,0:0:0:0:
190,108,8377,2,0,B|220:150|220:150|198:266,1,165,2|2,3:2|3:2,0:0:0:0:
120,350,9158,1,2,3:2:0:0:
233,382,9470,2,0,P|313:358|397:360,1,165,10|8,0:0|0:0,0:0:0:0:
491,286,10252,6,0,L|467:169,1,110,2|10,3:2|0:0,0:0:0:0:
442,123,10720,1,10,0:0:0:0:
442,123,10877,2,0,P|370:167|270:141,1,165,2|2,3:2|3:2,0:0:0:0:
216,62,11658,1,2,3:2:0:0:
126,143,11970,2,0,B|161:218|91:218|140:324,1,165,10|8,0:0|0:0,0:0:0:0:
237,362,12752,6,0,P|305:327|353:322,1,110,6|10,3:2|0:0,0:0:0:0:
397,323,13220,1,10,0:0:0:0:
397,323,13377,2,0,L|384:244,2,55,2|0|10,3:2|3:0|0:0,0:0:0:0:
497,255,14002,1,2,0:0:0:0:
497,255,14158,2,0,P|510:186|493:133,1,110,2|10,3:2|0:0,0:0:0:0:
458,104,14627,1,8,3:2:0:0:
458,104,14783,2,0,L|465:38,2,55,10|10|10,0:0|3:2|3:2,0:0:0:0:
413,144,15252,5,6,3:2:0:0:
345,43,15564,2,0,P|323:39|282:30,1,55,10|2,0:0|3:2,0:0:0:0:
232,16,15877,2,0,B|204:65|204:65|239:124,1,110,10|10,0:0|0:0,0:0:0:0:
270,157,16345,1,2,3:2:0:0:
344,252,16658,1,2,3:2:0:0:
259,338,16970,2,0,P|239:329|183:315,1,55,2|8,3:2|0:0,0:0:0:0:
165,275,17283,2,0,P|124:284|38:298,1,110,2|0,3:2|3:0,0:0:0:0:
11,254,17752,6,0,P|1:167|10:121,1,110,4|10,3:2|0:0,0:0:0:0:
103,73,18377,2,0,L|88:9,2,55,2|2|8,3:2|3:2|0:0,0:0:0:0:
200,144,19002,2,0,P|238:135|282:140,1,55,2|2,0:0|3:2,0:0:0:0:
296,92,19314,2,0,P|323:93|349:101,1,55,10|10,0:0|0:0,0:0:0:0:
396,139,19627,2,0,L|388:210,2,55,2|2|10,3:2|3:2|0:0,0:0:0:0:
498,74,20252,5,14,0:0:0:0:
509,194,20564,2,0,P|500:221|480:240,1,55,10|2,0:0|3:2,0:0:0:0:
427,267,20877,2,0,P|361:252|300:236,1,110,10|10,0:0|0:0,0:0:0:0:
272,203,21345,1,2,3:2:0:0:
160,250,21658,1,2,3:2:0:0:
125,134,21970,2,0,P|131:106|145:70,1,55,2|8,3:2|0:0,0:0:0:0:
198,62,22283,2,0,P|256:63|300:108,1,110,2|0,3:2|3:0,0:0:0:0:
329,152,22752,6,0,L|326:277,1,110,4|10,3:2|0:0,0:0:0:0:
293,312,23220,1,8,0:0:0:0:
293,312,23377,1,2,3:2:0:0:
179,353,23689,2,0,P|140:361|92:351,1,55,10|2,0:0|3:2,0:0:0:0:
83,317,24002,2,0,L|16:337,2,55,0|2|8,0:0|3:2|0:0,0:0:0:0:
147,214,24627,2,0,L|214:234,2,55,2|2|10,3:2|3:2|0:0,0:0:0:0:
32,173,25252,5,6,3:2:0:0:
55,54,25564,2,0,P|82:45|115:36,1,55,10|2,0:0|3:2,0:0:0:0:
158,4,25877,2,0,P|214:17|271:33,1,110,10|10,0:0|0:0,0:0:0:0:
323,43,26345,1,2,3:2:0:0:
410,127,26658,1,2,3:2:0:0:
383,244,26970,2,0,P|343:248|321:256,1,55,2|8,3:2|0:0,0:0:0:0:
279,287,27283,2,0,P|239:278|154:260,1,110,2|0,3:2|3:0,0:0:0:0:
143,211,27752,6,0,P|127:147|137:95,1,110,4|10,3:2|0:0,0:0:0:0:
175,60,28220,1,8,0:0:0:0:
175,60,28377,2,0,L|241:62,2,55,2|0|10,3:2|3:0|0:0,0:0:0:0:
64,11,29002,2,0,P|38:36|12:78,1,55,2|0,0:0|3:0,0:0:0:0:
45,108,29314,2,0,P|34:142|33:192,1,55,10|10,0:0|0:0,0:0:0:0:
77,201,29627,2,0,P|85:236|109:279,2,55,2|2|10,3:2|3:2|0:0,0:0:0:0:
163,115,30252,5,14,0:0:0:0:
276,156,30564,2,0,P|302:135|305:93,1,55,10|2,0:0|3:2,0:0:0:0:
292,56,30877,2,0,P|241:39|174:20,1,110,10|10,0:0|0:0,0:0:0:0:
128,9,31345,1,2,3:2:0:0:
58,108,31658,1,2,3:2:0:0:
123,209,31970,2,0,P|133:248|136:273,1,55,2|8,3:2|0:0,0:0:0:0:
181,301,32283,2,0,P|235:287|298:272,1,110,2|0,3:2|3:0,0:0:0:0:
327,303,32752,6,0,P|426:310|478:239,2,165,6|10|10,3:2|0:0|0:0,0:0:0:0:
271,195,34002,2,0,P|249:109|222:58,1,110,2|8,0:0|0:0,0:0:0:0:
193,51,34470,2,0,B|141:69|141:69|81:56,1,110,10|2,0:0|3:2,0:0:0:0:
28,40,34939,1,8,0:0:0:0:
0,158,35252,6,0,B|26:276|26:276|6:324,2,165,2|10|10,3:2|0:0|0:0,0:0:0:0:
111,204,36502,2,0,P|175:184|234:188,1,110,2|10,0:0|0:0,0:0:0:0:
267,217,36970,2,0,P|331:237|390:233,1,110,10|0,0:0|3:0,0:0:0:0:
426,205,37439,1,8,0:0:0:0:
458,88,37752,6,0,B|389:74|341:120|341:120|341:72,2,165,2|10|10,3:2|0:0|0:0,0:0:0:0:
426,205,39002,2,0,P|417:282|394:338,1,110,2|8,0:0|0:0,0:0:0:0:
348,330,39470,2,0,P|312:327|245:334,1,55,10|0,0:0|3:0,0:0:0:0:
236,350,39783,2,0,P|200:353|133:346,1,55,2|8,3:2|0:0,0:0:0:0:
62,377,40252,6,0,L|72:316,1,55,6|0,3:2|0:0,0:0:0:0:
123,293,40564,2,0,L|117:232,1,55,10|2,0:0|3:2,0:0:0:0:
80,190,40877,2,0,L|19:164,2,55,10|2|10,0:0|3:2|0:0,0:0:0:0:
128,153,41345,1,6,3:2:0:0:
241,196,41658,1,0,3:0:0:0:
241,196,41814,2,0,L|368:152,2,110,8|10|12,0:0|0:3|0:0,0:0:0:0:
206,291,42752,6,0,P|178:281|136:285,2,55,6|2|10,3:2|3:2|0:0,0:0:0:0:
258,320,43220,1,2,3:2:0:0:
258,320,43377,2,0,P|285:310|328:314,1,55,2|2,0:0|3:2,0:0:0:0:
425,351,43845,2,0,B|409:296|409:296|420:244,1,110,6|2,3:2|3:2,0:0:0:0:
453,193,44314,1,10,0:0:0:0:
453,193,44470,2,0,B|464:141|464:141|448:86,1,110,2|2,0:0|3:2,0:0:0:0:
404,43,44939,1,8,0:0:0:0:
328,129,45252,5,6,3:2:0:0:
229,77,45564,2,0,P|194:87|144:132,1,55,10|2,0:0|3:2,0:0:0:0:
120,75,45877,2,0,P|95:101|74:165,1,55,2|2,0:0|3:2,0:0:0:0:
42,159,46189,1,8,0:0:0:0:
42,159,46345,2,0,P|60:226|64:280,1,110,6|0,3:2|3:0,0:0:0:0:
48,325,46814,1,8,0:0:0:0:
160,280,47127,1,4,3:3:0:0:
271,325,47439,1,2,3:2:0:0:
271,325,47595,6,0,P|360:342|385:335,1,110,10|2,0:0|3:2,0:0:0:0:
419,294,48064,1,10,0:0:0:0:
419,294,48220,2,0,L|404:173,1,110,6|2,3:2|3:2,0:0:0:0:
308,111,48845,2,0,B|273:103|273:103|241:115|241:115|194:108,2,110,6|2|2,3:2|3:2|0:0,0:0:0:0:
367,98,49627,2,0,L|427:84,2,55,0|0|8,3:0|3:0|0:0,0:0:0:0:
309,204,50252,6,0,P|247:256|197:261,1,110,4|10,3:2|0:0,0:0:0:0:
164,239,50720,1,2,3:2:0:0:
164,239,50877,2,0,L|149:151,2,55,10|2|10,0:0|3:2|0:0,0:0:0:0:
116,276,51345,2,0,L|136:384,2,110,6|8|8,3:2|0:0|3:2,0:0:0:0:
57,260,52127,1,8,3:2:0:0:
159,40,52752,6,0,P|234:70|273:58,1,110,6|10,3:2|0:0,0:0:0:0:
313,36,53220,1,10,0:0:0:0:
313,36,53377,2,0,B|341:85|341:85|322:232,1,165,2|2,3:2|3:2,0:0:0:0:
249,285,54158,1,2,3:2:0:0:
168,195,54470,2,0,B|123:225|123:225|0:208,1,165,10|8,0:0|0:0,0:0:0:0:
73,104,55252,6,0,P|122:68|201:72,1,110,2|10,3:2|0:0,0:0:0:0:
224,87,55720,1,10,0:0:0:0:
224,87,55877,2,0,P|312:101|398:82,1,165,2|2,3:2|3:2,0:0:0:0:
493,32,56658,1,2,3:2:0:0:
507,151,56970,2,0,B|506:269|506:269|460:220,1,165,10|0,0:0|3:0,0:0:0:0:
367,175,57752,6,0,P|352:248|373:300,1,110,6|10,3:2|0:0,0:0:0:0:
380,337,58220,1,10,0:0:0:0:
380,337,58377,2,0,B|328:322|328:322|197:347,1,165,2|2,3:2|3:2,0:0:0:0:
109,290,59158,1,2,3:2:0:0:
194,204,59470,2,0,P|200:128|161:39,1,165,10|8,0:0|0:0,0:0:0:0:
48,21,60252,6,0,L|60:133,1,110,2|10,3:2|0:0,0:0:0:0:
94,177,60720,1,10,0:0:0:0:
94,177,60877,2,0,B|80:287|80:287|132:256,1,165,2|2,3:2|3:2,0:0:0:0:
238,213,61658,1,2,3:2:0:0:
332,288,61970,2,0,P|410:301|457:287,1,110,10|0,0:0|3:0,0:0:0:0:
487,257,62439,1,8,0:0:0:0:
452,140,62752,5,6,3:2:0:0:
452,140,62908,2,0,L|385:124,1,55,2|8,0:0|0:0,0:0:0:0:
350,160,63220,2,0,B|299:175|299:175|244:160,1,110,10|0,0:0|3:0,0:0:0:0:
186,142,63689,1,10,0:0:0:0:
67,118,64002,2,0,P|53:157|45:197,1,55,2|0,0:0|3:0,0:0:0:0:
67,219,64314,2,0,P|74:259|87:298,1,55,10|10,0:0|0:0,0:0:0:0:
122,304,64627,2,0,P|148:335|179:362,2,55,2|2|10,3:2|3:2|0:0,0:0:0:0:
196,184,65252,6,0,P|269:167|318:177,1,110,6|10,3:2|0:0,0:0:0:0:
361,184,65720,1,2,3:2:0:0:
361,184,65877,2,0,L|350:302,1,110,10|10,0:0|0:0,0:0:0:0:
471,281,66502,2,0,L|481:171,1,110,8|8,0:0|0:0,0:0:0:0:
464,113,66970,1,2,3:2:0:0:
464,113,67127,2,0,L|389:117,1,55,8|2,0:0|3:2,0:0:0:0:
348,120,67439,1,8,0:0:0:0:
237,86,67752,5,4,3:2:0:0:
237,86,67908,2,0,P|219:124|220:147,1,55,2|8,0:0|0:0,0:0:0:0:
171,174,68220,2,0,P|203:217|252:241,1,110,10|2,0:0|3:2,0:0:0:0:
313,240,68689,1,10,0:0:0:0:
284,357,69002,2,0,L|217:355,1,55,0|2,0:0|3:2,0:0:0:0:
175,328,69314,2,0,P|152:317|125:293,1,55,8|10,0:0|0:0,0:0:0:0:
90,251,69627,2,0,P|75:229|64:195,2,55,2|2|10,3:2|3:2|0:0,0:0:0:0:
181,171,70252,6,0,P|252:140|308:141,1,110,14|10,0:0|0:0,0:0:0:0:
336,108,70720,1,2,3:2:0:0:
336,108,70877,2,0,P|265:77|209:78,1,110,10|10,0:0|0:0,0:0:0:0:
124,21,71502,2,0,L|108:133,1,110,8|8,0:0|0:0,0:0:0:0:
63,169,71970,1,8,0:0:0:0:
63,169,72127,2,0,L|-8:164,2,55,8|8|4,0:0|0:3|0:3,0:0:0:0:
123,273,72752,6,0,P|236:245|293:251,2,165,2|2|2,3:2|0:0|3:2,0:0:0:0:
23,342,74002,2,0,P|2:277|15:217,1,110,2|2,3:2|3:2,0:0:0:0:
119,190,74627,2,0,P|140:125|127:65,1,110,2|2,3:2|3:2,0:0:0:0:
235,17,75252,6,0,B|354:8|354:8|316:67,2,165,2|2|2,3:2|0:0|3:2,0:0:0:0:
263,134,76502,2,0,P|325:161|384:136,1,110,2|2,3:2|3:2,0:0:0:0:
473,99,77127,2,0,L|456:228,1,110,0|0,3:0|3:0,0:0:0:0:
398,313,77752,6,0,B|316:342|316:271|196:330,2,165,2|2|2,3:2|0:0|3:2,0:0:0:0:
362,197,79002,2,0,P|304:180|238:189,1,110,2|0,3:2|3:0,0:0:0:0:
150,245,79627,1,0,3:0:0:0:
112,130,79939,1,0,3:0:0:0:
187,35,80252,6,0,L|310:45,1,110,6|10,3:2|0:0,0:0:0:0:
352,68,80720,1,2,3:2:0:0:
352,68,80877,2,0,L|364:127,1,55,10|2,0:0|3:2,0:0:0:0:
412,156,81189,1,10,0:0:0:0:
412,156,81345,2,0,L|393:272,1,110,2|12,3:2|0:0,0:0:0:0:
360,315,81814,1,0,3:0:0:0:
242,346,82127,2,0,L|167:333,2,55,6|8|0,3:3|0:0|3:0,0:0:0:0:
278,230,82752,6,0,P|309:218|353:217,2,55,6|2|10,3:2|3:2|0:0,0:0:0:0:
219,215,83220,1,2,3:2:0:0:
219,215,83377,2,0,P|187:203|144:202,1,55,2|2,0:0|3:2,0:0:0:0:
52,159,83845,2,0,P|17:100|40:35,1,110,6|2,3:2|3:2,0:0:0:0:
72,27,84314,1,10,0:0:0:0:
72,27,84470,2,0,P|146:44|198:41,1,110,2|2,0:0|3:2,0:0:0:0:
234,17,84939,1,8,0:0:0:0:
340,74,85252,6,0,L|332:137,2,55,6|2|10,3:2|3:2|0:0,0:0:0:0:
460,57,85877,2,0,L|453:2,2,55,2|2|10,0:0|3:2|0:0,0:0:0:0:
488,110,86345,2,0,P|500:175|464:247,1,110,6|0,3:2|3:0,0:0:0:0:
437,250,86814,1,8,0:0:0:0:
316,266,87127,2,0,P|284:256|215:254,1,55,8|10,3:3|0:0,0:0:0:0:
204,269,87439,1,2,3:2:0:0:
204,269,87595,6,0,P|209:194|201:143,1,110,10|2,0:0|3:2,0:0:0:0:
153,126,88064,1,10,0:0:0:0:
153,126,88220,2,0,P|148:51|156:0,1,110,6|2,3:2|3:2,0:0:0:0:
269,45,88845,2,0,P|361:61|386:54,1,110,6|2,3:2|3:2,0:0:0:0:
422,19,89314,1,8,0:0:0:0:
422,19,89470,2,0,L|407:137,1,110,2|0,0:0|3:0,0:0:0:0:
397,188,89939,1,8,0:0:0:0:
307,269,90252,6,0,P|222:277|164:261,1,110,4|10,3:2|0:0,0:0:0:0:
94,209,90877,2,0,L|88:150,2,55,10|2|10,0:0|3:2|0:0,0:0:0:0:
90,269,91345,1,6,3:2:0:0:
194,330,91658,2,0,L|188:384,2,55,8|8|8,0:0|3:2|3:2,0:0:0:0:
198,272,92127,1,8,3:2:0:0:
318,272,92439,1,4,3:3:0:0:
439,275,92752,6,0,P|418:180|423:100,1,165,14|8,3:2|0:0,0:0:0:0:
439,55,93377,2,0,B|374:32|374:32|238:74,1,165,10|10,3:2|0:0,0:0:0:0:
235,99,94002,1,6,3:2:0:0:
114,100,94314,1,10,3:2:0:0:
94,219,94627,2,0,B|96:272|96:272|128:318,1,110,10|10,3:2|0:0,0:0:0:0:
238,381,95252,6,0,B|301:364|301:364|407:384,2,165,14|10|10,0:0|0:0|3:2,0:0:0:0:
116,379,96502,1,14,0:0:0:0:
27,296,96814,1,10,3:2:0:0:
46,176,97127,2,0,P|52:129|61:56,1,110,10|8,0:0|0:0,0:0:0:0:
180,43,97752,6,0,P|282:73|349:44,2,165,14|10|10,3:2|0:0|3:2,0:0:0:0:
65,3,99002,1,6,3:2:0:0:
87,121,99314,1,10,3:2:0:0:
17,220,99627,2,0,P|98:226|133:237,1,110,10|8,3:2|0:3,0:0:0:0:
234,286,100252,6,0,L|225:352,2,55,14|8|8,0:0|0:0|3:2,0:0:0:0:
332,215,100877,2,0,L|323:149,2,55,10|8|8,3:2|0:0|3:2,0:0:0:0:
417,301,101502,2,0,P|470:223|462:132,1,165,14|8,0:0|0:0,0:0:0:0:
454,96,102127,2,0,B|379:122|377:62|275:96,1,165,10|0,0:3|0:0,0:0:0:0:
263,144,102752,6,0,P|244:243|240:267,1,110,6|10,3:2|0:0,0:0:0:0:
201,296,103220,1,2,3:2:0:0:
84,261,103533,1,2,3:2:0:0:
84,261,103689,1,10,0:0:0:0:
26,154,104002,1,10,0:0:0:0:
71,42,104314,1,10,0:0:0:0:
186,15,104627,2,0,P|212:19|242:27,1,55,10|0,0:0|3:0,0:0:0:0:
284,66,104939,2,0,P|302:61|339:53,1,55,10|0,0:0|3:0,0:0:0:0:
389,22,105252,6,0,P|434:66|428:126,1,110,6|10,3:2|0:0,0:0:0:0:
402,160,105720,1,2,3:2:0:0:
420,274,106033,1,2,3:2:0:0:
420,274,106189,1,10,0:0:0:0:
341,366,106502,1,10,0:0:0:0:
225,330,106814,1,10,0:0:0:0:
189,214,107127,2,0,P|195:185|201:157,1,55,10|2,0:0|3:2,0:0:0:0:
257,140,107439,2,0,P|253:112|251:81,1,55,10|0,0:0|3:0,0:0:0:0:
293,41,107752,6,0,P|262:12|197:1,1,110,6|10,3:2|0:0,0:0:0:0:
143,27,108220,1,2,3:2:0:0:
48,103,108533,1,2,3:2:0:0:
48,103,108689,1,10,0:0:0:0:
78,218,109002,2,0,P|73:253|69:290,2,55,10|2|10,0:0|3:2|0:0,0:0:0:0:
169,166,109627,2,0,P|200:159|231:155,1,55,10|0,0:0|3:0,0:0:0:0:
264,199,109939,2,0,P|299:210|328:215,1,55,10|2,0:0|3:2,0:0:0:0:
362,172,110252,6,0,P|364:145|371:110,2,55,0|2|12,3:0|0:0|0:0,0:0:0:0:
383,291,110877,2,0,P|394:334|400:360,2,55,0|2|12,3:0|0:0|0:0,0:0:0:0:
269,258,111502,2,0,P|201:240|146:238,1,110,2|10,3:2|0:0,0:0:0:0:
114,275,111970,1,6,3:2:0:0:
13,206,112283,2,0,L|7:133,2,55,10|8|0,3:3|3:3|3:0,0:0:0:0:
476,345,113845,6,0,P|490:265|462:202,1,110,6|2,3:2|3:2,0:0:0:0:
448,188,114314,1,10,0:0:0:0:
448,188,114470,2,0,B|397:207|397:207|328:194,1,110,2|8,0:0|0:0,0:0:0:0:
285,175,114939,1,8,3:2:0:0:
171,218,115252,2,0,L|158:288,2,55,6|2|10,3:2|3:2|0:0,0:0:0:0:
69,151,115877,2,0,L|58:96,2,55,2|2|10,0:0|3:2|0:0,0:0:0:0:
43,205,116345,6,0,P|8:263|28:364,1,165,6|8,3:2|0:0,0:0:0:0:
140,382,117127,1,0,3:0:0:0:
243,320,117439,1,8,0:0:0:0:
358,358,117752,2,0,P|433:368|477:358,1,110,4|10,3:2|0:0,0:0:0:0:
499,311,118220,2,0,L|482:191,1,110,6|2,3:2|3:2,0:0:0:0:
498,143,118689,1,10,0:0:0:0:
498,143,118845,6,0,B|430:154|430:154|378:141,1,110,6|2,3:2|3:2,0:0:0:0:
289,76,119470,1,2,0:0:0:0:
289,76,119627,2,0,L|286:9,2,55,0|0|8,3:0|3:0|0:0,0:0:0:0:
180,130,120252,2,0,P|168:184|170:251,1,110,4|10,3:2|0:0,0:0:0:0:
198,290,120720,1,2,3:2:0:0:
198,290,120877,2,0,L|260:280,2,55,2|2|10,0:0|3:2|0:0,0:0:0:0:
159,336,121345,5,6,3:2:0:0:
50,282,121658,1,2,3:2:0:0:
86,166,121970,1,6,3:3:0:0:
86,166,122127,2,0,L|77:96,2,55,8|4|12,0:3|0:3|0:0,0:0:0:0:
204,193,122752,6,0,P|188:238|188:272,2,55,6|2|10,3:2|3:2|0:0,0:0:0:0:
243,147,123220,1,2,3:2:0:0:
243,147,123377,2,0,P|227:102|227:68,1,55,2|2,0:0|3:2,0:0:0:0:
325,26,123845,2,0,P|390:57|442:65,1,110,6|2,3:2|3:2,0:0:0:0:
487,60,124314,1,10,0:0:0:0:
487,60,124470,2,0,L|473:187,1,110,2|2,0:0|3:2,0:0:0:0:
492,227,124939,1,8,0:0:0:0:
374,258,125252,6,0,P|388:288|394:325,2,55,6|2|10,3:2|3:2|0:0,0:0:0:0:
264,205,125877,2,0,P|270:178|282:153,2,55,2|2|10,0:0|3:2|0:0,0:0:0:0:
237,259,126345,2,0,P|163:284|108:270,1,110,6|8,3:2|0:0,0:0:0:0:
77,253,126814,2,0,L|70:190,1,55,0|8,3:0|0:0,0:0:0:0:
33,150,127127,2,0,L|40:87,1,55,8|6,0:0|3:2,0:0:0:0:
153,57,127595,6,0,B|206:45|206:45|264:66,1,110,10|2,0:0|3:2,0:0:0:0:
310,95,128064,1,10,0:0:0:0:
310,95,128220,2,0,P|298:157|321:232,1,110,6|2,3:2|3:2,0:0:0:0:
326,259,128689,1,10,0:0:0:0:
326,259,128845,2,0,L|441:253,2,110,6|2|2,3:2|3:2|0:0,0:0:0:0:
273,289,129627,2,0,L|276:353,2,55,2|0|8,3:2|3:0|0:0,0:0:0:0:
218,181,130252,6,0,P|186:194|121:197,2,55,4|2|10,3:2|3:2|0:0,0:0:0:0:
307,98,130877,2,0,P|333:104|358:115,2,55,10|2|10,0:0|3:2|0:0,0:0:0:0:
250,77,131345,1,6,3:2:0:0:
140,24,131658,2,0,P|53:32|17:56,1,110,8|8,0:0|3:2,0:0:0:0:
4,95,132127,1,8,3:2:0:0:
75,192,132439,1,0,3:0:0:0:
28,304,132752,6,0,P|138:284|205:296,1,165,14|8,3:2|0:0,0:0:0:0:
249,304,133377,2,0,P|330:311|410:291,1,165,10|10,3:2|0:0,0:0:0:0:
448,244,134002,1,6,3:2:0:0:
504,137,134314,1,10,3:2:0:0:
417,52,134627,2,0,B|382:53|360:44|360:44|345:65|303:70,1,110,10|10,3:2|0:0,0:0:0:0:
207,11,135252,6,0,B|98:14|98:14|41:54,2,165,12|10|10,0:0|0:0|3:2,0:0:0:0:
152,119,136502,2,0,P|141:179|167:234,1,110,14|10,0:0|3:2,0:0:0:0:
248,304,137127,2,0,L|366:287,1,110,10|8,0:0|0:0,0:0:0:0:
451,212,137752,6,0,B|480:129|416:128|451:39,2,165,14|10|10,3:2|0:0|3:2,0:0:0:0:
335,174,139002,2,0,P|252:149|199:153,1,110,6|10,3:2|3:2,0:0:0:0:
120,201,139627,1,10,3:2:0:0:
19,133,139939,1,8,0:3:0:0:
129,84,140252,6,0,L|134:28,2,55,14|8|8,0:0|0:0|3:2,0:0:0:0:
120,201,140877,2,0,L|115:257,2,55,10|8|8,3:2|0:0|3:2,0:0:0:0:
229,148,141502,2,0,P|293:87|373:79,1,165,6|8,3:2|0:0,0:0:0:0:
417,110,142127,2,0,L|412:181,2,55,10|8|0,0:0|0:0|3:0,0:0:0:0:
495,17,142752,1,6,3:2:0:0:
489,100,147752,6,0,P|432:104|356:146,1,110,6|10,3:2|0:0,0:0:0:0:
338,164,148220,1,10,0:0:0:0:
338,164,148377,2,0,B|303:204|303:204|149:190,1,165,2|2,3:2|3:2,0:0:0:0:
93,123,149158,1,2,3:2:0:0:
12,213,149470,2,0,B|5:330|5:330|57:369,1,165,10|8,0:0|0:0,0:0:0:0:
164,368,150252,6,0,L|280:348,1,110,2|10,3:2|0:0,0:0:0:0:
319,312,150720,1,10,0:0:0:0:
319,312,150877,2,0,B|350:237|288:235|320:134,1,165,2|2,3:2|3:2,0:0:0:0:
380,48,151658,1,2,3:2:0:0:
485,107,151970,1,10,0:0:0:0:
467,226,152283,2,0,L|399:219,2,55,10|10|10,0:0|3:2|3:2,0:0:0:0:
