osu file format v14

[General]
AudioFilename: audio.mp3
AudioLeadIn: 0
PreviewTime: 112673
Countdown: 0
SampleSet: Soft
StackLeniency: 0.7
Mode: 0
LetterboxInBreaks: 0
WidescreenStoryboard: 1

[Editor]
DistanceSpacing: 1.5
BeatDivisor: 4
GridSize: 8
TimelineZoom: 2.559999

[Metadata]
Title:ONE-MAN CIRCUS
TitleUnicode:ワンマン・サーカス
Artist:Iwami Takashi
ArtistUnicode:岩見陸
Creator:dkblaze
Version:Asuka_-'s HARD
Source:
Tags:Yasaija 714 Yasai Captain Asuka_- Little CloudSplash16 gazimal nautzz Kowari nanahoshi kangengakudan FujuniseikouyuuP ナナホシ管弦楽団 wanman oneman sakasu sākasu Japanese rock jrock j-rock
BeatmapID:2142710
BeatmapSetID:971598

[Difficulty]
HPDrainRate:5
CircleSize:3.8
OverallDifficulty:6
ApproachRate:7.4
SliderMultiplier:1.3
SliderTickRate:1

[Events]
//Background and Video events
0,0,"BG.jpg",0,0
//Break Periods
2,105452,109413
2,142952,146444
//Storyboard Layer 0 (Background)
//Storyboard Layer 1 (Fail)
//Storyboard Layer 2 (Pass)
//Storyboard Layer 3 (Foreground)
//Storyboard Layer 4 (Overlay)
//Storyboard Sound Samples

[TimingPoints]
1502,312.5,4,2,10,40,1,0
2752,-125,4,2,10,40,0,0
7439,-125,4,2,10,60,0,0
7752,-111.111111111111,4,2,10,75,0,0
12752,-125,4,2,10,70,0,0
42752,-100,4,2,10,80,0,1
52752,-105.263157894737,4,2,10,75,0,0
62752,-125,4,2,10,70,0,0
82752,-100,4,2,10,80,0,1
92439,-111.111111111111,4,2,10,80,0,0
92752,-100,4,2,10,80,0,1
92908,-100,4,2,10,50,0,1
93064,-100,4,2,10,80,0,1
93142,-100,4,2,10,50,0,1
93377,-100,4,2,10,80,0,1
93455,-100,4,2,10,50,0,1
93689,-100,4,2,10,80,0,1
93767,-100,4,2,10,50,0,1
94002,-100,4,2,10,80,0,1
94158,-100,4,2,10,50,0,1
94314,-100,4,2,10,80,0,1
94392,-100,4,2,10,50,0,1
94627,-100,4,2,10,80,0,1
94705,-100,4,2,10,50,0,1
94939,-100,4,2,10,80,0,1
95252,-100,4,2,10,80,0,1
95330,-100,4,2,10,50,0,1
95564,-100,4,2,10,80,0,1
95642,-100,4,2,10,50,0,1
95877,-100,4,2,10,80,0,1
95955,-100,4,2,10,50,0,1
96189,-100,4,2,10,80,0,1
96267,-100,4,2,10,50,0,1
96502,-100,4,2,10,80,0,1
96658,-100,4,2,10,50,0,1
96814,-100,4,2,10,80,0,1
96970,-100,4,2,10,50,0,1
97127,-100,4,2,10,80,0,1
97283,-100,4,2,10,50,0,1
97439,-100,4,2,10,80,0,1
97517,-100,4,2,10,50,0,1
97752,-100,4,2,10,80,0,1
97908,-100,4,2,10,50,0,1
98064,-100,4,2,10,80,0,1
98142,-100,4,2,10,50,0,1
98377,-100,4,2,10,80,0,1
98455,-100,4,2,10,50,0,1
98689,-100,4,2,10,80,0,1
98767,-100,4,2,10,50,0,1
99002,-100,4,2,10,80,0,1
99158,-100,4,2,10,50,0,1
99314,-100,4,2,10,80,0,1
99392,-100,4,2,10,50,0,1
99627,-100,4,2,10,80,0,1
99705,-100,4,2,10,50,0,1
99939,-100,4,2,10,80,0,1
100252,-100,4,2,10,80,0,1
100330,-100,4,2,10,50,0,1
100564,-100,4,2,10,80,0,1
100642,-100,4,2,10,50,0,1
100877,-100,4,2,10,80,0,1
100955,-100,4,2,10,50,0,1
101189,-100,4,2,10,80,0,1
101267,-100,4,2,10,50,0,1
101502,-100,4,2,10,80,0,1
101580,-100,4,2,10,60,0,1
101814,-100,4,2,10,80,0,1
101892,-100,4,2,10,60,0,1
102439,-100,4,2,10,80,0,1
102752,-100,4,2,10,80,0,0
112283,-100,4,2,10,90,0,0
112752,-100,4,2,10,30,0,0
113533,-100,4,2,10,70,0,0
113845,-100,4,2,10,80,0,0
115252,-100,4,2,10,80,0,1
132439,-100,4,2,10,80,0,0
132752,-100,4,2,10,80,0,1
132908,-100,4,2,10,50,0,1
133064,-100,4,2,10,80,0,1
133142,-100,4,2,10,50,0,1
133377,-100,4,2,10,80,0,1
133455,-100,4,2,10,50,0,1
133689,-100,4,2,10,80,0,1
133767,-100,4,2,10,50,0,1
134002,-100,4,2,10,80,0,1
134158,-100,4,2,10,50,0,1
134314,-100,4,2,10,80,0,1
134392,-100,4,2,10,50,0,1
134627,-100,4,2,10,80,0,1
134705,-100,4,2,10,50,0,1
134939,-100,4,2,10,80,0,1
135252,-100,4,2,10,80,0,1
135330,-100,4,2,10,50,0,1
135564,-100,4,2,10,80,0,1
135642,-100,4,2,10,50,0,1
135877,-100,4,2,10,80,0,1
135955,-100,4,2,10,50,0,1
136189,-100,4,2,10,80,0,1
136267,-100,4,2,10,50,0,1
136502,-100,4,2,10,80,0,1
136658,-100,4,2,10,50,0,1
136814,-100,4,2,10,80,0,1
136970,-100,4,2,10,50,0,1
137127,-100,4,2,10,80,0,1
137283,-100,4,2,10,50,0,1
137439,-100,4,2,10,80,0,1
137517,-100,4,2,10,50,0,1
137752,-100,4,2,10,80,0,1
137908,-100,4,2,10,50,0,1
138064,-100,4,2,10,80,0,1
138142,-100,4,2,10,50,0,1
138377,-100,4,2,10,80,0,1
138455,-100,4,2,10,50,0,1
138689,-100,4,2,10,80,0,1
138767,-100,4,2,10,50,0,1
139002,-100,4,2,10,80,0,1
139158,-100,4,2,10,50,0,1
139314,-100,4,2,10,80,0,1
139392,-100,4,2,10,50,0,1
139627,-100,4,2,10,80,0,1
139705,-100,4,2,10,50,0,1
139939,-100,4,2,10,80,0,1
140252,-100,4,2,10,80,0,1
140330,-100,4,2,10,50,0,1
140564,-100,4,2,10,80,0,1
140642,-100,4,2,10,50,0,1
140877,-100,4,2,10,80,0,1
140955,-100,4,2,10,50,0,1
141189,-100,4,2,10,80,0,1
141267,-100,4,2,10,50,0,1
141502,-100,4,2,10,80,0,1
142752,-100,4,2,10,70,0,0
147752,-111.111111111111,4,2,10,80,0,0

[Colours]
Combo1 : 28,200,166
Combo2 : 225,182,22
Combo3 : 37,180,108

[HitObjects]
66,87,2439,5,0,0:0:0:0:
66,87,2752,6,0,L|193:78,1,104,2|2,0:0|0:0,0:0:0:0:
230,33,3220,1,2,0:0:0:0:
230,33,3377,2,0,P|246:73|215:144,1,104,2|2,0:0|0:0,0:0:0:0:
191,195,3845,6,0,P|244:174|297:193,2,104,2|2|2,0:0|0:0|0:0,0:0:0:0:
49,249,4783,2,0,L|61:312,1,52,2|0,0:0|0:0,0:0:0:0:
26,368,5095,1,2,0:0:0:0:
26,368,5252,6,0,P|86:339|131:360,1,104,2|2,0:0|0:0,0:0:0:0:
192,366,5720,1,2,0:0:0:0:
192,366,5877,2,0,P|249:366|293:327,1,104,2|2,0:0|0:0,0:0:0:0:
330,278,6345,6,0,L|350:382,2,104,2|2|2,0:0|0:0|0:0,0:0:0:0:
450,83,7439,1,4,0:3:0:0:
450,83,7517,2,0,L|414:91,2,26,8|8|8,0:0|0:0|0:0,0:0:0:0:
397,122,7752,6,0,B|371:103|365:75|365:75|283:84,1,116.999996429443,6|10,3:2|0:0,0:0:0:0:
237,30,8220,1,10,0:0:0:0:
158,65,8377,2,0,P|128:120|154:184,1,116.999996429443,2|10,3:2|0:0,0:0:0:0:
139,254,8845,6,0,P|105:248|78:223,1,58.4999982147217,2|0,3:2|0:0,0:0:0:0:
12,189,9158,2,0,L|5:258,1,58.4999982147217,2|8,3:2|0:0,0:0:0:0:
5,332,9470,2,0,B|39:328|48:319|48:319|85:344|130:344,1,116.999996429443,10|2,0:0|3:2,0:0:0:0:
198,327,9939,1,8,0:0:0:0:
198,327,10095,1,2,0:0:0:0:
275,364,10252,6,0,L|288:232,1,116.999996429443,2|10,3:2|0:0,0:0:0:0:
217,197,10720,1,10,0:0:0:0:
273,132,10877,2,0,B|305:162|305:162|392:159,1,116.999996429443,2|10,3:2|0:0,0:0:0:0:
463,167,11345,6,0,P|459:134|432:104,1,58.4999982147217,2|0,3:2|0:0,0:0:0:0:
449,27,11658,2,0,P|414:30|386:57,1,58.4999982147217,2|8,3:2|0:0,0:0:0:0:
310,51,11970,2,0,L|177:39,1,116.999996429443,10|0,0:0|3:0,0:0:0:0:
110,12,12439,1,8,0:0:0:0:
35,149,12752,6,0,P|76:116|145:128,1,104,6|10,3:2|0:0,0:0:0:0:
179,172,13220,1,10,0:0:0:0:
179,172,13377,2,0,P|228:135|277:151,1,104,2|10,3:2|0:0,0:0:0:0:
323,195,13845,1,0,3:0:0:0:
323,195,14002,5,2,0:0:0:0:
399,178,14158,2,0,B|427:143|427:143|411:67,1,104,2|10,3:2|0:0,0:0:0:0:
358,30,14627,1,8,3:2:0:0:
282,50,14783,2,0,L|270:-10,2,52,10|10|10,0:0|3:2|3:2,0:0:0:0:
207,75,15252,6,0,L|89:63,1,104,6|10,3:2|0:0,0:0:0:0:
30,38,15720,1,2,3:2:0:0:
30,38,15877,2,0,L|16:147,1,104,10|10,0:0|0:0,0:0:0:0:
3,217,16345,1,2,3:2:0:0:
3,217,16502,6,0,L|126:233,1,104,8|8,0:0|0:0,0:0:0:0:
183,222,16970,2,0,L|175:287,1,52,2|8,3:2|0:0,0:0:0:0:
247,306,17283,2,0,L|259:185,1,104,2|0,3:2|3:0,0:0:0:0:
261,124,17752,6,0,P|286:129|308:143,1,52,4|2,3:2|0:0,0:0:0:0:
348,209,18064,2,0,P|377:189|401:190,1,52,10|10,0:0|0:0,0:0:0:0:
470,195,18377,2,0,P|428:141|441:88,1,104,2|8,3:2|0:0,0:0:0:0:
459,36,18845,1,2,3:2:0:0:
459,36,19002,6,0,P|413:67|357:58,1,104,2|10,0:0|0:0,0:0:0:0:
294,34,19470,1,10,0:0:0:0:
294,34,19627,2,0,P|269:30|234:50,1,52,2|2,3:2|3:2,0:0:0:0:
184,88,19939,1,10,0:0:0:0:
238,234,20252,6,0,L|351:223,1,104,14|10,0:0|0:0,0:0:0:0:
418,236,20720,1,2,3:2:0:0:
418,236,20877,2,0,L|410:114,1,104,10|10,0:0|0:0,0:0:0:0:
429,56,21345,1,2,3:2:0:0:
429,56,21502,2,0,L|307:63,1,104,8|8,0:0|0:0,0:0:0:0:
249,78,21970,2,0,L|254:13,1,52,2|8,3:2|0:0,0:0:0:0:
178,2,22283,2,0,L|169:118,1,104,2|0,3:2|3:0,0:0:0:0:
216,168,22752,5,4,3:2:0:0:
216,168,22908,2,0,L|94:157,1,104,0|8,0:0|0:0,0:0:0:0:
36,139,23377,2,0,P|32:166|43:202,1,52,2|2,3:2|3:2,0:0:0:0:
56,265,23689,2,0,P|85:255|97:230,1,52,10|2,0:0|3:2,0:0:0:0:
112,158,24002,6,0,L|221:169,1,104,0|8,0:0|0:0,0:0:0:0:
267,226,24470,1,10,0:0:0:0:
342,203,24627,2,0,P|354:182|353:150,1,52,2|2,3:2|3:2,0:0:0:0:
428,132,24939,2,0,P|408:100|385:81,1,52,10|0,0:0|0:0,0:0:0:0:
445,27,25252,6,0,L|321:43,1,104,6|10,3:2|0:0,0:0:0:0:
278,85,25720,1,2,3:2:0:0:
278,85,25877,2,0,L|163:103,1,104,10|10,0:0|0:0,0:0:0:0:
112,147,26345,1,2,3:2:0:0:
112,147,26502,2,0,L|234:159,1,104,8|8,0:0|0:0,0:0:0:0:
273,209,26970,2,0,L|340:218,1,52,2|8,3:2|0:0,0:0:0:0:
378,159,27283,2,0,B|406:193|406:193|396:275,1,104,2|0,3:2|3:0,0:0:0:0:
456,305,27752,5,4,3:2:0:0:
456,305,27908,2,0,P|412:290|357:317,1,104,2|8,0:0|0:0,0:0:0:0:
312,373,28377,2,0,P|297:355|286:326,1,52,2|0,3:2|3:0,0:0:0:0:
208,327,28689,2,0,P|214:298|228:271,1,52,10|2,0:0|3:2,0:0:0:0:
295,246,29002,6,0,L|279:131,1,104,2|10,0:0|0:0,0:0:0:0:
315,73,29470,1,10,0:0:0:0:
315,73,29627,2,0,P|292:66|259:70,1,52,2|2,3:2|3:2,0:0:0:0:
202,115,29939,2,0,P|180:122|138:127,1,52,10|0,0:0|0:0,0:0:0:0:
86,82,30252,6,0,L|98:204,1,104,14|10,0:0|0:0,0:0:0:0:
166,219,30720,1,2,3:2:0:0:
166,219,30877,2,0,L|181:346,1,104,10|10,0:0|0:0,0:0:0:0:
255,325,31345,1,2,3:2:0:0:
255,325,31502,2,0,L|269:207,1,104,8|8,0:0|0:0,0:0:0:0:
324,168,31970,2,0,L|333:95,1,52,2|8,3:2|0:0,0:0:0:0:
368,47,32283,2,0,P|332:77|265:72,1,104,2|0,3:2|3:0,0:0:0:0:
214,30,32752,6,0,B|193:68|193:68|207:144,1,104,6|8,3:2|0:0,0:0:0:0:
174,199,33220,2,0,P|220:172|280:188,1,104,10|2,0:0|3:2,0:0:0:0:
232,249,33689,1,10,0:0:0:0:
113,350,34002,5,2,0:0:0:0:
113,350,34158,2,0,P|91:327|82:293,1,52,2|8,3:2|0:0,0:0:0:0:
6,296,34470,2,0,P|18:264|42:238,1,52,10|0,0:0|3:0,0:0:0:0:
20,171,34783,2,0,L|141:151,1,104,2|0,3:2|0:0,0:0:0:0:
169,91,35252,6,0,P|195:119|190:192,1,104,2|8,3:2|0:0,0:0:0:0:
179,258,35720,2,0,P|239:225|273:237,1,104,10|2,0:0|3:2,0:0:0:0:
323,290,36189,1,10,0:0:0:0:
464,222,36502,6,0,L|476:164,1,52,2|0,0:0|3:0,0:0:0:0:
437,102,36814,1,10,0:0:0:0:
476,34,36970,2,0,P|432:59|366:36,1,104,10|0,0:0|3:0,0:0:0:0:
308,21,37439,1,8,0:0:0:0:
308,21,37595,1,0,0:0:0:0:
239,58,37752,6,0,L|258:165,1,104,2|8,3:2|0:0,0:0:0:0:
209,222,38220,2,0,P|271:208|313:239,1,104,10|2,0:0|3:2,0:0:0:0:
381,218,38689,2,0,L|371:289,1,52,10|2,0:0|3:2,0:0:0:0:
310,316,39002,5,2,0:0:0:0:
310,316,39158,2,0,L|316:388,1,52,2|8,3:2|0:0,0:0:0:0:
392,363,39470,2,0,P|441:374|488:354,1,104,10|2,0:0|3:2,0:0:0:0:
500,276,39939,1,8,0:0:0:0:
471,122,40252,6,0,P|438:108|400:111,1,52,6|0,3:2|0:0,0:0:0:0:
382,40,40564,2,0,P|355:63|349:89,1,52,10|2,0:0|3:2,0:0:0:0:
271,83,40877,2,0,L|294:205,1,104,10|10,0:0|0:0,0:0:0:0:
339,245,41345,6,0,P|291:226|244:245,1,104,6|0,3:2|3:0,0:0:0:0:
188,300,41814,2,0,P|151:289|133:277,1,52,8|0,0:0|3:0,0:0:0:0:
68,315,42127,2,0,P|43:284|39:265,1,52,10|4,0:3|0:3,0:0:0:0:
47,194,42439,1,12,0:0:0:0:
47,194,42752,6,0,L|35:107,1,65,6|2,3:2|3:2,0:0:0:0:
82,57,43064,1,10,0:0:0:0:
148,108,43220,2,0,P|180:106|218:82,1,65,2|2,3:2|0:0,0:0:0:0:
282,48,43533,2,0,L|377:62,1,65,2|8,3:2|0:0,0:0:0:0:
421,7,43845,6,0,B|431:86|431:86|397:124,1,130,6|2,3:2|3:2,0:0:0:0:
310,136,44314,1,10,0:0:0:0:
310,136,44470,2,0,L|320:215,1,65,2|0,0:0|3:0,0:0:0:0:
380,258,44783,1,2,3:2:0:0:
438,197,44939,2,0,P|469:186|526:204,1,65,8|2,0:0|0:0,0:0:0:0:
380,258,45252,6,0,L|397:349,1,65,6|2,3:2|3:2,0:0:0:0:
325,373,45564,2,0,P|296:377|254:359,1,65,10|2,0:0|3:2,0:0:0:0:
190,320,45877,1,2,0:0:0:0:
108,297,46033,2,0,P|66:300|31:328,1,65,2|8,3:2|0:0,0:0:0:0:
190,320,46345,6,0,L|171:168,1,130,6|0,3:2|3:0,0:0:0:0:
119,125,46814,1,8,0:0:0:0:
156,49,46970,2,0,P|194:69|239:64,1,65,0|4,3:0|3:3,0:0:0:0:
296,44,47283,2,0,L|305:3,2,32.5,10|8|2,0:0|0:0|3:2,0:0:0:0:
377,66,47595,6,0,L|363:147,1,65,10|4,0:0|3:2,0:0:0:0:
298,181,47908,1,2,3:2:0:0:
298,181,48064,1,10,0:0:0:0:
363,234,48220,2,0,P|399:217|448:236,1,65,6|0,3:2|0:0,0:0:0:0:
485,277,48533,1,2,3:2:0:0:
485,277,48689,1,10,0:0:0:0:
468,359,48845,6,0,B|411:341|411:341|336:356,2,130,6|2|2,3:2|3:2|0:0,0:0:0:0:
485,277,49627,2,0,L|472:130,1,130,0|8,3:0|0:0,0:0:0:0:
441,67,50095,6,0,P|377:91|325:46,1,130,2|2,0:0|3:2,0:0:0:0:
264,5,50564,1,10,0:0:0:0:
264,5,50720,1,2,3:2:0:0:
191,49,50877,2,0,L|104:40,1,65,10|2,0:0|3:2,0:0:0:0:
259,102,51189,1,10,0:0:0:0:
187,147,51345,6,0,P|242:189|313:171,1,130,6|8,3:2|0:0,0:0:0:0:
315,169,51736,1,0,0:0:0:0:
336,159,51814,2,0,L|328:233,1,65,8|8,3:2|3:2,0:0:0:0:
376,293,52127,1,8,3:2:0:0:
227,372,52439,1,0,0:0:0:0:
73,323,52752,6,0,L|59:197,1,123.499996702194,6|10,3:2|0:0,0:0:0:0:
52,120,53220,1,10,0:0:0:0:
52,120,53377,2,0,B|79:115|111:135|111:135|153:129|182:95,1,123.499996702194,2|10,3:2|0:0,0:0:0:0:
238,74,53845,6,0,P|271:72|317:96,1,61.7499983510972,2|0,3:2|0:0,0:0:0:0:
369,117,54158,2,0,L|358:204,1,61.7499983510972,2|8,3:2|0:0,0:0:0:0:
447,106,54470,2,0,L|432:245,1,123.499996702194,10|2,0:0|3:2,0:0:0:0:
375,284,54939,1,8,0:0:0:0:
375,284,55095,1,2,0:0:0:0:
417,352,55252,6,0,P|360:313|300:332,1,123.499996702194,2|10,3:2|0:0,0:0:0:0:
239,360,55720,1,10,0:0:0:0:
239,360,55877,2,0,B|209:377|161:360|161:360|192:304,1,123.499996702194,2|10,3:2|0:0,0:0:0:0:
141,253,56345,6,0,P|108:270|64:266,1,61.7499983510972,2|0,3:2|0:0,0:0:0:0:
6,248,56658,2,0,L|14:177,1,61.7499983510972,2|8,3:2|0:0,0:0:0:0:
92,191,56970,2,0,L|101:109,1,61.7499983510972,10|0,0:0|3:0,0:0:0:0:
162,80,57283,1,10,0:0:0:0:
219,136,57439,2,0,P|254:136|288:124,1,61.7499983510972,0|10,3:0|0:0,0:0:0:0:
337,72,57752,6,0,P|410:66|455:121,1,123.499996702194,6|10,3:2|0:0,0:0:0:0:
471,172,58220,1,10,0:0:0:0:
471,172,58377,2,0,B|466:233|466:233|435:244|417:277,1,123.499996702194,2|10,3:2|0:0,0:0:0:0:
485,317,58845,6,0,P|454:343|420:349,1,61.7499983510972,2|0,3:2|0:0,0:0:0:0:
356,326,59158,2,0,P|339:292|351:245,1,61.7499983510972,2|8,3:2|0:0,0:0:0:0:
273,224,59470,2,0,P|307:192|387:200,1,123.499996702194,10|2,0:0|3:2,0:0:0:0:
452,232,59939,1,8,0:0:0:0:
452,232,60095,1,2,0:0:0:0:
491,161,60252,6,0,L|502:29,1,123.499996702194,2|10,3:2|0:0,0:0:0:0:
422,22,60720,1,10,0:0:0:0:
422,22,60877,2,0,B|372:16|372:16|337:40|296:28,1,123.499996702194,2|10,3:2|0:0,0:0:0:0:
223,18,61345,6,0,L|211:93,1,61.7499983510972,2|0,3:2|0:0,0:0:0:0:
141,17,61658,2,0,L|128:92,1,61.7499983510972,2|8,3:2|0:0,0:0:0:0:
60,7,61970,2,0,L|37:155,1,123.499996702194,10|0,0:0|3:0,0:0:0:0:
85,196,62439,1,8,0:0:0:0:
38,323,62752,5,6,3:2:0:0:
38,323,62908,2,0,P|76:293|148:302,1,104,2|10,0:0|0:0,0:0:0:0:
202,321,63377,1,2,3:2:0:0:
202,321,63533,2,0,P|171:274|181:225,1,104,0|2,3:0|3:2,0:0:0:0:
222,164,64002,6,0,P|188:173|166:169,1,52,2|0,0:0|3:0,0:0:0:0:
97,145,64314,2,0,P|110:116|141:97,1,52,10|10,0:0|0:0,0:0:0:0:
171,39,64627,2,0,B|198:62|205:88|205:88|228:86|261:68,1,104,2|10,3:2|0:0,0:0:0:0:
386,62,65252,6,0,L|371:177,1,104,6|10,3:2|0:0,0:0:0:0:
456,129,65720,1,2,3:2:0:0:
456,129,65877,2,0,L|442:238,1,104,10|10,0:0|0:0,0:0:0:0:
372,165,66345,1,2,3:2:0:0:
372,165,66502,6,0,L|357:284,1,104,8|8,0:0|0:0,0:0:0:0:
442,232,66970,1,2,3:2:0:0:
442,232,67127,2,0,L|424:358,1,104,8|8,0:0|0:0,0:0:0:0:
361,376,67595,1,0,3:0:0:0:
361,376,67752,6,0,P|336:361|299:358,1,52,4|2,3:2|0:0,0:0:0:0:
299,280,68064,2,0,P|273:286|242:315,1,52,8|10,0:0|0:0,0:0:0:0:
200,359,68377,2,0,L|187:243,1,104,2|10,3:2|0:0,0:0:0:0:
123,212,68845,1,2,3:2:0:0:
123,212,69002,6,0,P|179:210|219:168,1,104,0|8,0:0|0:0,0:0:0:0:
190,104,69470,1,10,0:0:0:0:
190,104,69627,2,0,P|165:100|125:88,1,52,2|2,3:2|3:2,0:0:0:0:
80,143,69939,1,10,0:0:0:0:
85,299,70252,6,0,L|198:288,1,104,14|10,0:0|0:0,0:0:0:0:
134,210,70720,1,2,3:2:0:0:
134,210,70877,2,0,L|255:201,1,104,10|10,0:0|0:0,0:0:0:0:
188,288,71345,1,2,3:2:0:0:
188,288,71502,2,0,L|302:278,1,104,8|8,0:0|0:0,0:0:0:0:
237,202,71970,1,8,0:0:0:0:
237,202,72048,1,8,0:0:0:0:
237,202,72127,2,0,L|355:193,1,104,8|4,0:0|0:3,0:0:0:0:
473,276,72752,6,0,P|498:231|486:163,1,104,2|0,3:2|3:0,0:0:0:0:
478,103,73220,2,0,B|451:106|432:128|432:128|407:122|382:99,1,104,2|2,0:0|0:0,0:0:0:0:
333,48,73689,1,2,3:2:0:0:
228,164,74002,6,0,P|206:141|197:107,1,52,2|0,3:2|0:0,0:0:0:0:
122,106,74314,2,0,P|109:139|100:153,1,52,2|0,3:2|0:0,0:0:0:0:
120,228,74627,2,0,P|162:219|186:224,1,52,2|0,3:2|0:0,0:0:0:0:
228,164,74939,1,2,3:2:0:0:
361,245,75252,6,0,L|347:358,1,104,2|0,3:2|3:0,0:0:0:0:
273,370,75720,2,0,P|228:326|176:328,1,104,2|2,0:0|0:0,0:0:0:0:
127,371,76189,1,2,3:2:0:0:
13,263,76502,6,0,L|25:205,1,52,2|2,3:2|0:0,0:0:0:0:
74,153,76814,1,2,3:2:0:0:
19,96,76970,2,0,B|43:72|80:68|80:68|131:92,1,104,2|0,0:0|0:0,0:0:0:0:
178,125,77439,1,0,3:0:0:0:
178,125,77595,1,8,0:0:0:0:
244,165,77752,6,0,B|288:176|288:176|327:169|343:133,1,104,2|0,3:2|3:0,0:0:0:0:
306,73,78220,2,0,P|370:72|410:115,1,104,2|2,0:0|0:0,0:0:0:0:
477,101,78689,2,0,L|467:172,1,52,2|2,3:2|0:0,0:0:0:0:
394,175,79002,5,2,3:2:0:0:
394,175,79158,2,0,L|400:247,1,52,2|0,0:0|3:0,0:0:0:0:
452,282,79470,2,0,P|407:302|348:286,1,104,2|2,0:0|0:0,0:0:0:0:
304,230,79939,1,0,3:0:0:0:
196,343,80252,6,0,L|194:282,1,52,6|0,3:2|0:0,0:0:0:0:
144,230,80564,1,10,0:0:0:0:
144,230,80720,2,0,P|94:257|40:222,2,104,2|2|2,3:2|3:2|3:2,0:0:0:0:
207,182,81502,5,0,0:0:0:0:
264,233,81658,2,0,P|323:250|369:228,1,104,12|12,0:0|0:0,0:0:0:0:
421,185,82127,2,0,L|435:112,1,52,6|8,3:3|0:0,0:0:0:0:
390,67,82439,1,0,3:0:0:0:
221,83,82752,6,0,L|147:72,1,65,6|2,3:2|3:2,0:0:0:0:
87,25,83064,1,10,0:0:0:0:
31,86,83220,2,0,P|19:112|29:167,1,65,2|2,3:2|0:0,0:0:0:0:
17,232,83533,2,0,P|52:226|91:189,1,65,2|8,3:2|0:0,0:0:0:0:
123,279,83845,6,0,B|157:241|157:241|147:154,1,130,6|2,3:2|3:2,0:0:0:0:
228,134,84314,1,10,0:0:0:0:
228,134,84470,2,0,L|238:213,1,65,2|0,0:0|3:0,0:0:0:0:
311,237,84783,1,2,3:2:0:0:
285,317,84939,2,0,P|254:320|215:310,1,65,8|2,0:0|0:0,0:0:0:0:
311,237,85252,6,0,L|392:223,1,65,6|2,3:2|3:2,0:0:0:0:
442,276,85564,2,0,P|459:250|451:199,1,65,10|2,0:0|3:2,0:0:0:0:
409,148,85877,1,2,0:0:0:0:
456,78,86033,2,0,P|422:64|383:69,1,65,2|10,3:2|0:0,0:0:0:0:
328,12,86345,6,0,B|301:50|306:79|306:79|236:88,1,130,6|0,3:2|3:0,0:0:0:0:
182,32,86814,1,8,0:0:0:0:
108,72,86970,2,0,P|98:99|103:141,1,65,0|8,3:0|3:3,0:0:0:0:
160,195,87283,2,0,L|198:184,2,32.5,10|8|2,0:0|0:0|3:2,0:0:0:0:
92,245,87595,6,0,L|16:237,1,65,10|4,0:0|3:2,0:0:0:0:
131,326,87908,1,2,3:2:0:0:
131,326,88064,1,10,0:0:0:0:
186,262,88220,2,0,L|280:271,1,65,6|0,3:2|0:0,0:0:0:0:
152,183,88533,1,2,3:2:0:0:
152,183,88689,1,10,0:0:0:0:
99,116,88845,6,0,B|156:98|156:98|229:127,2,130,6|2|2,3:2|3:2|0:0,0:0:0:0:
13,110,89627,2,0,L|29:244,1,130,0|8,3:0|0:0,0:0:0:0:
3,308,90095,6,0,P|63:265|133:291,1,130,2|2,0:0|3:2,0:0:0:0:
181,327,90564,1,10,0:0:0:0:
181,327,90720,1,2,3:2:0:0:
257,289,90877,2,0,L|273:210,1,65,10|2,0:0|3:2,0:0:0:0:
223,154,91189,1,10,0:0:0:0:
262,79,91345,6,0,P|328:61|383:111,1,130,6|8,3:2|0:0,0:0:0:0:
398,129,91736,1,8,0:0:0:0:
398,129,91814,2,0,L|385:204,1,65,8|8,3:2|3:2,0:0:0:0:
354,271,92127,1,8,3:2:0:0:
495,362,92439,1,4,3:3:0:0:
354,271,92752,6,0,L|344:316,6,32.5,14|0|8|0|8|8|8,3:2|0:0|0:0|0:0|3:2|0:0|0:0,0:0:0:0:
286,219,93377,2,0,L|281:184,6,32.5,10|8|8|8|8|8|10,3:2|0:0|0:0|0:0|3:2|0:0|0:0,0:0:0:0:
226,279,94002,6,0,L|188:297,2,32.5,6|0|8,3:2|0:0|0:0,0:0:0:0:
183,206,94314,2,0,L|145:194,2,32.5,10|8|8,3:2|0:0|0:0,0:0:0:0:
218,128,94627,2,0,L|185:94,2,32.5,10|8|8,3:2|0:0|0:0,0:0:0:0:
293,90,94939,2,0,L|299:35,2,32.5,10|8|0,0:0|0:0|3:0,0:0:0:0:
351,151,95252,6,0,L|403:158,4,32.5,14|8|8|8|8,0:0|0:0|0:0|0:0|3:2,0:0:0:0:
302,220,95720,2,0,L|248:232,4,32.5,10|8|8|8|10,0:0|0:0|3:2|0:0|0:0,0:0:0:0:
363,278,96189,1,10,3:2:0:0:
200,326,96502,6,0,L|202:361,2,32.5,14|0|8,0:0|0:0|0:0,0:0:0:0:
129,279,96814,2,0,L|94:324,2,32.5,10|0|0,3:2|0:0|3:0,0:0:0:0:
79,209,97127,2,0,L|132:171,1,65,10|8,0:0|0:0,0:0:0:0:
153,134,97361,1,0,0:0:0:0:
153,134,97439,2,0,P|116:116|96:93,1,65,8|8,0:0|0:0,0:0:0:0:
170,51,97752,6,0,L|175:-2,4,32.5,14|0|8|8|8,3:2|0:0|0:0|0:0|3:2,0:0:0:0:
244,90,98220,2,0,L|253:132,4,32.5,10|8|8|8|10,0:0|0:0|3:2|0:0|0:0,0:0:0:0:
309,36,98689,1,10,3:2:0:0:
431,152,99002,6,0,L|470:135,6,32.5,6|0|8|8|10|8|10,3:2|0:0|0:0|0:0|3:2|0:0|0:0,0:0:0:0:
435,236,99627,2,0,L|486:249,6,32.5,10|8|8|8|8|8|0,3:2|0:0|0:0|0:0|0:3|0:3|3:0,0:0:0:0:
357,200,100252,6,0,P|348:231|354:271,1,65,14|8,0:0|0:0,0:0:0:0:
337,346,100564,2,0,P|294:345|257:360,1,65,8|8,3:2|0:0,0:0:0:0:
189,367,100877,2,0,L|180:320,4,32.5,10|8|8|8|8,3:2|0:0|0:0|0:0|3:2,0:0:0:0:
66,249,101502,5,14,0:0:0:0:
66,249,101580,1,8,0:0:0:0:
66,249,101658,2,0,L|79:302,4,32.5,8|8|4|4|8,0:3|0:3|0:3|0:3|0:0,0:0:0:0:
135,184,102127,2,0,L|177:204,2,32.5,10|8|4,0:3|0:3|0:3,0:0:0:0:
130,91,102439,2,0,L|202:72,1,65,12|0,0:0|0:0,0:0:0:0:
288,51,102752,5,6,3:2:0:0:
256,192,102830,12,6,105252,3:2:0:0:
59,77,110252,6,0,L|63:35,2,32.5,0|2|2,3:0|0:0|0:0,0:0:0:0:
107,153,110564,2,0,P|145:121|183:120,1,65,12|2,0:0|0:0,0:0:0:0:
234,169,110877,2,0,L|228:212,2,32.5,0|2|2,3:0|0:0|0:0,0:0:0:0:
310,120,111189,2,0,P|360:147|387:144,1,65,12|2,0:0|0:0,0:0:0:0:
420,73,111502,6,0,L|426:40,2,32.5,2|4|8,3:2|0:3|0:3,0:0:0:0:
468,150,111814,1,10,0:0:0:0:
479,240,111970,2,0,P|445:226|408:230,1,65,6|0,3:2|0:0,0:0:0:0:
355,294,112283,2,0,L|368:368,2,65,10|8|0,3:3|3:3|3:0,0:0:0:0:
277,245,112752,5,0,0:0:0:0:
277,245,113533,2,0,L|268:292,2,32.5,0|0|14,3:0|3:0|0:0,0:0:0:0:
233,165,113845,6,0,L|161:171,1,65,6|0,3:2|0:0,0:0:0:0:
88,213,114158,1,2,3:2:0:0:
15,153,114314,2,0,P|13:120|29:92,1,65,10|2,0:0|0:0,0:0:0:0:
112,52,114627,1,8,3:3:0:0:
112,52,114705,1,8,0:0:0:0:
112,52,114783,1,8,0:0:0:0:
202,87,114939,6,0,P|225:53|223:8,1,65,8|8,3:2|0:0,0:0:0:0:
318,10,115252,2,0,L|394:22,1,65,6|2,3:2|3:2,0:0:0:0:
468,48,115564,2,0,P|452:78|452:127,1,65,10|2,0:0|3:2,0:0:0:0:
367,150,115877,1,2,0:0:0:0:
367,150,116033,6,0,P|386:182|418:196,1,65,2|10,3:2|0:0,0:0:0:0:
500,184,116345,2,0,B|486:262|486:262|437:287,1,130,6|0,3:2|3:0,0:0:0:0:
352,260,116814,1,8,0:0:0:0:
272,303,116970,2,0,P|223:284|206:257,1,65,0|0,3:0|3:0,0:0:0:0:
190,187,117283,1,0,3:0:0:0:
190,187,117439,1,8,0:0:0:0:
125,251,117595,6,0,B|89:245|68:223|68:223|21:282,1,130,0|2,0:0|3:2,0:0:0:0:
16,364,118064,1,10,0:0:0:0:
16,364,118220,2,0,P|48:364|94:324,1,65,6|0,3:2|0:0,0:0:0:0:
166,330,118533,1,2,3:2:0:0:
166,330,118689,1,10,0:0:0:0:
249,366,118845,6,0,L|270:235,2,130,6|2|2,3:2|3:2|0:0,0:0:0:0:
339,352,119627,2,0,P|371:333|422:340,1,65,0|0,3:0|3:0,0:0:0:0:
478,373,119939,1,8,0:0:0:0:
473,282,120095,6,0,B|483:252|490:235|490:235|474:189|416:176,1,130,2|2,0:0|3:2,0:0:0:0:
376,111,120564,2,0,P|351:148|352:186,1,65,10|2,0:0|3:2,0:0:0:0:
376,254,120877,2,0,P|335:198|261:215,1,130,2|10,0:0|0:0,0:0:0:0:
209,258,121345,6,0,B|125:269|125:269|76:229,2,130,6|2|6,3:2|3:2|3:3,0:0:0:0:
279,200,122127,2,0,L|286:155,3,32.5,8|8|4|0,0:3|0:3|0:3|0:0,0:0:0:0:
262,128,122439,2,0,P|230:95|176:106,1,97.5,12|0,0:0|0:0,0:0:0:0:
152,135,122752,6,0,L|78:124,1,65,6|2,3:2|3:2,0:0:0:0:
40,203,123064,1,10,0:0:0:0:
49,293,123220,2,0,P|84:277|110:245,1,65,2|2,3:2|0:0,0:0:0:0:
190,234,123533,2,0,L|195:322,1,65,2|8,3:2|0:0,0:0:0:0:
256,364,123845,6,0,B|290:326|290:326|288:242,1,130,6|2,3:2|3:2,0:0:0:0:
361,193,124314,1,10,0:0:0:0:
361,193,124470,2,0,P|331:166|286:158,1,65,2|0,0:0|3:0,0:0:0:0:
376,278,124783,1,2,3:2:0:0:
376,278,124939,2,0,L|457:266,1,65,8|2,0:0|0:0,0:0:0:0:
506,204,125252,6,0,P|490:165|466:152,1,65,6|2,3:2|3:2,0:0:0:0:
453,64,125564,2,0,P|413:88|393:119,1,65,10|2,0:0|3:2,0:0:0:0:
383,191,125877,1,2,0:0:0:0:
318,126,126033,2,0,L|245:117,1,65,2|10,3:2|0:0,0:0:0:0:
187,180,126345,6,0,B|157:145|157:145|153:87|192:52,1,130,6|8,3:2|0:0,0:0:0:0:
160,23,126736,1,8,0:0:0:0:
160,23,126814,2,0,P|121:42|83:37,1,65,0|8,3:0|0:0,0:0:0:0:
12,68,127127,2,0,L|2:34,2,32.5,8|0|6,0:0|0:0|3:2,0:0:0:0:
75,133,127439,1,2,0:0:0:0:
17,203,127595,6,0,L|6:289,1,65,10|4,0:0|3:2,0:0:0:0:
55,345,127908,1,2,3:2:0:0:
55,345,128064,1,10,0:0:0:0:
128,291,128220,2,0,P|162:291|201:310,1,65,6|0,3:2|0:0,0:0:0:0:
250,370,128533,1,2,3:2:0:0:
250,370,128689,1,10,0:0:0:0:
332,332,128845,6,0,B|353:280|353:280|326:193,2,130,6|2|2,3:2|3:2|0:0,0:0:0:0:
250,370,129627,2,0,L|110:357,1,130,2|8,3:2|0:0,0:0:0:0:
37,322,130095,6,0,P|37:260|89:212,1,130,2|2,0:0|3:2,0:0:0:0:
13,154,130564,1,10,0:0:0:0:
13,154,130720,1,2,3:2:0:0:
64,78,130877,2,0,P|97:84|123:112,1,65,10|2,0:0|3:2,0:0:0:0:
169,180,131189,1,10,0:0:0:0:
169,180,131345,1,6,3:2:0:0:
255,153,131502,6,0,B|237:119|237:119|249:66,1,65,2|8,0:0|0:0,0:0:0:0:
312,34,131814,2,0,L|320:-10,2,32.5,8|0|8,3:2|0:0|3:2,0:0:0:0:
382,92,132127,5,8,3:2:0:0:
382,92,132439,1,0,3:0:0:0:
468,252,132752,6,0,L|485:300,6,32.5,14|0|8|0|8|8|8,3:2|0:0|0:0|0:0|3:2|0:0|0:0,0:0:0:0:
392,303,133377,2,0,L|385:352,6,32.5,10|8|8|8|8|8|10,3:2|0:0|0:0|0:0|3:2|0:0|0:0,0:0:0:0:
307,269,134002,6,0,L|269:287,2,32.5,6|0|8,3:2|0:0|0:0,0:0:0:0:
267,187,134314,2,0,L|229:175,2,32.5,10|8|8,3:2|0:0|0:0,0:0:0:0:
295,100,134627,2,0,L|262:66,2,32.5,10|8|8,3:2|0:0|0:0,0:0:0:0:
373,53,134939,2,0,L|379:-2,2,32.5,10|8|0,0:0|0:3|3:0,0:0:0:0:
392,142,135252,6,0,L|444:149,4,32.5,12|8|8|8|8,0:0|0:0|0:0|0:0|3:2,0:0:0:0:
342,218,135720,2,0,L|382:260,4,32.5,10|8|8|8|10,0:0|0:0|3:2|0:0|0:0,0:0:0:0:
255,188,136189,1,10,3:2:0:0:
135,325,136502,6,0,L|111:364,2,32.5,14|0|10,0:0|0:0|0:0,0:0:0:0:
89,246,136814,2,0,L|42:260,2,32.5,10|0|2,3:2|0:0|3:0,0:0:0:0:
79,155,137127,2,0,L|163:174,1,65,10|8,0:0|0:0,0:0:0:0:
187,174,137361,1,0,0:0:0:0:
187,174,137439,2,0,P|176:122|180:96,1,65,8|4,0:0|0:3,0:0:0:0:
260,72,137752,6,0,L|277:20,4,32.5,14|0|8|8|8,3:2|0:0|0:0|0:0|3:2,0:0:0:0:
325,135,138220,2,0,L|373:107,4,32.5,10|8|8|8|10,0:0|0:0|3:2|0:0|0:0,0:0:0:0:
291,219,138689,1,10,3:2:0:0:
470,251,139002,6,0,L|504:278,6,32.5,6|0|8|8|10|8|10,3:2|0:0|0:0|0:0|3:2|0:0|0:0,0:0:0:0:
403,313,139627,2,0,L|422:355,6,32.5,10|8|8|8|8|8|8,3:2|0:0|0:0|0:0|0:3|0:3|0:0,0:0:0:0:
319,350,140252,6,0,L|230:338,1,65,14|8,0:0|0:0,0:0:0:0:
174,379,140564,1,8,3:2:0:0:
174,379,140642,1,8,0:0:0:0:
174,379,140720,1,8,0:0:0:0:
115,309,140877,2,0,L|79:315,2,32.5,10|8|8,3:2|0:0|0:0,0:0:0:0:
162,231,141189,2,0,P|197:227|232:253,1,65,8|8,3:2|0:0,0:0:0:0:
291,168,141502,6,0,L|279:86,1,65,6|8,3:2|0:0,0:0:0:0:
347,40,141814,2,0,L|415:22,1,65,8|8,0:0|0:0,0:0:0:0:
512,69,142127,1,10,0:0:0:0:
495,158,142283,1,8,0:0:0:0:
478,247,142439,1,0,3:0:0:0:
478,247,142752,5,6,3:2:0:0:
75,72,147283,5,0,3:0:0:0:
75,72,147439,1,8,0:0:0:0:
75,72,147752,6,0,B|105:44|105:44|206:33,1,116.999996429443,6|10,3:2|0:0,0:0:0:0:
243,88,148220,1,10,0:0:0:0:
300,29,148377,2,0,P|325:63|296:148,1,116.999996429443,2|10,3:2|0:0,0:0:0:0:
241,173,148845,6,0,P|207:167|180:142,1,58.4999982147217,2|0,3:2|0:0,0:0:0:0:
109,176,149158,2,0,L|119:248,1,58.4999982147217,2|8,3:2|0:0,0:0:0:0:
39,259,149470,2,0,B|20:127,1,116.999996429443,10|2,0:0|3:2,0:0:0:0:
72,77,149939,1,8,0:0:0:0:
72,77,150095,1,2,0:0:0:0:
137,27,150252,6,0,B|171:10|214:24|214:24|234:86,1,116.999996429443,2|10,3:2|0:0,0:0:0:0:
305,41,150720,1,10,0:0:0:0:
379,5,150877,2,0,B|391:64|391:64|417:63|448:99|448:99,1,116.999996429443,2|10,3:2|0:0,0:0:0:0:
482,160,151345,1,2,3:2:0:0:
482,160,151502,6,0,P|456:169|418:162,1,58.4999982147217,2|2,0:0|3:2,0:0:0:0:
380,233,151814,1,8,0:0:0:0:
380,233,151970,2,0,P|353:204|341:172,1,58.4999982147217,10|8,0:0|3:2,0:0:0:0:
367,107,152283,1,10,0:0:0:0:
292,74,152439,1,10,3:2:0:0:
225,121,152595,5,10,3:2:0:0:
